Дикие Галапагосы / Wild Galapagos
Год выпуска: 2017
Страна: Германия
Студия: NDR Naturfilm, Docl ights, Blue Planet Film
Жанр: Документальный, природа, флора, фауна
Продолжительность: ~ 2 x 00:50:00
Перевод: Студийный (одноголосый закадровый)
Доп. инфо о переводе: СВ-Дубль
Русские субтитры: есть
Режиссер: Томас Беренд / Thomas Behrend
Описание: На просторах Тихого океана существует собственный мир, единственный в своем роде. Миллионы лет назад из океана возникла новая земля, в которой будут обитать некоторые из самых странных существ на земле. Галапагосские острова, архипелаг, образованный неуправляемой силой стихий. Рай полностью во власти течений, претерпевающих постоянные преобразования, которые обеспечивают выживание всех животных на суше и в воде.
Сэмпл: https://www.sendspace.com/file/x75tk4
Тип релиза: HDTVRip 720p
Контейнер: MKV
Видео: 1280x720 (16:9), 25 fps, AVC (x264), [email protected], 4000 kbps avg, 0.174 bit/pixel
Аудио: Русский 48 kHz, AC3 Dolby Digital, 2/0 (L,R) ch, ~192.00 kbps avg
Аудио 2: Английский 48 kHz, AC3 Dolby Digital, 2/0 (L,R) ch, ~192.00 kbps avg
Формат субтитров: softsub (SRT)

MediaInfo

Complete name               : F:\Наладки\Галапагосы\01. В объятиях океана_720p.mkvFormat                      : MatroskaFormat version              : Version 4 / Version 2File size                   : 1.53 GiBDuration                    : 50 min 3 sOverall bit rate            : 4 382 kb/sEncoded date                : UTC 2019-03-09 08:07:02Writing application         : mkvmerge v6.6.0 ('The Edge Of The In Between') built on Dec  1 2013 17:55:00Writing library             : libebml v1.3.0 + libmatroska v1.4.1
VideoID : 1Format : AVCFormat/Info : Advanced Video CodecFormat profile : [email protected] settings : CABAC / 9 Ref FramesFormat settings, CABAC : YesFormat settings, ReFrames : 9 framesCodec ID : V_MPEG4/ISO/AVCDuration : 50 min 3 sBit rate : 4 000 kb/sWidth : 1 280 pixelsHeight : 720 pixelsDisplay aspect ratio : 16:9Frame rate mode : ConstantFrame rate : 25.000 FPSColor space : YUVChroma subsampling : 4:2:0Bit depth : 8 bitsScan type : ProgressiveBits/(Pixel*Frame) : 0.174Stream size : 1.37 GiB (89%)Writing library : x264 core 157 r2935 545de2fEncoding settings : cabac=1 / ref=9 / deblock=1:-3:-3 / analyse=0x3:0x133 / me=umh / subme=9 / psy=1 / psy_rd=1.00:0.00 / mixed_ref=1 / me_range=32 / chroma_me=1 / trellis=2 / 8x8dct=1 / cqm=0 / deadzone=21,11 / fast_pskip=1 / chroma_qp_offset=-2 / threads=12 / lookahead_threads=2 / sliced_threads=0 / nr=0 / decimate=0 / interlaced=0 / bluray_compat=0 / constrained_intra=0 / bframes=9 / b_pyramid=2 / b_adapt=2 / b_bias=0 / direct=3 / weightb=1 / open_gop=0 / weightp=2 / keyint=250 / keyint_min=25 / scenecut=40 / intra_refresh=0 / rc_lookahead=50 / rc=2pass / mbtree=1 / bitrate=4000 / ratetol=1.0 / qcomp=0.60 / qpmin=0 / qpmax=69 / qpstep=4 / cplxblur=20.0 / qblur=0.5 / ip_ratio=1.40 / aq=1:1.00Language : EnglishDefault : YesForced : No
Audio #1ID : 2Format : AC-3Format/Info : Audio Coding 3Codec ID : A_AC3Duration : 50 min 3 sBit rate mode : ConstantBit rate : 192 kb/sChannel(s) : 2 channelsChannel positions : Front: L RSampling rate : 48.0 kHzFrame rate : 31.250 FPS (1536 SPF)Bit depth : 16 bitsCompression mode : LossyStream size : 68.7 MiB (4%)Title : СВ-ДубльLanguage : RussianService kind : Complete MainDefault : YesForced : Yes
Audio #2ID : 3Format : AC-3Format/Info : Audio Coding 3Codec ID : A_AC3Duration : 50 min 3 sBit rate mode : ConstantBit rate : 192 kb/sChannel(s) : 2 channelsChannel positions : Front: L RSampling rate : 48.0 kHzFrame rate : 31.250 FPS (1536 SPF)Bit depth : 16 bitsCompression mode : LossyStream size : 68.7 MiB (4%)Language : EnglishService kind : Complete MainDefault : NoForced : No
TextID : 4Format : UTF-8Codec ID : S_TEXT/UTF8Codec ID/Info : UTF-8 Plain TextTitle : СВ-ДубльLanguage : RussianDefault : NoForced : No
Complete name : F:\Наладки\Галапагосы\02. В райском плену_720p.mkvFormat : MatroskaFormat version : Version 4 / Version 2File size : 1.53 GiBDuration : 50 min 3 sOverall bit rate : 4 382 kb/sEncoded date : UTC 2019-03-09 10:32:45Writing application : mkvmerge v6.6.0 ('The Edge Of The In Between') built on Dec 1 2013 17:55:00Writing library : libebml v1.3.0 + libmatroska v1.4.1
VideoID : 1Format : AVCFormat/Info : Advanced Video CodecFormat profile : [email protected] settings : CABAC / 9 Ref FramesFormat settings, CABAC : YesFormat settings, ReFrames : 9 framesCodec ID : V_MPEG4/ISO/AVCDuration : 50 min 3 sBit rate : 4 000 kb/sWidth : 1 280 pixelsHeight : 720 pixelsDisplay aspect ratio : 16:9Frame rate mode : ConstantFrame rate : 25.000 FPSColor space : YUVChroma subsampling : 4:2:0Bit depth : 8 bitsScan type : ProgressiveBits/(Pixel*Frame) : 0.174Stream size : 1.37 GiB (89%)Writing library : x264 core 157 r2935 545de2fEncoding settings : cabac=1 / ref=9 / deblock=1:-3:-3 / analyse=0x3:0x133 / me=umh / subme=9 / psy=1 / psy_rd=1.00:0.00 / mixed_ref=1 / me_range=32 / chroma_me=1 / trellis=2 / 8x8dct=1 / cqm=0 / deadzone=21,11 / fast_pskip=1 / chroma_qp_offset=-2 / threads=12 / lookahead_threads=2 / sliced_threads=0 / nr=0 / decimate=0 / interlaced=0 / bluray_compat=0 / constrained_intra=0 / bframes=9 / b_pyramid=2 / b_adapt=2 / b_bias=0 / direct=3 / weightb=1 / open_gop=0 / weightp=2 / keyint=250 / keyint_min=25 / scenecut=40 / intra_refresh=0 / rc_lookahead=50 / rc=2pass / mbtree=1 / bitrate=4000 / ratetol=1.0 / qcomp=0.60 / qpmin=0 / qpmax=69 / qpstep=4 / cplxblur=20.0 / qblur=0.5 / ip_ratio=1.40 / aq=1:1.00Language : EnglishDefault : YesForced : No
Audio #1ID : 2Format : AC-3Format/Info : Audio Coding 3Codec ID : A_AC3Duration : 50 min 3 sBit rate mode : ConstantBit rate : 192 kb/sChannel(s) : 2 channelsChannel positions : Front: L RSampling rate : 48.0 kHzFrame rate : 31.250 FPS (1536 SPF)Bit depth : 16 bitsCompression mode : LossyStream size : 68.7 MiB (4%)Title : СВ-ДубльLanguage : RussianService kind : Complete MainDefault : YesForced : Yes
Audio #2ID : 3Format : AC-3Format/Info : Audio Coding 3Codec ID : A_AC3Duration : 50 min 3 sBit rate mode : ConstantBit rate : 192 kb/sChannel(s) : 2 channelsChannel positions : Front: L RSampling rate : 48.0 kHzFrame rate : 31.250 FPS (1536 SPF)Bit depth : 16 bitsCompression mode : LossyStream size : 68.7 MiB (4%)Language : EnglishService kind : Complete MainDefault : NoForced : No
TextID : 4Format : UTF-8Codec ID : S_TEXT/UTF8Codec ID/Info : UTF-8 Plain TextTitle : СВ-ДубльLanguage : RussianDefault : NoForced : No

Содержание

01. В объятиях океана / In the Grip of the Ocean
На Галапагосских островах жизнь пробуждается и замирает в зависимости от приходящих и уходящих океанских течений. Здесь все подчинено их капризам, подстраивается под их ритм. Это земля пленников островов и сезонных гостей.
02. В райском плену / Trapped in Paradise
Вулканический ландшафт, который выглядит как поверхность Луны. Живым существам было непросто колонизировать эти места. И все же как-то им это удалось, а для некоторых это место стало личным раем, раем, откуда невозможно сбежать...

Скриншоты



If you like the topic, please click share to help develop our site.

To download the file disable ad blocking, and reload the page.

disable adblock How to disable ad blocking?

Download by magnet link 3.06 GB Download Torrent

Login using:

Similar topics

Живые воды / Living waters (2015) HDRip [H.264/1080p-LQ] [VO]
 1.9 GB   1 | 1   13-Nov-18 00:40   6


   
Current time is: 16-Jul 21:42 :: All times are UTC + 3