Налетчики / Мародеры / Marauders
Страна: США
Жанр: боевик, криминал
Год выпуска: 2016
Продолжительность: 01:47:07
Перевод: Профессиональный (дублированный)
Cубтитры: нет
Режиссер: Стивен С. Миллер / Steven C. Miller
В ролях: Брюс Уиллис, Кристофер Мелони, Дэйв Батиста, Эдриан Гренье, Лидия Халл, Тайлер Джон Олсон, Кристофер Роб Бауэн, Ричи Чэнс, Дэнни А. Абекейзер
Описание: Группа хорошо вооруженных налетчиков в масках совершает дерзкое ограбление одного из отделений крупнейшего американского банка. Молниеносная, продуманная до мелочей операция завершается похищением трех миллионов долларов и хладнокровным убийством не оказывающего сопротивления банковского менеджера. Вскоре похищенные деньги поступают на счет благотворительной организации. Во время следующего налета бандитов интересуют не только деньги, но и содержимое некоторых банковских ячеек, в которых хранятся документы, компрометирующие ряд высокопоставленных лиц. Спецагент ФБР Монтгомери и его помощники подозревают, что за преступлением таинственных «робин гудов» скрываются личные мотивы. Месть или своеобразная борьба с несправедливостью? Пострадавшая сторона – владелец многомиллионного состояния, президент банка Хьюберт – явно что-то скрывает. Улики, словно специально оставленные налетчиками, наводят на след погибшего пять лет назад рейнджера. Он был замешан в похищении и убийстве младшего брата Хьюберта. Кто на самом деле стоит за этой сомнительной историей? Кому была выгодна смерть молодого человека?...
Внимание перезалив : -- Рип с более качественного исходника ....
Сэмпл: http://multi-up.com/1151509
Качество видео: HDRip (Исходник Marauders.2016.D.BDRip.1080p.mkv)
Формат видео: AVI
Видео: XviD, 688x288, (2,40:1), 23,976 fps, 836 Кбит/с, 8 бит
Аудио: Русский (МР3, 2 ch, 48,0 KHz, 128 Kbps)
MediaInfo
Общее
Полное имя : F:\Видеофильмы\В и д е о\Налетчики (боевик, криминал 2016 год).avi
Формат : AVI
Формат/Информация : Audio Video Interleave
Размер файла : 746 Мбайт
Продолжительность : 1 ч. 47 м.
Общий поток : 973 Кбит/сек
Программа кодирования : VirtualDubMod 1.5.10.3 | www.virtualdub-fr.org || (build 2550/release)
Библиотека кодирования : VirtualDubMod build 2550/release
Видео
Идентификатор : 0
Формат : MPEG-4 Visual
Профиль формата : Advanced Simple@L5
Параметр BVOP формата : 2
Параметр QPel формата : Нет
Параметр GMC формата : Без точки перехода
Параметр матрицы формата : Выборочная
Идентификатор кодека : XVID
Идентификатор кодека/Подсказка : XviD
Продолжительность : 1 ч. 47 м.
Битрейт : 836 Кбит/сек
Ширина : 688 пикселей
Высота : 288 пикселей
Соотношение сторон : 2,40:1
Частота кадров : 23,976 (23976/1000) кадра/сек
Цветовое пространство : YUV
Субдискретизация насыщенности : 4:2:0
Битовая глубина : 8 бит
Тип развёртки : Прогрессивная
Метод сжатия : С потерями
Бит/(Пиксели*Кадры) : 0.176
Размер потока : 640 Мбайт (86%)
Библиотека кодирования : XviD 73
Аудио
Идентификатор : 1
Формат : MPEG Audio
Версия формата : Version 1
Профиль формата : Layer 3
Идентификатор кодека : 55
Идентификатор кодека/Подсказка : MP3
Продолжительность : 1 ч. 47 м.
Вид битрейта : Постоянный
Битрейт : 128 Кбит/сек
Каналы : 2 канала
Частота : 48,0 КГц
Метод сжатия : С потерями
Размер потока : 98,1 Мбайт (13%)
Выравнивание : Соединение по промежуткам
Продолжительность промежутка : 42 мс. (1,00 видеокадр)
Время предзагрузки промежутка : 504 мс.
Библиотека кодирования : LAME3.99r
Настройки программы : -m s -V 4 -q 2 -lowpass 17 -b 128
Скриншот c названием фильма Скриншоты

To download the file disable ad blocking, and reload the page.

disable adblock How to disable ad blocking?

Download by magnet link 746 MB Download Torrent

Login using:

Similar topics



   
Current time is: 20-Jan 14:50 :: All times are UTC + 3