Звонки / Rings
Страна: США
Жанр: Ужасы
Год выпуска: 2017
Продолжительность: 01:43:18
Перевод: Профессиональный (дублированный) iTunes
Cубтитры: нет
Оригинальная аудиодорожка: нет
Режиссер: Ф. Хавьер Гутьеррес / F. Javier Gutiérrez
В ролях: Матильда Анна Ингрид Лутс, Алекс Роу, Джонни Галэки, Винсент Д`Онофрио, Эйми Тигарден, Бонни Морган, Чак Дэвид Уиллис, Патрик Р. Уокер, Зак Рериг, Лаура Уиггинс
Описание: Молодой человек увлеченно исследует мрачную субкультуру, связанную с таинственной видеокассетой, через 7 дней после просмотра которой гибнет всякий увидевший запись. Однако, его девушка уверена, что бойфренду грозит опасность, и чтобы спасти его, она решает принять удар на себя. Её ждет немало чудовищных открытий, но самым страшным станет фильм в фильме, который прежде никто не видел.
Сэмпл: http://multi-up.com/1151484
Качество видео: WEB-DLRip
Формат видео: AVI
Видео: 720x400 (1.80:1), 23.976 fps, XviD build 50 ~1647 kbps avg, 0.24 bit/pixel
Аудио: 48 kHz, AC3 Dolby Digital, 3/2 (L,C,R,l,r) + LFE ch, ~384 kbps
MediaInfo
Format : AVI
Format/Info : Audio Video Interleave
File size : 1.46 GiB
Duration : 1 h 42 min
Overall bit rate : 2 041 kb/s
Writing application : VirtualDubMod 1.5.10.2 (build 2540/release)
Writing library : VirtualDubMod build 2540/release
Video
ID : 0
Format : MPEG-4 Visual
Format profile : Advanced [email protected]
Format settings, BVOP : 2
Format settings, QPel : No
Format settings, GMC : No warppoints
Format settings, Matrix : Default (MPEG)
Codec ID : XVID
Codec ID/Hint : XviD
Duration : 1 h 42 min
Bit rate : 1 648 kb/s
Width : 720 pixels
Height : 400 pixels
Display aspect ratio : 16:9
Frame rate : 23.976 (24000/1001) FPS
Color space : YUV
Chroma subsampling : 4:2:0
Bit depth : 8 bits
Scan type : Progressive
Compression mode : Lossy
Bits/(Pixel*Frame) : 0.239
Stream size : 1.18 GiB (81%)
Writing library : XviD 1.2.1 (UTC 2008-12-04)
Audio
ID : 1
Format : AC-3
Format/Info : Audio Coding 3
Mode extension : CM (complete main)
Format settings, Endianness : Big
Codec ID : 2000
Duration : 1 h 42 min
Bit rate mode : Constant
Bit rate : 384 kb/s
Channel(s) : 6 channels
Channel positions : Front: L C R, Side: L R, LFE
Sampling rate : 48.0 kHz
Frame rate : 31.250 FPS (1536 spf)
Compression mode : Lossy
Stream size : 281 MiB (19%)
Alignment : Split accross interleaves
Interleave, duration : 42 ms (1.00 video frame)
Interleave, preload duration : 500 ms
Скриншот c названием фильма Скриншоты

If you like the topic, please click share to help develop our site.

To download the file disable ad blocking, and reload the page.

disable adblock How to disable ad blocking?

Download by magnet link 1.46 GB Download Torrent

Login using:

Similar topics

Звонки / Rings (2017) BDRip-HEVC 1080p | D | Лицензия
 6.92 GB   2 | 0   24-May-17 00:30   2


   
Current time is: 23-Mar 01:11 :: All times are UTC + 3