Вне правил / Rules Don't Apply
Страна: США
Жанр: драма, мелодрама, комедия
Год выпуска: 2016
Продолжительность: 02:06:22
Перевод: Профессиональный (многоголосый закадровый) iTunes
Cубтитры: нет
Режиссер: Уоррен Битти / Warren Beatty
В ролях: Уоррен Битти, Лили Коллинз, Олден Эренрайк, Аннетт Бенинг, Мэттью Бродерик, Алек Болдуин, Хейли Беннетт, Кэндис Берген, Дэбни Коулмэн, Стив Кугэн.
Описание: Голливуд начала 60-х годов прошлого века. Марла Мабри и Фрэнк Форбс работают на эксцентричного миллиардера Говарда Хьюза. Он водитель, она начинающая актриса. Оба искренне верующие протестанты. Марла ждет, когда ее пригласят на кинопробы, Фрэнк вынашивает идею реализации проекта по приобретению недвижимости. Оба мечтают о встрече с Хьюзом, который славится нелюдимостью. В ожидании решающего знакомства молодые люди проникаются взаимной симпатией, которая вполне может довести их до прелюбодеяния. Между тем у Говарда Хьюза проблемы. Слухи о его эксцентричности достигли таких размеров, что под сомнение ставится его дееспособность, его могут поместить в психушку, а его бизнес попадет в таком случае под контроль опекунов. Тем временем между Хьюзом, Марлой и Фрэнком складываются тесные взаимоотношения. Судьбы троих людей переплетаются самым неожиданным образом.
Сэмпл: https://yadi.sk/i/5wBE8w5v3HGJr9
Качество видео: BDRip (Исходник Rules.Dont.Apply.2016.BDRemux 1080p_FreeRutor.mkv)
Формат видео: AVI
Видео: XviD 73, 720x384, (1,85:1), 23,976 fps, 1255 Кбит/с, 8 бит
Аудио: Русский (АС3, 6 ch (Front: L C R, Side: L R, LFE), 48,0 KHz, 384 Kbps)
MediaInfo
Общее
Полное имя : F:\Видеофильмы\В и д е о\Вне правил ( драма, мелодрама, комедия 2016 год).avi
Формат : AVI
Формат/Информация : Audio Video Interleave
Размер файла : 1,45 Гбайт
Продолжительность : 2 ч. 6 м.
Общий поток : 1648 Кбит/сек
Программа кодирования : VirtualDubMod 1.5.10.3 | www.virtualdub-fr.org || (build 2550/release)
Библиотека кодирования : VirtualDubMod build 2550/release
Видео
Идентификатор : 0
Формат : MPEG-4 Visual
Профиль формата : Advanced Simple@L5
Параметр BVOP формата : 2
Параметр QPel формата : Нет
Параметр GMC формата : Без точки перехода
Параметр матрицы формата : Выборочная
Идентификатор кодека : XVID
Идентификатор кодека/Подсказка : XviD
Продолжительность : 2 ч. 6 м.
Битрейт : 1255 Кбит/сек
Ширина : 720 пикселей
Высота : 384 пикселя
Соотношение сторон : 1,85:1
Частота кадров : 23,976 (23976/1000) кадра/сек
Цветовое пространство : YUV
Субдискретизация насыщенности : 4:2:0
Битовая глубина : 8 бит
Тип развёртки : Прогрессивная
Метод сжатия : С потерями
Бит/(Пиксели*Кадры) : 0.189
Размер потока : 1,11 Гбайт (76%)
Библиотека кодирования : XviD 73
Аудио
Идентификатор : 1
Формат : AC-3
Формат/Информация : Audio Coding 3
Расширение режима : CM (complete main)
Параметр Endianness формата : Big
Идентификатор кодека : 2000
Продолжительность : 2 ч. 6 м.
Вид битрейта : Постоянный
Битрейт : 384 Кбит/сек
Каналы : 6 каналов
Расположение каналов : Front: L C R, Side: L R, LFE
Частота : 48,0 КГц
Частота кадров : 31,250 кадров/сек (1536 spf)
Метод сжатия : С потерями
Размер потока : 347 Мбайт (23%)
Выравнивание : Разделение по промежуткам
Продолжительность промежутка : 42 мс. (1,00 видеокадр)
Время предзагрузки промежутка : 500 мс.
Скриншот c названием фильма Скриншоты

To download the file disable ad blocking, and reload the page.

disable adblock How to disable ad blocking?

Download by magnet link 1.45 GB Download Torrent

Login using:

Similar topics

Вне правил / Rules Don't Apply (2016) BDRip 720p | iTunes
 6.11 GB   0 | 0   22-Apr-17 22:30   0


   
Current time is: 20-Jan 14:52 :: All times are UTC + 3