Капитан Фантастик / Captain Fantastic
Страна: США
Студия: Electric City Entertainment, Post Haste Sound, ShivHans Pictures
Жанр: Драма, мелодрама, комедия
Год выпуска: 2016
Продолжительность: 01:59:29
Перевод: Профессиональный (многоголосый закадровый) - Первый канал
Cубтитры: нет
Оригинальная аудиодорожка: нет
Режиссер: Мэтт Росс / Matt Ross
В ролях: Вигго Мортенсен, Джордж МакКэй, Саманта Ислер, Анналиса Бассо, Николас Хэмилтон, Шри Крукс, Чарли Шотуэлл, Трин Миллер, Кэтрин Хан, Стив Зан, Элайджа Стивенсон, Тедди Ван Ии, Эрин Мориарти, Мисси Пайл, Фрэнк Ланджелла, Майк Миллер
Описание: Когда-то Бен Кэш вместе с любимой женой Лесли решил оставить привычный образ жизни и перебрался в глухой лес, где построил все необходимое и полностью перестал зависеть от внешнего мира. Постепенно в семье появилось шестеро детей. Они говорят на нескольких языках, знают квантовую физику и разбираются в философии. Они умеют охотиться и обращаться с оружием. Они живут в лесу в полной гармонии с природой. Лишь стечение обстоятельств заставляет их покинуть родной дом и отправиться в большой город. Что будет, когда они столкнутся с цивилизацией, когда на них обрушится первая любовь и мир гаджетов и социальных сетей?
Дополнительная информация:
Автор релиза -
Источник для рипа - BDRip 1080p
Источник аудио - HDTV 1080i TS - моя запись с канала Первый HD


Сэмпл: https://yadi.sk/i/cYCTKBed3HFqFs
Качество видео: HDRip
Формат видео: AVI
Видео: XviD, 720x304 (2,35:1), 23.976 fps, 1543 kbps, 0.294 bit/pixel
Аудио: Русский AC3, 48000 Гц, 2ch, 192 kbps
MediaInfo
ОбщееПолное имя : D:\Captain.Fantastic.2016.HDRip-ylnian.aviФормат : AVIФормат/Информация : Audio Video InterleaveРазмер файла : 1,46 ГбайтПродолжительность : 1 ч. 59 м.Общий поток : 1744 Кбит/секНазвание фильма : Captain.Fantastic.2016.HDRip-ylnianПрограмма кодирования : VirtualDubMod 1.5.10.2 (build 2540/release)Библиотека кодирования : VirtualDubMod build 2540/release
ВидеоИдентификатор : 0Формат : MPEG-4 VisualПрофиль формата : Advanced [email protected]Параметр BVOP формата : 1Параметр QPel формата : НетПараметр GMC формата : Без точки переходаПараметр матрицы формата : Default (MPEG)Идентификатор кодека : XVIDИдентификатор кодека/Подсказка : XviDПродолжительность : 1 ч. 59 м.Битрейт : 1543 Кбит/секШирина : 720 пикселейВысота : 304 пикселяСоотношение сторон : 2,35:1Частота кадров : 23,976 (24000/1001) кадра/секЦветовое пространство : YUVСубдискретизация насыщенности : 4:2:0Битовая глубина : 8 битТип развёртки : ПрогрессивнаяМетод сжатия : С потерямиБит/(Пиксели*Кадры) : 0.294Размер потока : 1,29 Гбайт (88%)Библиотека кодирования : XviD 67
АудиоИдентификатор : 1Формат : AC-3Формат/Информация : Audio Coding 3Параметр Endianness формата : BigИдентификатор кодека : 2000Продолжительность : 1 ч. 59 м.Вид битрейта : ПостоянныйБитрейт : 192 Кбит/секКаналы : 2 каналаРасположение каналов : Front: L RЧастота : 48,0 КГцЧастота кадров : 31,250 кадров/сек (1536 spf)Битовая глубина : 16 битМетод сжатия : С потерямиРазмер потока : 164 Мбайт (11%)Выравнивание : Разделение по промежуткамПродолжительность промежутка : 42 мс. (1,00 видеокадр)Время предзагрузки промежутка : 500 мс.Заголовок : MVO - 1 kanalServiceKind/String : Complete Main
Скриншот c названием фильма Скриншоты

If you like the topic, please click share to help develop our site.

To download the file disable ad blocking, and reload the page.

disable adblock How to disable ad blocking?

Download by magnet link 1.46 GB Download Torrent

Login using:

Similar topics



   
Current time is: 23-Mar 01:43 :: All times are UTC + 3