Сплит / Split
«Внутри Кевина живут 23 личности. Вскоре еще одна явит себя миру»
Страна: США
Жанр: Ужасы, Триллер
Год выпуска: 2016
Продолжительность: 01:57:07
Перевод: Субтитры FOCS
Cубтитры: русские, английские
Оригинальная аудиодорожка: английский
Режиссер: М. Найт Шьямалан / M. Night Shyamalan
В ролях: Джеймс МакЭвой, Аня Тейлор-Джой, Бетти Бакли, Хейли Лу Ричардсон, Джессика Сула, Иззи Коффи, Брэд Уильям Хенке, Себастьян Арселус, Нил Хафф, Уки ВашингтонОписание: Cредь бела дня с многолюдной парковки незнакомец похищает трёх школьниц. Они приходят в себя в закрытом помещении, а в душе владельца таятся 23 лика страха. Сменяя друг друга, личности ведут обычную для них жизнь — работают и ходят к психотерапевту, периодически напоминая пленницам, что они дожидаются 24-ю личность, которая скоро явит себя миру.-Релиз: Студия FOCS
Переводили: Оля Ромикова и Леся Шевченко- -Сэмпл: https://yadi.sk/i/f2MbvE1p3HCRev
Качество видео: BDRip
Формат видео: AVI
Видео: 720x304, 23.976 fps, XviD 1331 kbps avg, 0.254 bit/pixel
Аудио: 48 kHz, AC3 Dolby Digital, 3/2 (L,C,R,l,r) + LFE ch, ~448.00 kbps avg
Формат субтитров: softsub (SRT)
Пример субтитров
457
00:38:54,888 --> 00:38:58,645
С кем я сейчас говорю?
458
00:38:58,725 --> 00:39:01,461
Доктор Флетчер, я сейчас Барри.
459
00:39:02,195 --> 00:39:04,884
Что-то не похоже на Барри.
460
00:39:04,964 --> 00:39:07,153
Барри - экстравертный лидер.
461
00:39:07,233 --> 00:39:08,602
Да я такой.
462
00:39:10,870 --> 00:39:13,427
С профессиональной точки зрения,
463
00:39:13,507 --> 00:39:17,163
исходя с описания всех 23 личностей,
464
00:39:17,243 --> 00:39:19,699
живущих в теле Кевина,
465
00:39:19,779 --> 00:39:21,848
которые мне предоставил Барри,
466
00:39:24,117 --> 00:39:27,787
я думаю, что говорю с Деннисом.
467
00:39:31,124 --> 00:39:32,912
Но, помимо прочих причин,
468
00:39:32,992 --> 00:39:35,582
ему запретили выходить в свет из-за того,
469
00:39:35,662 --> 00:39:39,986
что он любит смотреть на обнаженных
танцующих девушек,
470
00:39:40,066 --> 00:39:41,921
зная, что это неправильно,
471
00:39:42,001 --> 00:39:44,758
но его борьба с этой склонностью
не увенчались успехом.
472
00:39:44,838 --> 00:39:47,594
Я рада, что наконец могу
с тобой познакомиться.
473
00:39:47,674 --> 00:39:49,095
Я догадалась,
474
00:39:49,175 --> 00:39:52,866
потому что, с тех пор, как пришел,
ты дважды поправил тарелку с конфетами.
475
00:39:52,946 --> 00:39:54,534
И я поняла, что у тебя обсессивно-компульсивное расстройство.
476
00:39:55,982 --> 00:39:58,472
Понимаю. Теперь мне ясно.
Очень умно.
477
00:39:58,552 --> 00:40:00,607
Очень умно, но я не Деннис.
478
00:40:00,687 --> 00:40:03,710
Вам с Патрицией запрещали выходить в свет
479
00:40:03,790 --> 00:40:05,645
уже долгое время.
480
00:40:05,725 --> 00:40:07,981
Так сказать, из-за ваших убеждений.
481
00:40:08,061 --> 00:40:10,517
Патриция и Деннис неуравновешенные.
MediaInfo
General
Complete name : D:\Artios\Split.2016.BDRip.avi
Format : AVI
Format/Info : Audio Video Interleave
File size : 1.46 GiB
Duration : 1h 57mn
Overall bit rate : 1 788 Kbps
Writing application : VirtualDubMod 1.5.10.3 | www.virtualdub-fr.org || (build 2550/release)
Writing library : VirtualDubMod build 2550/release
Video
ID : 0
Format : MPEG-4 Visual
Format profile : Advanced Simple@L5
Format settings, BVOP : 2
Format settings, QPel : No
Format settings, GMC : No warppoints
Format settings, Matrix : Custom
Codec ID : XVID
Codec ID/Hint : XviD
Duration : 1h 57mn
Bit rate : 1 331 Kbps
Width : 720 pixels
Height : 304 pixels
Display aspect ratio : 2.35:1
Frame rate : 23.976 fps
Color space : YUV
Chroma subsampling : 4:2:0
Bit depth : 8 bits
Scan type : Progressive
Compression mode : Lossy
Bits/(Pixel*Frame) : 0.254
Stream size : 1.09 GiB (74%)
Writing library : XviD 73
Audio
ID : 1
Format : AC-3
Format/Info : Audio Coding 3
Mode extension : CM (complete main)
Format settings, Endianness : Big
Codec ID : 2000
Duration : 1h 57mn
Bit rate mode : Constant
Bit rate : 448 Kbps
Channel count : 6 channels
Channel positions : Front: L C R, Side: L R, LFE
Sampling rate : 48.0 KHz
Bit depth : 16 bits
Compression mode : Lossy
Stream size : 375 MiB (25%)
Alignment : Split accross interleaves
Interleave, duration : 42 ms (1.00 video frame)
Interleave, preload duration : 500 ms
Скриншот c названием фильма Скриншоты Информация об исходнике
Рип Split.2016.1080p.BluRay.x264-SPARKS скачан с rarbg.
MediaInfo
Video
ID : 1
Format : AVC
Format/Info : Advanced Video Codec
Format profile : High@L4.1
Format settings, CABAC : Yes
Format settings, ReFrames : 5 frames
Codec ID : V_MPEG4/ISO/AVC
Duration : 1h 57mn
Bit rate : 9 179 Kbps
Width : 1 920 pixels
Height : 808 pixels
Display aspect ratio : 2.40:1
Frame rate mode : Constant
Frame rate : 23.976 fps
Color space : YUV
Chroma subsampling : 4:2:0
Bit depth : 8 bits
Scan type : Progressive
Bits/(Pixel*Frame) : 0.247
Stream size : 7.51 GiB (86%)
Writing library : x264 core 148 r2744 b97ae06
Encoding settings : cabac=1 / ref=5 / deblock=1:0:0 / analyse=0x3:0x133 / me=umh / subme=7 / psy=1 / psy_rd=1.00:0.00 / mixed_ref=1 / me_range=16 / chroma_me=1 / trellis=1 / 8x8dct=1 / cqm=0 / deadzone=21,11 / fast_pskip=0 / chroma_qp_offset=-2 / threads=18 / lookahead_threads=3 / sliced_threads=0 / nr=0 / decimate=1 / interlaced=0 / bluray_compat=0 / constrained_intra=0 / bframes=3 / b_pyramid=2 / b_adapt=1 / b_bias=0 / direct=1 / weightb=1 / open_gop=0 / weightp=2 / keyint=250 / keyint_min=23 / scenecut=40 / intra_refresh=0 / rc_lookahead=40 / rc=2pass / mbtree=1 / bitrate=9179 / ratetol=1.0 / qcomp=0.60 / qpmin=0 / qpmax=69 / qpstep=4 / cplxblur=20.0 / qblur=0.5 / ip_ratio=1.40 / aq=1:1.00
Language : English
Default : Yes
Forced : No
Audio
ID : 2
Format : DTS
Format/Info : Digital Theater Systems
Mode : 16
Format settings, Endianness : Big
Codec ID : A_DTS
Duration : 1h 57mn
Bit rate mode : Constant
Bit rate : 1 509 Kbps
Channel(s) : 6 channels
Channel positions : Front: L C R, Side: L R, LFE
Sampling rate : 48.0 KHz
Frame rate : 93.750 fps (512 spf)
Bit depth : 24 bits
Compression mode : Lossy
Stream size : 1.23 GiB (14%)
Language : English
Default : Yes
Forced : No
Menu
00:00:00.000 : en:00:00:00.000
00:06:08.451 : en:00:06:08.451
00:14:19.025 : en:00:14:19.025
00:20:49.373 : en:00:20:49.373
00:24:14.536 : en:00:24:14.536
00:28:37.049 : en:00:28:37.049
00:35:47.979 : en:00:35:47.979
00:42:35.386 : en:00:42:35.386
00:49:06.068 : en:00:49:06.068
00:54:09.413 : en:00:54:09.413
01:00:24.496 : en:01:00:24.496
01:06:22.562 : en:01:06:22.562
01:12:31.222 : en:01:12:31.222
01:19:35.771 : en:01:19:35.771
01:25:25.829 : en:01:25:25.829
01:29:16.560 : en:01:29:16.560
01:34:08.226 : en:01:34:08.226
01:40:45.998 : en:01:40:45.998
01:47:40.287 : en:01:47:40.287
01:52:26.740 : en:01:52:26.740
Внимание! Присутствует ненормативная лексика.

To download the file disable ad blocking, and reload the page.

disable adblock How to disable ad blocking?

Download by magnet link 1.46 GB Download Torrent

Login using:

Similar topics



   
Current time is: 20-Jan 15:03 :: All times are UTC + 3