Ла-Ла Ленд / La La Land«Бесстрашным мечтателям посвящается…»- Страна: США, Гонконг
Жанр: мюзикл, драма, мелодрама, комедия, музыка
Год выпуска: 2016
Продолжительность: 02:07:48
Перевод: Профессиональный (дублированный) (iTunes)
Оригинальная аудиодорожка: английский
Субтитры: русские (форс., полные) английские (полные, SDH)
Навигация по главам: есть
Режиссер: Дэмьен Шазелл / Damien Chazelle
В ролях: Райан Гослинг (Sebastian), Эмма Стоун (Mia), Джон Ледженд (Keith), Дж.К. Симмонс (Bill), Розмари ДеУитт (Laura), Финн Уиттрок (Greg), Калли Эрнандес (Tracy), Соноя Мидзуно (Caitlin), Джессика Рот (Alexis), Том Эверетт Скотт (David), Джошуа Пенс (Josh), Эмии Конн (Famous Actress)
Описание: Это история любви старлетки, которая между прослушиваниями подает кофе состоявшимся кинозвездам, и фанатичного джазового музыканта, вынужденного подрабатывать в заштатных барах. Но пришедший к влюбленным успех начинает подтачивать их отношения.- -Качество: BDRip-AVC (исходник - BDRemux|La.La.Land.2016.1080p.BluRay.REMUX.AVC.DTS-HD.MA.TrueHD.7.1.Atmos-FGT)
Формат видео: MKV
Видео: x264, 1144x448 (2.55:1) 23,976 fps, ~2438 kbps, 0.198 bit/pixel
Аудио 1: 48 kHz, AC3 Dolby Digital, 3/2 (L,C,R,l,r) + LFE ch, ~384 kbps [русский]
Аудио 2: 48 kHz, AC3 Dolby Digital, 3/2 (L,C,R,l,r) + LFE ch, ~448 kbps [английский]
Формат субтитров: softsub (SRT)-MediaInfo | x264 log
Format : Matroska
Format version : Version 4 / Version 2
File size : 2.98 GiB
Duration : 2h 7 min
Overall bit rate : 3 337 kb/s
Movie name : Ла-Ла Ленд / La La Land (2016) :: AFM ::
Encoded date : UTC 2017-04-20 06:52:02
Writing application : mkvmerge v8.3.0 ('Over the Horizon') 32bit
Writing library : libebml v1.3.1 + libmatroska v1.4.2
Video
ID : 1
Format : AVC
Format/Info : Advanced Video Codec
Format profile : High@L4.1
Format settings, CABAC : Yes
Format settings, ReFrames : 11 frames
Codec ID : V_MPEG4/ISO/AVC
Duration : 2h 7 min
Bit rate : 2 438 kb/s
Width : 1 144 pixels
Height : 448 pixels
Display aspect ratio : 2.554
Frame rate mode : Constant
Frame rate : 23.976 (24000/1001) FPS
Color space : YUV
Chroma subsampling : 4:2:0
Bit depth : 8 bits
Scan type : Progressive
Bits/(Pixel*Frame) : 0.198
Stream size : 2.18 GiB (73%)
Title : BDRip by AFM
Writing library : x264 core 150 r2773+45 df9a66c 7mod [8-bit@all X86_64]
Encoding settings : cabac=1 / ref=11 / deblock=1:-2:-2 / analyse=0x3:0x113 / me=umh / subme=10 / psy=1 / fade_compensate=0.00 / psy_rd=1.00:0.00 / mixed_ref=1 / me_range=64 / chroma_me=0 / trellis=2 / 8x8dct=1 / cqm=0 / deadzone=21,11 / fast_pskip=0 / chroma_qp_offset=-2 / threads=6 / lookahead_threads=1 / sliced_threads=0 / nr=0 / decimate=1 / interlaced=0 / bluray_compat=0 / constrained_intra=0 / fgo=0 / bframes=15 / b_pyramid=2 / b_adapt=2 / b_bias=0 / direct=1 / weightb=1 / open_gop=0 / weightp=2 / keyint=240 / keyint_min=23 / scenecut=40 / intra_refresh=0 / rc_lookahead=60 / rc=crf / mbtree=0 / crf=18.8100 / qcomp=0.65 / qpmin=0:0:0 / qpmax=69:69:69 / qpstep=4 / vbv_maxrate=50000 / vbv_bufsize=62500 / crf_max=0.0 / nal_hrd=none / filler=0 / ip_ratio=1.30 / pb_ratio=1.20 / aq=3:0.85 / aq-sensitivity=10.00 / aq-factor=1.00:1.00:1.00 / aq2=0 / aq3=0 / zones=172590,183850,q=30
Language : English
Default : Yes
Forced : No
Audio #1
ID : 2
Format : AC-3
Format/Info : Audio Coding 3
Mode extension : CM (complete main)
Format settings, Endianness : Big
Codec ID : A_AC3
Duration : 2h 7 min
Bit rate mode : Constant
Bit rate : 384 kb/s
Channel(s) : 6 channels
Channel positions : Front: L C R, Side: L R, LFE
Sampling rate : 48.0 kHz
Frame rate : 31.250 FPS (1536 spf)
Compression mode : Lossy
Stream size : 351 MiB (12%)
Title : Dub, AC3 5.1 ~384 kbps
Language : Russian
Default : Yes
Forced : No
Audio #2
ID : 3
Format : AC-3
Format/Info : Audio Coding 3
Mode extension : CM (complete main)
Format settings, Endianness : Big
Codec ID : A_AC3
Duration : 2h 7 min
Bit rate mode : Constant
Bit rate : 448 kb/s
Channel(s) : 6 channels
Channel positions : Front: L C R, Side: L R, LFE
Sampling rate : 48.0 kHz
Frame rate : 31.250 FPS (1536 spf)
Compression mode : Lossy
Stream size : 410 MiB (13%)
Title : Original, AC3 5.1 ~448 kbps
Language : English
Default : No
Forced : No
Text #1
ID : 4
Format : UTF-8
Codec ID : S_TEXT/UTF8
Codec ID/Info : UTF-8 Plain Text
Title : forced
Language : Russian
Default : Yes
Forced : No
Text #2
ID : 5
Format : UTF-8
Codec ID : S_TEXT/UTF8
Codec ID/Info : UTF-8 Plain Text
Language : Russian
Default : No
Forced : No
Text #3
ID : 6
Format : UTF-8
Codec ID : S_TEXT/UTF8
Codec ID/Info : UTF-8 Plain Text
Language : English
Default : No
Forced : No
Text #4
ID : 7
Format : UTF-8
Codec ID : S_TEXT/UTF8
Codec ID/Info : UTF-8 Plain Text
Title : SDH
Language : English
Default : No
Forced : No
Menu
00:00:00.000 : en:Chapter 01
00:07:06.926 : en:Chapter 02
00:17:30.883 : en:Chapter 03
00:26:05.855 : en:Chapter 04
00:31:14.038 : en:Chapter 05
00:39:29.075 : en:Chapter 06
00:46:17.566 : en:Chapter 07
00:52:11.169 : en:Chapter 08
00:58:50.360 : en:Chapter 09
01:05:58.579 : en:Chapter 10
01:13:01.293 : en:Chapter 11
01:24:16.301 : en:Chapter 12
01:31:50.880 : en:Chapter 13
01:41:10.981 : en:Chapter 14
01:46:07.611 : en:Chapter 15
01:56:19.597 : en:Chapter 16
x264
x264 [info]: frame I:1021 Avg QP:16.51 size: 61083
x264 [info]: frame P:35567 Avg QP:17.81 size: 25236
x264 [info]: frame B:147262 Avg QP:19.38 size: 9770
x264 [info]: consecutive B-frames: 1.2% 1.3% 5.0% 18.5% 17.2% 35.5% 7.4% 3.1% 2.2% 1.5% 1.2% 0.9% 1.3% 1.8% 0.6% 1.3%
x264 [info]: mb I I16..4: 7.2% 76.6% 16.2%
x264 [info]: mb P I16..4: 1.2% 11.1% 1.5% P16..4: 36.5% 26.5% 14.1% 0.0% 0.0% skip: 9.1%
x264 [info]: mb B I16..4: 0.1% 1.1% 0.1% B16..8: 37.7% 11.4% 3.3% direct: 6.3% skip:40.0% L0:44.0% L1:44.7% BI:11.3%
x264 [info]: 8x8 transform intra:81.3% inter:62.3%
x264 [info]: coded y,uvDC,uvAC intra: 86.2% 86.3% 76.3% inter: 22.5% 26.0% 11.3%
x264 [info]: i16 v,h,dc,p: 45% 15% 10% 30%
x264 [info]: i8 v,h,dc,ddl,ddr,vr,hd,vl,hu: 9% 9% 11% 10% 13% 13% 13% 11% 12%
x264 [info]: i4 v,h,dc,ddl,ddr,vr,hd,vl,hu: 9% 8% 4% 10% 16% 15% 14% 12% 13%
x264 [info]: i8c dc,h,v,p: 52% 16% 15% 17%
x264 [info]: Weighted P-Frames: Y:98.0% UV:5.0%
x264 [info]: ref P L0: 46.4% 10.1% 17.0% 6.5% 5.5% 3.8% 3.7% 1.9% 1.8% 1.5% 1.6% 0.1% 0.0%
x264 [info]: ref B L0: 68.2% 12.1% 6.8% 3.6% 2.7% 2.3% 2.1% 1.2% 0.7% 0.3%
x264 [info]: ref B L1: 92.9% 7.1%
x264 [info]: kb/s:2502.54
Скриншоты
с названием

To download the file disable ad blocking, and reload the page.

disable adblock How to disable ad blocking?

Download by magnet link 2.98 GB Download Torrent

Login using:

Similar topics



   
Current time is: 20-Jan 13:48 :: All times are UTC + 3