Валентин навсегда / Valentine Ever After
Страна: США
Жанр: драма, мелодрама, комедия, семейный
Год выпуска: 2016
Продолжительность: 01:20:34
Перевод: Профессиональный (многоголосый закадровый)
Cубтитры: нет
Режиссер: Дон МакБрити / Don McBrearty
В ролях: Отем Ризер, Эрик Джонсон, Ванесса Джонсон, Дэймон Рунян, Рон Лиа
Описание: Из-за нелепой случайности Джулию и Сидни приговаривают к общественным работам — подруги на месяц застревают в провинциальном городке. Познакомившись с владельцем ранчо, Джулия понимает, чего на самом деле хочет. А ведь в Чикаго её ждёт жених…
Доп. информация: Спасибо Ledy_X за запись фильма по моей просьбе.
Релиз
Сэмпл: https://yadi.sk/i/7RDi7FBM3HA3nx
Качество видео: HDTVRip
Формат видео: AVI
Видео: 720x400 (1.80:1), 25 fps, XviD build 73 ~2226 kbps avg, 0.31 bit/pixel
Аудио: 48 kHz, AC3 Dolby Digital, 2/0 (L,R) ch, ~192 kbps
MediaInfo
Валентин навсегда - Valentine Ever After [by Ledy_X].avi
Format : AVI
Format/Info : Audio Video Interleave
File size : 1.37 GiB
Duration : 1 h 20 min
Overall bit rate : 2 429 kb/s
Movie name : Валентин навсегда - Valentine Ever After [by Ledy_X]
Director : by Ledy_X
Writing application : VirtualDubMod 1.5.10.3 | www.virtualdub-fr.org || (build 2550/release)
Copyright : Edich2
Comment : ********.org
Video
ID : 0
Format : MPEG-4 Visual
Format profile : Advanced Simple@L5
Format settings, BVOP : 1
Format settings, QPel : No
Format settings, GMC : No warppoints
Format settings, Matrix : Custom
Codec ID : XVID
Codec ID/Hint : XviD
Duration : 1 h 20 min
Bit rate : 2 227 kb/s
Width : 720 pixels
Height : 400 pixels
Display aspect ratio : 16:9
Frame rate : 25.000 FPS
Color space : YUV
Chroma subsampling : 4:2:0
Bit depth : 8 bits
Scan type : Progressive
Compression mode : Lossy
Bits/(Pixel*Frame) : 0.309
Stream size : 1.25 GiB (92%)
Writing library : XviD 73
Audio
ID : 1
Format : AC-3
Format/Info : Audio Coding 3
Format settings, Endianness : Big
Codec ID : 2000
Duration : 1 h 20 min
Bit rate mode : Constant
Bit rate : 192 kb/s
Channel(s) : 2 channels
Channel positions : Front: L R
Sampling rate : 48.0 kHz
Frame rate : 31.250 FPS (1536 spf)
Bit depth : 16 bits
Compression mode : Lossy
Stream size : 111 MiB (8%)
Alignment : Split accross interleaves
Interleave, duration : 40 ms (1.00 video frame)
Interleave, preload duratio : 500 ms
Service kind : Complete Main
Скриншоты

To download the file disable ad blocking, and reload the page.

disable adblock How to disable ad blocking?

Download by magnet link 1.37 GB Download Torrent

Login using:

Similar topics

Валентин навсегда / Valentine Ever After (2016) HDTVRip | P
 1.37 GB   1 | 0   20-Apr-17 22:30   0


   
Current time is: 19-Jan 20:00 :: All times are UTC + 3