Ла-Ла Ленд / La La Land
«Бесстрашным мечтателям посвящается…»- Год выхода: 2016
Выпущено: США / Black Label Media
Жанр: мюзикл, драма, мелодрама, комедия, музыка
Продолжительность: 02:07:48
Перевод: Профессиональный (полное дублирование)
Субтитры: Русские (форсированные на песни и надписи) (внешние .srt*)-Режиссер:
Дэмьен Шазелл / Damien Chazelle-В ролях:
Райан Гослинг, Эмма Стоун, Джон Ледженд, Дж.К. Симмонс, Розмари ДеУитт, Финн Уиттрок, Калли Эрнандес, Соноя Мидзуно, Джессика Рот, Том Эверетт Скотт-О фильме:
Это история любви старлетки, которая между прослушиваниями подает кофе состоявшимся кинозвездам, и фанатичного джазового музыканта, вынужденного подрабатывать в заштатных барах. Но пришедший к влюбленным успех начинает подтачивать их отношения.-Релиз групп | | IMDB | КиноПоиск | Сэмпл |-Качество: HDRip [La.La.Land.2016.1080p.BluRay.x264-SPARKS]
Формат: AVI
Видео: 704x272 (2.59:1), 23.976 fps, XviD build 67 ~1239 kbps avg, 0.27 bit/pixel
Аудио: 48 kHz, AC3 Dolby Digital, 3/2 (L,C,R,l,r) + LFE ch, ~384 kbps avg - iTunes Russia-Скриншоты MediaInfo
Общее
Полное имя                               : D:\La_La_Land_2016_HDRip_iT_by_Dalemake.avi
Формат                                   : AVI
Формат/Информация                        : Audio Video Interleave
Размер файла                             : 1,46 Гбайт
Продолжительность                        : 2 ч. 7 м.
Общий поток                              : 1633 Кбит/сек
Программа кодирования                    : VirtualDubMod 1.5.10.3 | www.virtualdub-fr.org || (build 2550/release)
Библиотека кодирования                   : VirtualDubMod build 2550/release
Видео
Идентификатор                            : 0
Формат                                   : MPEG-4 Visual
Профиль формата                          : Advanced Simple@L5
Параметр BVOP формата                    : 1
Параметр QPel формата                    : Нет
Параметр GMC формата                     : Без точки перехода
Параметр матрицы формата                 : Выборочная
Идентификатор кодека                     : XVID
Идентификатор кодека/Подсказка           : XviD
Продолжительность                        : 2 ч. 7 м.
Битрейт                                  : 1240 Кбит/сек
Ширина                                   : 704 пикселя
Высота                                   : 272 пикселя
Соотношение сторон                       : 2,588
Частота кадров                           : 23,976 кадра/сек
Цветовое пространство                    : YUV
Субдискретизация насыщенности            : 4:2:0
Битовая глубина                          : 8 бит
Тип развёртки                            : Прогрессивная
Метод сжатия                             : С потерями
Бит/(Пиксели*Кадры)                      : 0.270
Размер потока                            : 1,11 Гбайт (76%)
Библиотека кодирования                   : XviD 67
Аудио
Идентификатор                            : 1
Формат                                   : AC-3
Формат/Информация                        : Audio Coding 3
Расширение режима                        : CM (complete main)
Параметр Endianness формата              : Big
Идентификатор кодека                     : 2000
Продолжительность                        : 2 ч. 7 м.
Вид битрейта                             : Постоянный
Битрейт                                  : 384 Кбит/сек
Каналы                                   : 6 каналов
Расположение каналов                     : Front: L C R, Side: L R, LFE
Частота                                  : 48,0 КГц
Битовая глубина                          : 16 бит
Метод сжатия                             : С потерями
Размер потока                            : 351 Мбайт (24%)
Выравнивание                             : Разделение по промежуткам
Продолжительность промежутка             : 42  мс. (1,00 видеокадр)
Время предзагрузки промежутка            : 500  мс.
-

To download the file disable ad blocking, and reload the page.

disable adblock How to disable ad blocking?

Download by magnet link 1.46 GB Download Torrent

Login using:

Similar topics



   
Current time is: 19-Jan 20:07 :: All times are UTC + 3