Афера по-английски / Trespass Against Us«Узы крови безжалостны» Страна: Великобритания
Жанр: Боевик, триллер, драма, криминал
Год выпуска: 2016
Продолжительность: 01:39:47
Перевод: Одноголосый (закадровый) - (Чадов)
Cубтитры: Русские (полные), Английские (полные, SDH, SDH-Colored)
Оригинальная аудиодорожка: Английский
Режиссер: Адам Смит / Adam Smith
В ролях: Майкл Фассбендер, Брендан Глисон, Линдси Маршал, Джорджи Смит, Рори Киннер, Киллиан Скотт, Шон Харрис, Кингсли Бен-Адир, Кейси Андерсон, Герард Кернс
Описание: Чэд — великолепный гонщик. Он работает на своего отца, криминального авторитета, и виртуозно уходит от любой погони. Все было хорошо, пока Чэд не решил завязать. Отец заставил пойти на последнее дело. Вот только роскошный особняк, в который вломились грабители, принадлежал самому могущественному человеку в Англии. А он не прощает ошибок.
Сэмпл: http://multi-up.com/1150633
Качество видео: HDRip
Исходник: Trespass.Against.Us.2016.P.BDRip.1080p.ExKinoRay
Формат видео: AVI
Видео: 720x304 (2.37:1), 23.976 fps, XviD build 65 ~2246 kbps avg, 0.43 bit/pixel
Аудио RUS: 48 kHz, AC3 Dolby Digital, 3/2 (L,C,R,l,r) + LFE ch, ~384 kbps - (Чадов)
Аудио ENG: 48 kHz, AC3 Dolby Digital, 3/2 (L,C,R,l,r) + LFE ch, ~448 kbps
Формат субтитров: softsub (SRT)
Rip by Ториял для
MediaInfo
Format : AVI
Format/Info : Audio Video Interleave
Format profile : OpenDML
File size : 2.16 GiB
Duration : 1 h 39 min
Overall bit rate : 3 095 kb/s
Writing application : VirtualDubMod 1.5.10.2 (build 2540/release)
Writing library : VirtualDubMod build 2540/release
Video
ID : 0
Format : MPEG-4 Visual
Format profile : Advanced Simple@L5
Format settings, BVOP : 1
Format settings, QPel : No
Format settings, GMC : No warppoints
Format settings, Matrix : Custom
Codec ID : XVID
Codec ID/Hint : XviD
Duration : 1 h 39 min
Bit rate : 2 246 kb/s
Width : 720 pixels
Height : 304 pixels
Display aspect ratio : 2.35:1
Frame rate : 23.976 (24000/1001) FPS
Color space : YUV
Chroma subsampling : 4:2:0
Bit depth : 8 bits
Scan type : Progressive
Compression mode : Lossy
Bits/(Pixel*Frame) : 0.428
Stream size : 1.57 GiB (73%)
Writing library : XviD 65
Audio #1
ID : 1
Format : AC-3
Format/Info : Audio Coding 3
Format settings, Endianness : Big
Codec ID : 2000
Duration : 1 h 39 min
Bit rate mode : Constant
Bit rate : 384 kb/s
Channel(s) : 6 channels
Channel positions : Front: L C R, Side: L R, LFE
Sampling rate : 48.0 kHz
Frame rate : 31.250 FPS (1536 spf)
Bit depth : 16 bits
Compression mode : Lossy
Stream size : 274 MiB (12%)
Alignment : Split accross interleaves
Interleave, duration : 42 ms (1.00 video frame)
Interleave, preload duratio : 500 ms
Service kind : Complete Main
Audio #2
ID : 2
Format : AC-3
Format/Info : Audio Coding 3
Format settings, Endianness : Big
Codec ID : 2000
Duration : 1 h 39 min
Bit rate mode : Constant
Bit rate : 448 kb/s
Channel(s) : 6 channels
Channel positions : Front: L C R, Side: L R, LFE
Sampling rate : 48.0 kHz
Frame rate : 31.250 FPS (1536 spf)
Bit depth : 16 bits
Compression mode : Lossy
Stream size : 320 MiB (14%)
Alignment : Split accross interleaves
Interleave, duration : 42 ms (1.00 video frame)
Interleave, preload duratio : 500 ms
Service kind : Complete Main
Скриншоты

To download the file disable ad blocking, and reload the page.

disable adblock How to disable ad blocking?

Download by magnet link 2.16 GB Download Torrent

Login using:

Similar topics



   
Current time is: 20-Jan 14:36 :: All times are UTC + 3