Руфус-2 / Rufus 2
Страна: США
Жанр: Комедия, семейный
Год выпуска: 2017
Продолжительность: 00:43:41
Перевод: Профессиональный (дублированный)
Cубтитры: нет
Режиссер: Сэвидж Стив Холланд / Savage Steve Holland
В ролях: Джейс Норман, Дэвис Кливлэнд, Хейли Тджу, Джэйд Петтиджон, Кэлвин Олафсон, Уэсли Сэлтер, Амитай Мэрморштейн, Чад Райли, Лиза Дурупт, Лиллиэн Лим
Описание: Руфус влюбляется в новую ученицу, которая явно скрывает какой-то секрет. Мэнни и Пэйдж подозревают её в недобрых намерениях, а Руфус считает, что они неправы. В это время за волшебным амулетом Руфуса начинает охотиться таинственный злодей.
Доп. информация: фильм сделан короткометражным (43мин)
Сэмпл: https://www.sendspace.com/file/bu0eu5
Качество видео: HDTVRip
Формат видео: AVI
Видео: XVID, 720х400 пикс, 25,0 кадр/сек, 2099 Кбит/сек, 0.292 Бит/(Пиксели*Кадры)
Аудио: MP3, 48,0 КГц, 192 Кбит/сек, 2 канала
MediaInfo
Общее
Полное имя : C:\фильмы\02 возможно для раздачи\Руфус-2 2017г\Руфус-2 2017г.avi
Формат : AVI
Формат/Информация : Audio Video Interleave
Размер файла : 719 Мбайт
Продолжительность : 43 м.
Общий поток : 2301 Кбит/сек
Видео
Идентификатор : 0
Формат : MPEG-4 Visual
Профиль формата : Advanced [email protected]
Параметр BVOP формата : Нет
Параметр QPel формата : Нет
Параметр GMC формата : Без точки перехода
Параметр матрицы формата : Default (H.263)
Идентификатор кодека : XVID
Идентификатор кодека/Подсказка : XviD
Продолжительность : 43 м.
Битрейт : 2099 Кбит/сек
Ширина : 720 пикселей
Высота : 400 пикселей
Соотношение сторон : 16:9
Частота кадров : 25,000 кадров/сек
Цветовое пространство : YUV
Субдискретизация насыщенности : 4:2:0
Битовая глубина : 8 бит
Тип развёртки : Прогрессивная
Метод сжатия : С потерями
Бит/(Пиксели*Кадры) : 0.292
Размер потока : 656 Мбайт (91%)
Аудио
Идентификатор : 1
Формат : MPEG Audio
Версия формата : Version 1
Профиль формата : Layer 3
Идентификатор кодека : 55
Идентификатор кодека/Подсказка : MP3
Продолжительность : 43 м.
Продолжительность оригинала : 43 м.
Вид битрейта : Постоянный
Битрейт : 192 Кбит/сек
Каналы : 2 канала
Частота : 48,0 КГц
Метод сжатия : С потерями
Размер потока : 60,0 Мбайт (8%)
Выравнивание : Соединение по промежуткам
Продолжительность промежутка : 40 мс. (1,00 видеокадр)
Скриншот c названием фильма Скриншоты Предыдущие или аналогичные раздачи
Руфус (первый фильм)
http://********.org/forum/viewtopic.php?t=5222486
Источник рипа
взято в сети HDTVRip, большая благодарность выложившему EduardBGK из кинозал-тв
Форум фильмы о собаках, волках и прочих псовых

If you like the topic, please click share to help develop our site.

To download the file disable ad blocking, and reload the page.

disable adblock How to disable ad blocking?

Download by magnet link 719 MB Download Torrent

Login using:

Similar topics



   
Current time is: 23-Mar 01:25 :: All times are UTC + 3