Демон внутри / The Autopsy of Jane Doe«Есть вещи страшнее смерти»- Страна: Великобритания, США
Жанр: ужасы, детектив
Год выпуска: 2016
Продолжительность: 01:26:22
Перевод: Профессиональный (многоголосый, закадровый) (iTunes)
Оригинальная аудиодорожка: английский
Субтитры: русские (полные) английские (полные)
Навигация по главам: есть
Режиссер: Андре Овредал / André Øvredal
В ролях: Брайан Кокс (Tommy), Эмиль Хирш (Austin), Офелия Ловибонд (Emma), Майкл МакЭлхаттон (Sheriff Burke), Олуэн Катрин Келли (Jane Doe), Джейн Перри (Lieutenant Wade), Паркер Сойерс (Trooper Cole), Мэри Дадди (Irene Daniels), Марк Феникс (Louis Tannis), Сидни (Stanley the Cat), Ив О’Хара (Deputy Ballard, в титрах не указан)
Описание: Патологоанатомы маленького городка получают тело жертвы таинственного убийства - красивой и молодой девушки без видимой причины смерти. Они пытаются выяснить, кто она и как умерла, обнаруживая все более причудливые подсказки, которые ведут к тайнам её жизни и смерти.- -Качество: BDRip-AVC (исходник - BDRemux|The.Autopsy.of.Jane.Doe.2016.BDRemux.1080p.nnm_video)
Формат видео: MKV
Видео: x264, 1152x480 (2.40:1) 23,976 fps, ~1542 kbps, 0.116 bit/pixel
Аудио 1: 48 kHz, AC3 Dolby Digital, 3/2 (L,C,R,l,r) + LFE ch, ~384 kbps [русский]
Аудио 2: 48 kHz, AC3 Dolby Digital, 3/2 (L,C,R,l,r) + LFE ch, ~448 kbps [английский]
Формат субтитров: softsub (SRT)-MediaInfo | x264 log
Format : Matroska
Format version : Version 4 / Version 2
File size : 1.46 GiB
Duration : 1h 26 min
Overall bit rate : 2 423 kb/s
Movie name : Демон внутри / The Autopsy of Jane Doe (2016) :: AFM ::
Encoded date : UTC 2017-04-18 10:20:20
Writing application : mkvmerge v8.3.0 ('Over the Horizon') 32bit
Writing library : libebml v1.3.1 + libmatroska v1.4.2
Video
ID : 1
Format : AVC
Format/Info : Advanced Video Codec
Format profile : High@L4.1
Format settings, CABAC : Yes
Format settings, ReFrames : 10 frames
Codec ID : V_MPEG4/ISO/AVC
Duration : 1h 26 min
Bit rate : 1 543 kb/s
Width : 1 152 pixels
Height : 480 pixels
Display aspect ratio : 2.40:1
Frame rate mode : Constant
Frame rate : 23.976 (24000/1001) FPS
Color space : YUV
Chroma subsampling : 4:2:0
Bit depth : 8 bits
Scan type : Progressive
Bits/(Pixel*Frame) : 0.116
Stream size : 953 MiB (64%)
Title : BDRip by AFM
Writing library : x264 core 150 r2773+45 df9a66c 7mod [8-bit@all X86_64]
Encoding settings : cabac=1 / ref=10 / deblock=1:-2:-2 / analyse=0x3:0x113 / me=umh / subme=10 / psy=1 / fade_compensate=0.00 / psy_rd=1.00:0.00 / mixed_ref=1 / me_range=32 / chroma_me=0 / trellis=2 / 8x8dct=1 / cqm=0 / deadzone=21,11 / fast_pskip=0 / chroma_qp_offset=-2 / threads=6 / lookahead_threads=1 / sliced_threads=0 / nr=0 / decimate=1 / interlaced=0 / bluray_compat=0 / constrained_intra=0 / fgo=0 / bframes=14 / b_pyramid=2 / b_adapt=2 / b_bias=0 / direct=1 / weightb=1 / open_gop=0 / weightp=2 / keyint=240 / keyint_min=23 / scenecut=40 / intra_refresh=0 / rc_lookahead=60 / rc=crf / mbtree=0 / crf=17.9000 / qcomp=0.65 / qpmin=0:0:0 / qpmax=69:69:69 / qpstep=4 / vbv_maxrate=50000 / vbv_bufsize=62500 / crf_max=0.0 / nal_hrd=none / filler=0 / ip_ratio=1.35 / pb_ratio=1.20 / aq=3:0.90 / aq-sensitivity=10.00 / aq-factor=1.00:1.00:1.00 / aq2=0 / aq3=0
Language : English
Default : Yes
Forced : No
Audio #1
ID : 2
Format : AC-3
Format/Info : Audio Coding 3
Mode extension : CM (complete main)
Format settings, Endianness : Big
Codec ID : A_AC3
Duration : 1h 26 min
Bit rate mode : Constant
Bit rate : 384 kb/s
Channel(s) : 6 channels
Channel positions : Front: L C R, Side: L R, LFE
Sampling rate : 48.0 kHz
Frame rate : 31.250 FPS (1536 spf)
Compression mode : Lossy
Stream size : 237 MiB (16%)
Title : MVO, AC3 5.1 ~384 kbps
Language : Russian
Default : Yes
Forced : No
Audio #2
ID : 3
Format : AC-3
Format/Info : Audio Coding 3
Mode extension : CM (complete main)
Format settings, Endianness : Big
Codec ID : A_AC3
Duration : 1h 26 min
Bit rate mode : Constant
Bit rate : 448 kb/s
Channel(s) : 6 channels
Channel positions : Front: L C R, Side: L R, LFE
Sampling rate : 48.0 kHz
Frame rate : 31.250 FPS (1536 spf)
Compression mode : Lossy
Stream size : 277 MiB (18%)
Title : Original, AC3 5.1 ~448 kbps
Language : English
Default : No
Forced : No
Text #1
ID : 4
Format : UTF-8
Codec ID : S_TEXT/UTF8
Codec ID/Info : UTF-8 Plain Text
Language : Russian
Default : No
Forced : No
Text #2
ID : 5
Format : UTF-8
Codec ID : S_TEXT/UTF8
Codec ID/Info : UTF-8 Plain Text
Language : English
Default : No
Forced : No
Menu
00:00:00.000 : en:Chapter 1
00:15:14.417 : en:Chapter 2
00:26:47.610 : en:Chapter 3
00:43:43.625 : en:Chapter 4
00:55:06.807 : en:Chapter 5
01:06:04.965 : en:Chapter 6
01:13:29.200 : en:Chapter 7
01:21:40.816 : en:Chapter 8
x264
x264 [info]: frame I:1210 Avg QP:12.73 size: 58022
x264 [info]: frame P:22776 Avg QP:13.86 size: 19628
x264 [info]: frame B:100264 Avg QP:15.66 size: 5107
x264 [info]: consecutive B-frames: 1.8% 1.2% 3.4% 9.9% 17.6% 42.3% 9.4% 2.3% 2.9% 3.8% 1.1% 0.8% 1.6% 1.0% 0.9%
x264 [info]: mb I I16..4: 8.7% 77.7% 13.6%
x264 [info]: mb P I16..4: 2.1% 9.3% 1.2% P16..4: 36.9% 26.2% 12.6% 0.0% 0.0% skip:11.7%
x264 [info]: mb B I16..4: 0.1% 0.3% 0.0% B16..8: 32.2% 10.5% 2.1% direct: 4.4% skip:50.4% L0:43.8% L1:46.0% BI:10.2%
x264 [info]: 8x8 transform intra:74.7% inter:56.2%
x264 [info]: coded y,uvDC,uvAC intra: 83.0% 73.0% 57.8% inter: 16.0% 11.2% 2.0%
x264 [info]: i16 v,h,dc,p: 58% 9% 10% 23%
x264 [info]: i8 v,h,dc,ddl,ddr,vr,hd,vl,hu: 11% 8% 11% 9% 12% 12% 12% 11% 13%
x264 [info]: i4 v,h,dc,ddl,ddr,vr,hd,vl,hu: 10% 8% 5% 10% 15% 14% 13% 11% 13%
x264 [info]: i8c dc,h,v,p: 48% 22% 18% 11%
x264 [info]: Weighted P-Frames: Y:96.4% UV:2.5%
x264 [info]: ref P L0: 48.7% 7.3% 18.7% 6.8% 5.8% 3.9% 3.6% 1.8% 1.8% 1.5% 0.1% 0.0%
x264 [info]: ref B L0: 68.5% 13.4% 7.2% 3.6% 2.6% 2.1% 1.7% 0.7% 0.2%
x264 [info]: ref B L1: 92.7% 7.3%
x264 [info]: kb/s:1589.01
Скриншоты
с названием

To download the file disable ad blocking, and reload the page.

disable adblock How to disable ad blocking?

Download by magnet link 1.46 GB Download Torrent

Login using:

Similar topics



   
Current time is: 20-Jan 14:39 :: All times are UTC + 3