Milt Buckner, Buddy Tate, Wild Bill Davis - Midnight Slows No.1
Жанр: Swing, Cool
Носитель: CD
Страна-производитель диска (релиза): Франция
Год издания: 1986
Издатель (лейбл): Black & Blue
Номер по каталогу: 233026
Аудиокодек: FLAC (*.flac)
Тип рипа: tracks+.cue
Битрейт аудио: lossless
Продолжительность: 59:32
Источник (релизер): stoichie (what)
Наличие сканов в содержимом раздачи: нет
Треклист:
01. She's Funny That Way (Moret-Whiting) - 4:46
02. When I'm Blue (Tate) - 10:52
03. My One and Only Love (Wood-Mellin) - 4:49
04. My Ideal (Whiting-Chase-Robin) - 2:55
05. You've Changed (Carey-Fisher) - 5:03
06. Day by Day (Weston-Stordahl-Cahn) - 6:46
07. Midnight Sun (Hampton-Burke-Mercer) - 5:10
08. Flamingo (Grouya-Anderson) - 5:31
09. East of the Sun (Bowman) - 4:39
10. Memories of You (Blake-Razaf) - 4:25
11. Willow Weep for Me (Ronell) - 4:36
Состав:
Milt Buckner (#1-8), Wild Bill Davis (#9-11) - organ
Buddy Tate - tenor saxophone
Floyd Smith (#9-11) - guitar
Wallace Bishop (#1-8), Chris Columbo (#9-11) - drums
Recorded at Pathe-Marconi Studio, Paris on December 7, 1967 (#1-8) and May 10, 1972 (#9-11).

Лог создания рипа

Exact Audio Copy V1.0 beta 6 from 9. April 2015
EAC extraction logfile from 7. November 2015, 18:41
Various Artists / Midnight Slows
Used drive : MATSHITADVD+-RW UJ8FB Adapter: 1 ID: 0
Read mode : SecureUtilize accurate stream : YesDefeat audio cache : YesMake use of C2 pointers : No
Read offset correction : 6Overread into Lead-In and Lead-Out : NoFill up missing offset samples with silence : YesDelete leading and trailing silent blocks : NoNull samples used in CRC calculations : YesUsed interface : Native Win32 interface for Win NT & 2000Gap handling : Appended to previous track
Used output format : User Defined EncoderSelected bitrate : 1024 kBit/sQuality : HighAdd ID3 tag : NoCommand line compressor : C:\Program Files\Flac\flac.exeAdditional command line options : -8 -V -T "ARTIST=%artist%" -T "TITLE=%title%" -T "ALBUM=%albumtitle%" -T "DATE=%year%" -T "TRACKNUMBER=%tracknr%" -T "GENRE=%genre%" -T "PERFORMER=%albuminterpret%" -T "COMPOSER=%composer%" %haslyrics%--tag-from-file=LYRICS="%lyricsfile%"%haslyrics% -T "ALBUMARTIST=%albumartist%" -T "DISCNUMBER=%cdnumber%" -T "TOTALDISCS=%totalcds%" -T "TOTALTRACKS=%numtracks%" -T "COMMENT=%comment%" %source% -o %dest%
TOC of the extracted CD
Track | Start | Length | Start sector | End sector --------------------------------------------------------- 1 | 0:00.00 | 4:45.55 | 0 | 21429 2 | 4:45.55 | 10:51.57 | 21430 | 70311 3 | 15:37.37 | 4:49.08 | 70312 | 91994 4 | 20:26.45 | 2:55.32 | 91995 | 105151 5 | 23:22.02 | 5:02.40 | 105152 | 127841 6 | 28:24.42 | 6:45.55 | 127842 | 158271 7 | 35:10.22 | 5:09.68 | 158272 | 181514 8 | 40:20.15 | 5:30.47 | 181515 | 206311 9 | 45:50.62 | 4:39.28 | 206312 | 227264 10 | 50:30.15 | 4:24.72 | 227265 | 247136 11 | 54:55.12 | 4:36.28 | 247137 | 267864
Track 1
Filename C:\EAC Rips\Various Artists - Midnight Slows (1972)\01 - Milt Buckner - She's Funny That Way.wav
Pre-gap length 0:00:02.00
Peak level 79.5 % Extraction speed 2.7 X Track quality 100.0 % Test CRC E186493E Copy CRC E186493E Cannot be verified as accurate (confidence 1) [62D7E44F], AccurateRip returned [B5745B66] (AR v2) Copy OK
Track 2
Filename C:\EAC Rips\Various Artists - Midnight Slows (1972)\02 - Milt Buckner - When I'm Blue.wav
Pre-gap length 0:00:01.57
Peak level 100.0 % Extraction speed 3.4 X Track quality 100.0 % Test CRC ABD21916 Copy CRC ABD21916 Cannot be verified as accurate (confidence 1) [20E12C9F], AccurateRip returned [41F2318A] (AR v2) Copy OK
Track 3
Filename C:\EAC Rips\Various Artists - Midnight Slows (1972)\03 - Milt Buckner - My One And Only Love.wav
Pre-gap length 0:00:00.82
Peak level 78.5 % Extraction speed 3.7 X Track quality 100.0 % Test CRC 3436282A Copy CRC 3436282A Cannot be verified as accurate (confidence 1) [210CD9F3], AccurateRip returned [6EC7E74D] (AR v2) Copy OK
Track 4
Filename C:\EAC Rips\Various Artists - Midnight Slows (1972)\04 - Milt Buckner - My Ideal.wav
Pre-gap length 0:00:01.04
Peak level 100.0 % Extraction speed 3.6 X Track quality 100.0 % Test CRC B4176D8D Copy CRC B4176D8D Cannot be verified as accurate (confidence 1) [9A709A44], AccurateRip returned [1AA340E7] (AR v2) Copy OK
Track 5
Filename C:\EAC Rips\Various Artists - Midnight Slows (1972)\05 - Milt Buckner - You've Changed.wav
Pre-gap length 0:00:01.02
Peak level 81.9 % Extraction speed 4.1 X Track quality 100.0 % Test CRC EA9B28FF Copy CRC EA9B28FF Cannot be verified as accurate (confidence 1) [755BD17E], AccurateRip returned [72338288] (AR v2) Copy OK
Track 6
Filename C:\EAC Rips\Various Artists - Midnight Slows (1972)\06 - Milt Buckner - Day By Day.wav
Pre-gap length 0:00:01.46
Peak level 80.3 % Extraction speed 4.5 X Track quality 100.0 % Test CRC 5DF1AB62 Copy CRC 5DF1AB62 Cannot be verified as accurate (confidence 1) [84E8B31A], AccurateRip returned [98F3AAFE] (AR v2) Copy OK
Track 7
Filename C:\EAC Rips\Various Artists - Midnight Slows (1972)\07 - Milt Buckner - Midnight Sun.wav
Pre-gap length 0:00:01.13
Peak level 70.7 % Extraction speed 4.7 X Track quality 100.0 % Test CRC 917CCFD2 Copy CRC 917CCFD2 Cannot be verified as accurate (confidence 1) [D93F404F], AccurateRip returned [1230B712] (AR v2) Copy OK
Track 8
Filename C:\EAC Rips\Various Artists - Midnight Slows (1972)\08 - Milt Buckner - Flamingo.wav
Pre-gap length 0:00:01.06
Peak level 99.0 % Extraction speed 4.8 X Track quality 100.0 % Test CRC 52C7E0E2 Copy CRC 52C7E0E2 Cannot be verified as accurate (confidence 1) [21400313], AccurateRip returned [04B1FABE] (AR v2) Copy OK
Track 9
Filename C:\EAC Rips\Various Artists - Midnight Slows (1972)\09 - Wild Bill Davis - East Of The Sun.wav
Pre-gap length 0:00:00.56
Peak level 100.0 % Extraction speed 5.0 X Track quality 100.0 % Test CRC 0C01F103 Copy CRC 0C01F103 Cannot be verified as accurate (confidence 1) [5C97245D], AccurateRip returned [3B3C3016] (AR v2) Copy OK
Track 10
Filename C:\EAC Rips\Various Artists - Midnight Slows (1972)\10 - Wild Bill Davis - Memories Of You.wav
Pre-gap length 0:00:00.86
Peak level 70.5 % Extraction speed 4.3 X Track quality 99.9 % Test CRC 82AD578A Copy CRC 82AD578A Cannot be verified as accurate (confidence 1) [750072DA], AccurateRip returned [2877CE04] (AR v2) Copy OK
Track 11
Filename C:\EAC Rips\Various Artists - Midnight Slows (1972)\11 - Wild Bill Davis - Willow Weep For Me.wav
Pre-gap length 0:00:00.46
Peak level 100.0 % Extraction speed 5.3 X Track quality 100.0 % Test CRC 5A0E4DA7 Copy CRC 5A0E4DA7 Accurately ripped (confidence 1) [EE99861B] (AR v2) Copy OK
1 track(s) accurately ripped10 track(s) could not be verified as accurate
Some tracks could not be verified as accurate
No errors occurred
End of status report
---- CUETools DB Plugin V2.1.6
[CTDB TOCID: ibaIQCmz7YWx._GIDV2Qk7Y3kt8-] disk not present in databaseSubmit result: ibaIQCmz7YWx._GIDV2Qk7Y3kt8- has been uploaded
==== Log checksum 8CA0EA4819DD031B62FE148779656F887BC6B78360CEFDB08763E9506127C427 ====

Содержание индексной карты (.CUE)

REM GENRE JazzREM DATE 1986REM DISCID 890DF30BREM COMMENT "ExactAudioCopy v1.0b6"PERFORMER "Milt Buckner, Buddy Tate, Wild Bill Davis"TITLE "Midnight Slows No.1"FILE "01 - She's Funny That Way.wav" WAVE TRACK 01 AUDIO TITLE "She's Funny That Way" PERFORMER "Milt Buckner, Buddy Tate, Wild Bill Davis" INDEX 01 00:00:00 TRACK 02 AUDIO TITLE "When I'm Blue" PERFORMER "Milt Buckner, Buddy Tate, Wild Bill Davis" INDEX 00 04:44:12FILE "02 - When I'm Blue.wav" WAVE INDEX 01 00:00:00 TRACK 03 AUDIO TITLE "My One and Only Love" PERFORMER "Milt Buckner, Buddy Tate, Wild Bill Davis" INDEX 00 10:50:70FILE "03 - My One and Only Love.wav" WAVE INDEX 01 00:00:00 TRACK 04 AUDIO TITLE "My Ideal" PERFORMER "Milt Buckner, Buddy Tate, Wild Bill Davis" INDEX 00 04:48:05FILE "04 - My Ideal.wav" WAVE INDEX 01 00:00:00 TRACK 05 AUDIO TITLE "You've Changed" PERFORMER "Milt Buckner, Buddy Tate, Wild Bill Davis" INDEX 00 02:54:30FILE "05 - You've Changed.wav" WAVE INDEX 01 00:00:00 TRACK 06 AUDIO TITLE "Day by Day" PERFORMER "Milt Buckner, Buddy Tate, Wild Bill Davis" INDEX 00 05:01:05FILE "06 - Day by Day.wav" WAVE INDEX 01 00:00:00 TRACK 07 AUDIO TITLE "Midnight Sun" PERFORMER "Milt Buckner, Buddy Tate, Wild Bill Davis" INDEX 00 06:44:45FILE "07 - Midnight Sun.wav" WAVE INDEX 01 00:00:00 TRACK 08 AUDIO TITLE "Flamingo" PERFORMER "Milt Buckner, Buddy Tate, Wild Bill Davis" INDEX 00 05:08:63FILE "08 - Flamingo.wav" WAVE INDEX 01 00:00:00 TRACK 09 AUDIO TITLE "East of the Sun" PERFORMER "Milt Buckner, Buddy Tate, Wild Bill Davis" INDEX 00 05:30:05FILE "09 - East of the Sun.wav" WAVE INDEX 01 00:00:00 TRACK 10 AUDIO TITLE "Memories of You" PERFORMER "Milt Buckner, Buddy Tate, Wild Bill Davis" INDEX 00 04:38:38FILE "10 - Memories of You.wav" WAVE INDEX 01 00:00:00 TRACK 11 AUDIO TITLE "Willow Weep for Me" PERFORMER "Milt Buckner, Buddy Tate, Wild Bill Davis" INDEX 00 04:24:37FILE "11 - Willow Weep for Me.wav" WAVE INDEX 01 00:00:00

Отчет CUETools

[CUETools log; Date: 17.11.2015 3:52:24; Version: 2.1.5][CTDB TOCID: ibaIQCmz7YWx._GIDV2Qk7Y3kt8-] found.Track | CTDB Status 1 | (1/1) Accurately ripped 2 | (1/1) Accurately ripped 3 | (1/1) Accurately ripped 4 | (1/1) Accurately ripped 5 | (1/1) Accurately ripped 6 | (1/1) Accurately ripped 7 | (1/1) Accurately ripped 8 | (1/1) Accurately ripped 9 | (1/1) Accurately ripped 10 | (1/1) Accurately ripped 11 | (1/1) Accurately ripped[AccurateRip ID: 001a0489-00ddd0fe-890df30b] found.Track [ CRC | V2 ] Status 01 [b5bc57eb|62d7e44f] (0+0/1) No match 02 [7aad40de|20e12c9f] (0+0/1) No match 03 [dcabd974|210cd9f3] (0+0/1) No match 04 [95863409|9a709a44] (0+0/1) No match 05 [aa2ef0bc|755bd17e] (0+0/1) No match 06 [068330f8|84e8b31a] (0+0/1) No match 07 [d569f3f9|d93f404f] (0+0/1) No match 08 [0d6e1b4b|21400313] (0+0/1) No match 09 [d7c0745c|5c97245d] (0+0/1) No match 10 [a38f6fcd|750072da] (0+0/1) No match 11 [084d9c7d|ee99861b] (0+1/2) Accurately rippedOffsetted by -544: 01 [b5745b66] (1/1) Accurately ripped 02 [41f2318a] (1/1) Accurately ripped 03 [6ec7e74d] (1/1) Accurately ripped 04 [1aa340e7] (1/1) Accurately ripped 05 [72338288] (1/1) Accurately ripped 06 [98f3aafe] (1/1) Accurately ripped 07 [1230b712] (1/1) Accurately ripped 08 [04b1fabe] (1/1) Accurately ripped 09 [3b3c3016] (1/1) Accurately ripped 10 [2877ce04] (1/1) Accurately ripped 11 [bc336f9f] (1/2) Accurately ripped
Track Peak [ CRC32 ] [W/O NULL] [ LOG ] -- 100,0 [B69DB9D5] [C52C7EAA] 01 79,5 [E186493E] [AD18BC3D] CRC32 02 100,0 [ABD21916] [6224181E] CRC32 03 78,5 [3436282A] [0856A801] CRC32 04 100,0 [B4176D8D] [7C4874CF] CRC32 05 81,9 [EA9B28FF] [82230285] CRC32 06 80,3 [5DF1AB62] [D7B3099C] CRC32 07 70,7 [917CCFD2] [59632F75] CRC32 08 99,0 [52C7E0E2] [49671C35] CRC32 09 100,0 [0C01F103] [D46CC60E] CRC32 10 70,5 [82AD578A] [FEFE45C6] CRC32 11 100,0 [5A0E4DA7] [9252595F] CRC32

AllMusic Review by Ken Dryden

Buddy Tate is heard on two separate sessions recorded five years apart. The first features the big-toned tenor saxophonist with organist Milt Buckner on a ballad-oriented date, along with drummer Wallace Bishop. Unfortunately, the recording engineer used a bit too much reverb during a number of the songs and Buckner's organ-playing borders on easy listening, sounding like a mall demonstrator from the late '60s. Even though the latter session with Wild Bill Davis (heard only in part, as it was originally issued on LP in full) has a similar format, Tate benefits from the latter organist's more inspired playing. Guitarist Floyd Smith and drummer Chris Columbo are also on hand, though they pretty much stay in the background, with Smith taking a brief chorus in the bluesy setting of "Willow Weep for Me." Overall, these sessions are a bit low-key, though from the evidence of the cover photo, they obviously were marketed by the Black & Blue label toward late-night listening.

If you like the topic, please click share to help develop our site.

To download the file disable ad blocking, and reload the page.

disable adblock How to disable ad blocking?

Download by magnet link 305 MB Download Torrent

Login using:

Similar topics



   
Current time is: 25-Jun 10:26 :: All times are UTC + 3