Faudel (فضيل) / Mundial Corrida
Жанр: Chanson, Jazz, French Pop, Rai
Страна-производитель диска: France
Год издания: 2006
Издатель (лейбл): Mercury
Аудиокодек: FLAC (*.flac)
Тип рипа: tracks+.cue
Битрейт аудио: lossless
Продолжительность: 00:43:13
Источник (релизер): CD(LP)
Наличие сканов в содержимом раздачи: нет
Треклист:
01. Mon pays
02. Mundial Corrida
03. Elle chante pour moi
04. Dis leur qu'ils aiment
05. Aya
06. Alger-USA
07. Nos racines
08. Elles s'envolent
09. Les enfants de la mer
10. Si on m'avait dit
11. Un sourire de silence
12. J'avance
Faudel - Bled Memory - 2010, FLAC (tracks+.cue), lossless
http://********.org/forum/viewtopic.php?t=3732573
Faudel - Baida - 1997, FLAC (tracks+.cue), lossless
http://********.org/forum/viewtopic.php?t=3732567

Лог создания рипа

Exact Audio Copy V1.0 beta 1 from 15. November 2010
EAC extraction logfile from 17. March 2012, 18:01
Faudel / Mundial Corrida
Used drive : PLDS DVD+-RW DH-16AAS Adapter: 0 ID: 1
Read mode : SecureUtilize accurate stream : YesDefeat audio cache : YesMake use of C2 pointers : No
Read offset correction : 6Overread into Lead-In and Lead-Out : NoFill up missing offset samples with silence : YesDelete leading and trailing silent blocks : NoNull samples used in CRC calculations : YesUsed interface : Installed external ASPI interfaceGap handling : Appended to previous track
Used output format : User Defined EncoderSelected bitrate : 1024 kBit/sQuality : HighAdd ID3 tag : NoCommand line compressor : C:\Program Files (x86)\Exact Audio Copy\Flac\flac.exeAdditional command line options : -V -8 -T "artist=%a" -T "title=%t" -T "album=%g" -T "date=%y" -T "tracknumber=%n" -T "genre=%m" %s
TOC of the extracted CD
Track | Start | Length | Start sector | End sector --------------------------------------------------------- 1 | 0:00.00 | 3:46.12 | 0 | 16961 2 | 3:46.12 | 3:12.36 | 16962 | 31397 3 | 6:58.48 | 3:38.11 | 31398 | 47758 4 | 10:36.59 | 3:34.41 | 47759 | 63849 5 | 14:11.25 | 3:02.56 | 63850 | 77555 6 | 17:14.06 | 3:48.44 | 77556 | 94699 7 | 21:02.50 | 3:43.53 | 94700 | 111477 8 | 24:46.28 | 3:11.47 | 111478 | 125849 9 | 27:58.00 | 3:45.63 | 125850 | 142787 10 | 31:43.63 | 4:07.57 | 142788 | 161369 11 | 35:51.45 | 4:12.72 | 161370 | 180341 12 | 40:04.42 | 3:08.41 | 180342 | 194482 13 | 45:45.08 | 6:16.55 | 205883 | 234137
Track 1
Filename C:\Musique\FLAC\Faudel\Mundial Corrida\01 - Mon pays.wav
Pre-gap length 0:00:02.00
Peak level 100.0 % Extraction speed 5.1 X Track quality 100.0 % Test CRC BBA40D1E Copy CRC BBA40D1E Accurately ripped (confidence 2) [6F5D2F64] Copy OK
Track 2
Filename C:\Musique\FLAC\Faudel\Mundial Corrida\02 - Mundial Corrida.wav
Pre-gap length 0:00:01.56
Peak level 100.0 % Extraction speed 5.5 X Track quality 100.0 % Test CRC 0E21DB25 Copy CRC 0E21DB25 Accurately ripped (confidence 2) [E4122216] Copy OK
Track 3
Filename C:\Musique\FLAC\Faudel\Mundial Corrida\03 - Elle chante pour moi.wav
Pre-gap length 0:00:00.62
Peak level 100.0 % Extraction speed 5.0 X Track quality 99.9 % Test CRC 5C53DA6F Copy CRC 5C53DA6F Accurately ripped (confidence 2) [0035CE76] Copy OK
Track 4
Filename C:\Musique\FLAC\Faudel\Mundial Corrida\04 - Dis leur qu'ils aiment.wav
Pre-gap length 0:00:00.76
Peak level 100.0 % Extraction speed 6.5 X Track quality 100.0 % Test CRC 7C1DF5F0 Copy CRC 7C1DF5F0 Accurately ripped (confidence 2) [323EF330] Copy OK
Track 5
Filename C:\Musique\FLAC\Faudel\Mundial Corrida\05 - Aya.wav
Pre-gap length 0:00:00.44
Peak level 100.0 % Extraction speed 5.5 X Track quality 100.0 % Test CRC 9DF979DC Copy CRC 9DF979DC Accurately ripped (confidence 2) [9C3660F7] Copy OK
Track 6
Filename C:\Musique\FLAC\Faudel\Mundial Corrida\06 - Alger-USA.wav
Pre-gap length 0:00:00.52
Peak level 100.0 % Extraction speed 7.3 X Track quality 100.0 % Test CRC 861E4DDB Copy CRC 861E4DDB Accurately ripped (confidence 2) [0FBFF581] Copy OK
Track 7
Filename C:\Musique\FLAC\Faudel\Mundial Corrida\07 - Nos racines.wav
Pre-gap length 0:00:01.00
Peak level 100.0 % Extraction speed 7.6 X Track quality 100.0 % Test CRC E21F53B2 Copy CRC E21F53B2 Accurately ripped (confidence 2) [E0C35051] Copy OK
Track 8
Filename C:\Musique\FLAC\Faudel\Mundial Corrida\08 - Elles s'envolent.wav
Pre-gap length 0:00:01.02
Peak level 100.0 % Extraction speed 7.7 X Track quality 100.0 % Test CRC 71F502C2 Copy CRC 71F502C2 Accurately ripped (confidence 2) [DB51B9BA] Copy OK
Track 9
Filename C:\Musique\FLAC\Faudel\Mundial Corrida\09 - Les enfants de la mer.wav
Pre-gap length 0:00:01.77
Peak level 100.0 % Extraction speed 8.3 X Track quality 100.0 % Test CRC E59FBDBD Copy CRC E59FBDBD Accurately ripped (confidence 2) [F151D0A2] Copy OK
Track 10
Filename C:\Musique\FLAC\Faudel\Mundial Corrida\10 - Si on m'avait dit.wav
Pre-gap length 0:00:01.46
Peak level 100.0 % Extraction speed 8.8 X Track quality 100.0 % Test CRC DFAD6910 Copy CRC DFAD6910 Accurately ripped (confidence 2) [9FCCCB1E] Copy OK
Track 11
Filename C:\Musique\FLAC\Faudel\Mundial Corrida\11 - Un sourire de silence.wav
Pre-gap length 0:00:01.53
Peak level 96.2 % Extraction speed 9.1 X Track quality 100.0 % Test CRC 8E9505AB Copy CRC 8E9505AB Accurately ripped (confidence 2) [9C322A34] Copy OK
Track 12
Filename C:\Musique\FLAC\Faudel\Mundial Corrida\12 - J'avance.wav
Pre-gap length 0:00:04.76
Peak level 100.0 % Extraction speed 9.0 X Track quality 100.0 % Test CRC A3CE4EBF Copy CRC A3CE4EBF Accurately ripped (confidence 2) [C942EE79] Copy OK
All tracks accurately ripped
No errors occurred
End of status report
==== Log checksum 300A456FFF24A3CF75074BD13B0BC0F2301A8FCA0C1BE37EE5BFDF0683F25D73 ====

Содержание индексной карты (.CUE)

REM GENRE RaïREM DATE 2006REM DISCID AA0C310DREM COMMENT "ExactAudioCopy v1.0b1"PERFORMER "Faudel"TITLE "Mundial Corrida"FILE "01 - Mon pays.wav" WAVE TRACK 01 AUDIO TITLE "Mon pays" PERFORMER "Faudel" INDEX 01 00:00:00 TRACK 02 AUDIO TITLE "Mundial Corrida" PERFORMER "Faudel" INDEX 00 03:44:45FILE "02 - Mundial Corrida.wav" WAVE INDEX 01 00:00:00 TRACK 03 AUDIO TITLE "Elle chante pour moi" PERFORMER "Faudel" INDEX 00 03:11:64FILE "03 - Elle chante pour moi.wav" WAVE INDEX 01 00:00:00 TRACK 04 AUDIO TITLE "Dis leur qu'ils aiment" PERFORMER "Faudel" INDEX 00 03:37:29FILE "04 - Dis leur qu'ils aiment.wav" WAVE INDEX 01 00:00:00 TRACK 05 AUDIO TITLE "Aya" PERFORMER "Faudel" INDEX 00 03:34:08FILE "05 - Aya.wav" WAVE INDEX 01 00:00:00 TRACK 06 AUDIO TITLE "Alger-USA" PERFORMER "Faudel" INDEX 00 03:02:17FILE "06 - Alger-USA.wav" WAVE INDEX 01 00:00:00 TRACK 07 AUDIO TITLE "Nos racines" PERFORMER "Faudel" INDEX 00 03:47:44FILE "07 - Nos racines.wav" WAVE INDEX 01 00:00:00 TRACK 08 AUDIO TITLE "Elles s'envolent" PERFORMER "Faudel" INDEX 00 03:42:51FILE "08 - Elles s'envolent.wav" WAVE INDEX 01 00:00:00 TRACK 09 AUDIO TITLE "Les enfants de la mer" PERFORMER "Faudel" INDEX 00 03:09:64FILE "09 - Les enfants de la mer.wav" WAVE INDEX 01 00:00:00 TRACK 10 AUDIO TITLE "Si on m'avait dit" PERFORMER "Faudel" INDEX 00 03:44:28FILE "10 - Si on m'avait dit.wav" WAVE INDEX 01 00:00:00 TRACK 11 AUDIO TITLE "Un sourire de silence" PERFORMER "Faudel" INDEX 00 04:06:17FILE "11 - Un sourire de silence.wav" WAVE INDEX 01 00:00:00 TRACK 12 AUDIO TITLE "J'avance" PERFORMER "Faudel" INDEX 00 04:08:15FILE "12 - J'avance.wav" WAVE INDEX 01 00:00:00 TRACK 13 MODEx/2xxx TITLE "Data" PERFORMER "Faudel" INDEX 00 03:08:41

Для скачивания файла отключите блокировку рекламы и перезагрузите страницу.

disable adblock Как отключить блокировку рекламы?

Скачать по магнет ссылке 305 MB 

Войти с помощью:

Загрузка...
Загрузка...


   
Текущее время: 21-Июн 10:31 :: Часовой пояс: UTC ± 0