Elisa Tovati / Le syndrome De Peter Pan
Жанр: Chanson
Страна-производитель диска: France
Год издания: 2011
Издатель (лейбл): Play On
Аудиокодек: FLAC (*.flac)
Тип рипа: tracks+.cue
Битрейт аудио: lossless
Источник (релизер): 00:37:53
Наличие сканов в содержимом раздачи: нет
Треклист:
01.Le Syndrome De Peter Pan 04:11
02.Une Larme Penny Lan 03:14
03.Ex-Princesse 03:20
04.Barbapapa 03:01
05.Il Nous Faut (Feat Tom Dice) 03:08
06.La Vie Devant Soi 02:23
07.La Fille Dans La Glace 03:10
08.Ciel Grigri 03:11
09.Post It 02:54
10.L'ABCD 02:54
11.La Femme Du Magicien 03:08
12.Sunset Bld 03:21

Лог создания рипа

Exact Audio Copy V1.0 beta 2 from 29. April 2011
EAC extraction logfile from 1. August 2011, 22:54
Elisa Tovati / Le Syndrome De Peter Pan
Used drive : HL-DT-STDVD+-RW GA11N Adapter: 0 ID: 1
Read mode : SecureUtilize accurate stream : YesDefeat audio cache : YesMake use of C2 pointers : No
Read offset correction : 667Overread into Lead-In and Lead-Out : NoFill up missing offset samples with silence : YesDelete leading and trailing silent blocks : NoNull samples used in CRC calculations : YesUsed interface : Native Win32 interface for Win NT & 2000Gap handling : Appended to previous track
Used output format : User Defined EncoderSelected bitrate : 896 kBit/sQuality : HighAdd ID3 tag : NoCommand line compressor : C:\Program Files (x86)\Exact Audio Copy 1.0\Flac\flac.exeAdditional command line options : -V -8 -T "artist=%artist%" -T "title=%title%" -T "album=%albumtitle%" -T "date=%year%" -T "tracknumber=%tracknr%" -T "genre=%genre%" %source%
TOC of the extracted CD
Track | Start | Length | Start sector | End sector --------------------------------------------------------- 1 | 0:00.04 | 4:11.02 | 4 | 18830 2 | 4:11.06 | 3:14.05 | 18831 | 33385 3 | 7:25.11 | 3:19.45 | 33386 | 48355 4 | 10:44.56 | 3:00.66 | 48356 | 61921 5 | 13:45.47 | 3:08.01 | 61922 | 76022 6 | 16:53.48 | 2:22.56 | 76023 | 86728 7 | 19:16.29 | 3:09.49 | 86729 | 100952 8 | 22:26.03 | 3:10.51 | 100953 | 115253 9 | 25:36.54 | 2:54.08 | 115254 | 128311 10 | 28:30.62 | 2:53.72 | 128312 | 141358 11 | 31:24.59 | 3:08.18 | 141359 | 155476 12 | 34:33.02 | 3:20.63 | 155477 | 170539
Track 1
Filename C:\EACrips\Elisa Tovati - 2011 - Le Syndrome De Peter Pan\01 - Le Syndrome De Peter Pan.wav
Pre-gap length 0:00:02.05
Peak level 98.8 % Extraction speed 2.9 X Track quality 100.0 % Test CRC 54C43AB2 Copy CRC 54C43AB2 Track not present in AccurateRip database Copy OK
Track 2
Filename C:\EACrips\Elisa Tovati - 2011 - Le Syndrome De Peter Pan\02 - Une Larme, Penny Lane.wav
Pre-gap length 0:00:02.93
Peak level 98.8 % Extraction speed 3.1 X Track quality 100.0 % Test CRC 2D47C0A5 Copy CRC 2D47C0A5 Track not present in AccurateRip database Copy OK
Track 3
Filename C:\EACrips\Elisa Tovati - 2011 - Le Syndrome De Peter Pan\03 - Ex-Princesse.wav
Pre-gap length 0:00:02.00
Peak level 98.8 % Extraction speed 3.3 X Track quality 100.0 % Test CRC E6FACED6 Copy CRC E6FACED6 Track not present in AccurateRip database Copy OK
Track 4
Filename C:\EACrips\Elisa Tovati - 2011 - Le Syndrome De Peter Pan\04 - Barbapapa.wav
Pre-gap length 0:00:02.00
Peak level 98.8 % Extraction speed 3.5 X Track quality 100.0 % Test CRC B18B26D4 Copy CRC B18B26D4 Track not present in AccurateRip database Copy OK
Track 5
Filename C:\EACrips\Elisa Tovati - 2011 - Le Syndrome De Peter Pan\05 - Il Nous Faut.wav
Pre-gap length 0:00:03.00
Peak level 100.0 % Extraction speed 3.7 X Track quality 100.0 % Test CRC 986A64E3 Copy CRC 986A64E3 Track not present in AccurateRip database Copy OK
Track 6
Filename C:\EACrips\Elisa Tovati - 2011 - Le Syndrome De Peter Pan\06 - La Vie Devant Soi.wav
Pre-gap length 0:00:02.00
Peak level 98.8 % Extraction speed 2.9 X Track quality 99.9 % Test CRC D897A39B Copy CRC D897A39B Track not present in AccurateRip database Copy OK
Track 7
Filename C:\EACrips\Elisa Tovati - 2011 - Le Syndrome De Peter Pan\07 - La Fille Dans La Glace.wav
Pre-gap length 0:00:02.13
Peak level 98.8 % Extraction speed 4.0 X Track quality 100.0 % Test CRC 33DCB15B Copy CRC 33DCB15B Track not present in AccurateRip database Copy OK
Track 8
Filename C:\EACrips\Elisa Tovati - 2011 - Le Syndrome De Peter Pan\08 - Ciel Grigri.wav
Pre-gap length 0:00:01.53
Peak level 98.8 % Extraction speed 4.2 X Track quality 100.0 % Test CRC E094340B Copy CRC E094340B Track not present in AccurateRip database Copy OK
Track 9
Filename C:\EACrips\Elisa Tovati - 2011 - Le Syndrome De Peter Pan\09 - Post-It.wav
Pre-gap length 0:00:02.00
Peak level 98.8 % Extraction speed 4.3 X Track quality 100.0 % Test CRC 34DA36BF Copy CRC 34DA36BF Track not present in AccurateRip database Copy OK
Track 10
Filename C:\EACrips\Elisa Tovati - 2011 - Le Syndrome De Peter Pan\10 - L'ABCD.wav
Pre-gap length 0:00:01.00
Peak level 98.8 % Extraction speed 3.6 X Track quality 99.9 % Test CRC CD047383 Copy CRC CD047383 Track not present in AccurateRip database Copy OK
Track 11
Filename C:\EACrips\Elisa Tovati - 2011 - Le Syndrome De Peter Pan\11 - La Femme Du Magicien.wav
Pre-gap length 0:00:02.00
Peak level 89.1 % Extraction speed 3.7 X Track quality 99.9 % Test CRC FBB093E5 Copy CRC FBB093E5 Track not present in AccurateRip database Copy OK
Track 12
Filename C:\EACrips\Elisa Tovati - 2011 - Le Syndrome De Peter Pan\12 - Sunset Boulevard.wav
Pre-gap length 0:00:02.00
Peak level 98.8 % Extraction speed 3.9 X Track quality 99.9 % Test CRC B955DE5B Copy CRC B955DE5B Track not present in AccurateRip database Copy OK
None of the tracks are present in the AccurateRip database
No errors occurred
End of status report
==== Log checksum D940F0CF97517CD04A2A9489D91BF3E2FA513601B49876A2905559D81840EB4A ====

Содержание индексной карты (.CUE)

REM GENRE PopREM DATE 2011REM DISCID A308E10CREM COMMENT "ExactAudioCopy v1.0b2"PERFORMER "Elisa Tovati"TITLE "Le Syndrome De Peter Pan"FILE "01 - Le Syndrome De Peter Pan.flac" WAVE TRACK 01 AUDIO TITLE "Le Syndrome De Peter Pan" PERFORMER "Elisa Tovati" PREGAP 00:00:04 INDEX 01 00:00:00 TRACK 02 AUDIO TITLE "Une Larme, Penny Lane" PERFORMER "Elisa Tovati" INDEX 00 04:08:07FILE "02 - Une Larme, Penny Lane.flac" WAVE INDEX 01 00:00:00 TRACK 03 AUDIO TITLE "Ex-Princesse" PERFORMER "Elisa Tovati" INDEX 00 03:12:05FILE "03 - Ex-Princesse.flac" WAVE INDEX 01 00:00:00 TRACK 04 AUDIO TITLE "Barbapapa" PERFORMER "Elisa Tovati" INDEX 00 03:17:45FILE "04 - Barbapapa.flac" WAVE INDEX 01 00:00:00 TRACK 05 AUDIO TITLE "Il Nous Faut" PERFORMER "Elisa Tovati" INDEX 00 02:57:66FILE "05 - Il Nous Faut.flac" WAVE INDEX 01 00:00:00 TRACK 06 AUDIO TITLE "La Vie Devant Soi" PERFORMER "Elisa Tovati" INDEX 00 03:06:01FILE "06 - La Vie Devant Soi.flac" WAVE INDEX 01 00:00:00 TRACK 07 AUDIO TITLE "La Fille Dans La Glace" PERFORMER "Elisa Tovati" INDEX 00 02:20:46FILE "07 - La Fille Dans La Glace.flac" WAVE INDEX 01 00:00:00 TRACK 08 AUDIO TITLE "Ciel Grigri" PERFORMER "Elisa Tovati" INDEX 00 03:08:09FILE "08 - Ciel Grigri.flac" WAVE INDEX 01 00:00:00 TRACK 09 AUDIO TITLE "Post-It" PERFORMER "Elisa Tovati" INDEX 00 03:08:51FILE "09 - Post-It.flac" WAVE INDEX 01 00:00:00 TRACK 10 AUDIO TITLE "L'ABCD" PERFORMER "Elisa Tovati" INDEX 00 02:53:08FILE "10 - L'ABCD.flac" WAVE INDEX 01 00:00:00 TRACK 11 AUDIO TITLE "La Femme Du Magicien" PERFORMER "Elisa Tovati" INDEX 00 02:51:72FILE "11 - La Femme Du Magicien.flac" WAVE INDEX 01 00:00:00 TRACK 12 AUDIO TITLE "Sunset Boulevard" PERFORMER "Elisa Tovati" INDEX 00 03:06:18FILE "12 - Sunset Boulevard.flac" WAVE INDEX 01 00:00:00

Для скачивания файла отключите блокировку рекламы и перезагрузите страницу.

disable adblock Как отключить блокировку рекламы?

Скачать по магнет ссылке 250 MB 

Войти с помощью:

Похожие раздачи

Внимание! Контент 18+ если вы младше данного возраста, НЕ переходите по ссылке!!!
(Jazz, Chanson) Paolo Conte - Elegia - 2004, FLAC (tracks+.cue), lossless
 242 MB   0 | 0   22-Фев-18 14:50   11


   
Текущее время: 14-Авг 19:38 :: Часовой пояс: UTC ± 0