Claude Francois - Intégrale 1962-1972 / 8 CD book
Жанр: French Pop, Chanson
Страна-производитель диска: Франция
Год издания: 2003
Издатель (лейбл): Philips, Universal Music, Mercury France
Страна: Франция
Аудиокодек: FLAC (*.flac)
Тип рипа: tracks+.cue
Битрейт аудио: lossless
Продолжительность: 08:40:55
Источник (релизер): собственная коллекция
Наличие сканов в содержимом раздачи: немного фото
Треклист:

CD1

01 Belles! Belles! Belles! ((Girls, Girls, Girls) Made to Love)
02 Le Nabout Twist
03 Ne T'en Fais Pas Mon Vieux (A Little Bit of Soap)
04 Ali Baba Twist
05 Un Clair De Lune a Meubeuge
06 Moi Je Pense Encore a Toi (Breaking Up is Hard to Do)
07 Venus En Blue-jeans (Venus in Blue-Jeans)
08 Hey Potatoes
09 Moi, Je Voudrais Bien Me Marier (Batchelor Boy)
10 Dis-lui (Tell Him)
11 Langage D'amour [Ou-bi-dou-bi-dou] (The Language of Love)
12 Marche Tout Droit (Walk Right In)
13 Pauvre Petite Fille Riche
14 Si Tu Veux etre Heueux (If You Wanna be Happy)
15 Des Bises De Moi Pour Toi (From Me To You)
16 Comment Fais-tu (How do you do it)
17 Si J'avais Un Marteau (If I Had a Hammer)
18 Je Veux Rester Seul Avec Toi (I Want to Stay Here)
19 En Revant a Noel (In Summer)
20 Ma Petite Amie Est De Retour (My Boyfriend's Back)
21 De Ville En Ville (Little Loving)
22 Laisse-moi Tenir Ta Main (I Want To Hold Your Hand)
23 Maman Cherie (24 Hours from Tulsa)
24 J'y Pense Et Puis J'oublie (It Comes and Goes)

CD2

01 La Ferme du Bonheur (Mockin'bird Hill)
02 Chaque Jour C'est la Meme Chose (Every Day I Have to Cry)
03 Donna Donna (Le Petit Garçon)
04 Petite Meche de Cheveux
05 Dis-Moi Quand (Tell Me When)
06 Je Sais
07 Les Cloches Sonnaient (When You Walk in the Room)
08 Du Pain et du Beurre (Butter and Bread)
09 Le Choses de la Maison (The Things in this House)
10 Tout ca C'etait Hier (Spare a Thought for Me)
11 Terry
12 Alors Salut! (Yeh Yeh)
13 Sois Fier (Walk Tall)
14 Silhouettes
15 Je Devrais Dormir (Teardrops fall like Rain)
16 Quand un Bateau Passe (Trains and Boats and Planes)
17 Meme si tu Revenais
18 Je T'aime Trop, Toi (I Got You, Babe)
19 Ce Monde Absurde (Eve of Destruction)
20 Georgie
21 Mais, N'essaie Pas de me Mentir (Make it easy on Yourself)
22 Tout le Monde Rit D'un Clown (Everybody Loves a Clown)
23 Je Jouet Extraordinaire (The Marvelous Toy)
24 Mais Combien de Temps
25 C'est Moi...C'est Moi... (Ring, Ring, I've Got To Sing)

CD3

01 J'attendrai
02 Au Coin De Mes Reves (emission TV Cendrillon)
03 Les Petites Choses (A Must To Avoid)
04 Le Temps Des Pleurs
05 J'ai Joue Et Puis J'ai Perdu
06 Je Tiens Un Tigre Par La Queue (I've Got a Tiger by the Tail)
07 Amoureux Du Monde Entier (Lovers of the World Unite)
08 Sur Le Banc 21 (Bench No 3 at Waterloo Station)
09 Miss Felicity Gray
10 Chacun a Son Tour (Gone From My Mind)
11 J'Travail a l'Usine (Winchester Cathedral)
12 Winchester Cathedral
13 Mais Quand Le Matin
14 Toute La Vie (The Reason Why)
15 N'est-ce Pas Etrange
16 Car...tout Le Monde A Besoin D'amour (Baby I Need Your Loving)
17 A La Campagne (In the Country)
18 Hip Hip Hip Hurrah
19 Qu'est-ce Tu Deviens (There's a Kind of Hush)
20 Pardon
21 Dans Une Larme
22 Il Faut être Deux (It Takes Two)
23 Ce Soir Je Vais Boire (Stasera mi butto)
24 Je Veux Chaque Dimanche Une Fleur
25 Pourquoi (Baby Now that I've Found You)

CD4

01 Comme D'habitude (My Way)
02 L'homme au Traineau (Carrie Ann)
03 La Plus Belle Chose du Monde (Massachussetts)
04 Rien Rien Rien (I Was Made to Love Her)
05 Ma Fille (My Guy)
06 Le Martien (Flowers in the Rain)
07 Apres Tout
08 Serre-Moi, Griffe Moi
09 Toi tu Voudrais
10 Deborah
11 Jacques a Dit (Simon Says)
12 Aussi Loin
13 Chante Pleure
14 Prends Garde Petite Fille! (Young Girl)
15 Avec la Tete Avec le Coeur
16 Eloise
17 Les Petites Souris
18 Ne te Fatigue Pas
19 Chut Plus un Mot
20 Reste (Begin)
21 Dans Les Orphelinats
22 Les Majorettes
23 Le Magicien
24 Tu N'as Pas Toujours Dit Ca
25 Monsieur le Businessman

CD5

01 Tout Eclate Tout Explose (Love Explosion)
02 Un Monde de Musique
03 Reveries (Daydream)
04 Une Petite Fille Aux Yeux Rouges
05 Un Jour uo L'autre
06 Le Temps Que J'arrive a Marseille (By the Time I Get to Phoenix)
07 Les Moulins de Mon Coeur
08 Cherche (Show Me)
09 Mon Coeur Est Une Maison Vide
10 Jeu Dangereux (Games People Play)
11 Comme Les Autres
12 Ou tu Veux Quand tu Veux
13 Roule...
14 Chaque Jour a la Meme Heure
15 Meme si Demain
16 Petit Jesus
17 Les Ballons Rouges
18 Douce Candy (Sugar Sugar)
19 Menteur ou Cruel
20 Tu Serais Toute a Moi (I'm Gonna Make You Mine)
21 Vivre Que C'est Bon (Viva Booy Joe)
22 Le Pantin
23 Une Petite Larme M'a Trahi (Little Bitty Bear)
24 Il Reste Toujours
25 Un Homme Libre

CD6

01 Diggy Liggy Lai et Diggy Liggy Lo (Diggy Liggy Lo)
02 Parce Que Je T'aime Mon Enfant
03 Le Monde Est Grand Les Gens Sont Beaux (Wonderful World Beautiful People)
04 Olivier
05 Le Dragon Magique (Puff The Magic Dragon)
06 C'est Noel Et J'aurai Tout ça
07 C'est De L'eau, C'est Du Vent
08 Des Roses De Noel
09 E E E. A. A. A.
10 Boum Boum (Gonna Get Along Without You Now)
11 Le Petit Canard
12 L'histoire Irlandaise
13 Si Douce a Mon Souvenir
14 Aida
15 Le Musee De Ma Vie
16 L'anneau Dans La Riviere
17 Vivre Au Soleil
18 C'est Un Depart
19 Jamais Un Amour (Baby Take Me in Your Arms)

CD7

01 Fleur Sauvage
02 Quand Rien Ne Va Plus (Mairzy Doats)
03 Vous et Moi
04 Je Danse
05 Ne Pars Pas
06 C'est La Meme Chanson (It's the Same Old Song)
07 Bernadette
08 Anne-Marie
09 Les Anneaux et les Couteaux
10 Et Pourtant le Temps Passe
11 Les Femmes de France
12 Je Te Demande Pardon
13 Les Ballons et les Billes
14 Seule une Romance
15 Je Vais Mieux
16 Reveille-Moi
17 Hey! Ho! C'est Impossible
18 Il Fait Beau, Il Fait Bon (Freedom Come Freedom Go)
19 Stop Au Nom De L'amour (Stop In the Name of Love)

CD8

01 Un Peu D'amour, Beaucoup de Haine
02 Plus Rien Qu'une Adresse en Commun
03 Comme un Jour Nouveau
04 En Souvenir
05 Aime Moi ou Quitte Moi
06 Combien de Rivieres (River Deep Mountain High)
07 Donne un Peu de Reve
08 Et je Cours, je Cours
09 Et je ne Pense Plus a Toi (Chicago)
10 Un Jardin Dans Mon Coeur (You've Got a Friend)
11 Y'a le Printemps Qui Chante
12 Feu de Paille (American Pie)
13 Pourvu Que je me Souvienne du Soleil
14 Voleurs Bohemiens
15 Merci, Merci Beaucoup
16 Mais C'est Different Deja
17 En Attendant
18 Quand L'epicier Ouvre sa Boutique (Sh'diddle dum dom diddle)
19 Je Chante Pour Les Gens Qui S'aiment (Softly Whispering I Love You)
20 Elle Est au Bout de la Nuit
21 Jesus Christ Superstar (Superstar)

Логи создания рипов

CD1:Exact Audio Copy V1.0 beta 3 from 29. August 2011
Отчёт EAC об извлечении, выполненном 10. марта 2013, 22:01
Claude Francois / Integrale 1962-1972 CD1
Дисковод: TOSHIBA DVD-ROM SD-R1312 Adapter: 0 ID: 1
Режим чтения : ДостоверностьИспользование точного потока : ДаОтключение кэша аудио : ДаИспользование указателей C2 : Нет
Коррекция смещения при чтении : 116Способность читать области Lead-in и Lead-out : НетЗаполнение пропущенных сэмплов тишиной : ДаУдаление блоков с тишиной в начале и конце : НетПри вычислениях CRC использовались нулевые сэмплы : ДаИнтерфейс : Встроенный Win32-интерфейс для Win NT/2000Обработка зазоров : Добавлено к предыдущему треку
Выходной формат : Пользовательский кодировщикВыбранный битрейт : 768 kBit/sКачество : ВысокийДобавление ID3-тега : НетУтилита сжатия : D:\Soft_Drivers\EAC\Flac\flac.exeДополнительные параметры : -V -8 -T "Date=%year%" -T "Genre=%genre%" %source%
TOC извлечённого CD
Трек | Старт | Длительность | Начальный сектор | Конечный сектор --------------------------------------------------------------------- 1 | 0:00.00 | 2:16.07 | 0 | 10206 2 | 2:16.07 | 2:27.09 | 10207 | 21240 3 | 4:43.16 | 2:38.40 | 21241 | 33130 4 | 7:21.56 | 2:24.31 | 33131 | 43961 5 | 9:46.12 | 2:24.02 | 43962 | 54763 6 | 12:10.14 | 2:17.54 | 54764 | 65092 7 | 14:27.68 | 2:17.45 | 65093 | 75412 8 | 16:45.38 | 2:11.63 | 75413 | 85300 9 | 18:57.26 | 1:53.10 | 85301 | 93785 10 | 20:50.36 | 2:22.52 | 93786 | 104487 11 | 23:13.13 | 2:09.46 | 104488 | 114208 12 | 25:22.59 | 2:01.56 | 114209 | 123339 13 | 27:24.40 | 3:15.60 | 123340 | 138024 14 | 30:40.25 | 2:08.61 | 138025 | 147685 15 | 32:49.11 | 1:50.46 | 147686 | 155981 16 | 34:39.57 | 1:51.07 | 155982 | 164313 17 | 36:30.64 | 2:51.51 | 164314 | 177189 18 | 39:22.40 | 2:34.21 | 177190 | 188760 19 | 41:56.61 | 2:50.13 | 188761 | 201523 20 | 44:46.74 | 2:09.05 | 201524 | 211203 21 | 46:56.04 | 2:28.66 | 211204 | 222369 22 | 49:24.70 | 2:21.03 | 222370 | 232947 23 | 51:45.73 | 2:56.18 | 232948 | 246165 24 | 54:42.16 | 2:20.57 | 246166 | 256722
Трек 1
Имя файла D:\CD RIP\clod fr\CD1\01 Belles! Belles! Belles! ((Girls, Girls, Girls) Made to Love).wav
Длина предзазора 0:00:02.00
Пиковый уровень 99.9 % Скорость извлечения 2.7 X Качество трека 99.9 % CRC теста 7CA4AD76 CRC копии 7CA4AD76 Трек не обнаружен в базе AccurateRip Копирование... OK
Трек 2
Имя файла D:\CD RIP\clod fr\CD1\02 Le Nabout Twist.wav
Длина предзазора 0:00:02.12
Пиковый уровень 99.9 % Скорость извлечения 3.5 X Качество трека 100.0 % CRC теста 21F3F76F CRC копии 21F3F76F Трек не обнаружен в базе AccurateRip Копирование... OK
Трек 3
Имя файла D:\CD RIP\clod fr\CD1\03 Ne T'en Fais Pas Mon Vieux (A Little Bit of Soap).wav
Длина предзазора 0:00:02.02
Пиковый уровень 99.9 % Скорость извлечения 3.5 X Качество трека 100.0 % CRC теста 16CE62F1 CRC копии 16CE62F1 Трек не обнаружен в базе AccurateRip Копирование... OK
Трек 4
Имя файла D:\CD RIP\clod fr\CD1\04 Ali Baba Twist.wav
Длина предзазора 0:00:02.09
Пиковый уровень 99.7 % Скорость извлечения 2.9 X Качество трека 99.9 % CRC теста 72D6A239 CRC копии 72D6A239 Трек не обнаружен в базе AccurateRip Копирование... OK
Трек 5
Имя файла D:\CD RIP\clod fr\CD1\05 Un Clair De Lune a Meubeuge.wav
Длина предзазора 0:00:02.03
Пиковый уровень 99.9 % Скорость извлечения 3.4 X Качество трека 100.0 % CRC теста C5F95AB9 CRC копии C5F95AB9 Трек не обнаружен в базе AccurateRip Копирование... OK
Трек 6
Имя файла D:\CD RIP\clod fr\CD1\06 Moi Je Pense Encore a Toi (Breaking Up is Hard to Do).wav
Длина предзазора 0:00:02.02
Пиковый уровень 99.9 % Скорость извлечения 3.3 X Качество трека 100.0 % CRC теста 52AA7D99 CRC копии 52AA7D99 Трек не обнаружен в базе AccurateRip Копирование... OK
Трек 7
Имя файла D:\CD RIP\clod fr\CD1\07 Venus En Blue-jeans (Venus in Blue-Jeans).wav
Длина предзазора 0:00:02.01
Пиковый уровень 99.9 % Скорость извлечения 3.4 X Качество трека 100.0 % CRC теста 68006C04 CRC копии 68006C04 Трек не обнаружен в базе AccurateRip Копирование... OK
Трек 8
Имя файла D:\CD RIP\clod fr\CD1\08 Hey Potatoes.wav
Длина предзазора 0:00:02.13
Пиковый уровень 99.9 % Скорость извлечения 3.3 X Качество трека 100.0 % CRC теста 5CF584F7 CRC копии 5CF584F7 Трек не обнаружен в базе AccurateRip Копирование... OK
Трек 9
Имя файла D:\CD RIP\clod fr\CD1\09 Moi, Je Voudrais Bien Me Marier (Batchelor Boy).wav
Длина предзазора 0:00:01.74
Пиковый уровень 99.9 % Скорость извлечения 3.3 X Качество трека 100.0 % CRC теста 7B1E6153 CRC копии 7B1E6153 Трек не обнаружен в базе AccurateRip Копирование... OK
Трек 10
Имя файла D:\CD RIP\clod fr\CD1\10 Dis-lui (Tell Him).wav
Длина предзазора 0:00:02.05
Пиковый уровень 99.9 % Скорость извлечения 3.4 X Качество трека 100.0 % CRC теста 4C39215E CRC копии 4C39215E Трек не обнаружен в базе AccurateRip Копирование... OK
Трек 11
Имя файла D:\CD RIP\clod fr\CD1\11 Langage D'amour [Ou-bi-dou-bi-dou] (The Language of Love).wav
Длина предзазора 0:00:02.08
Пиковый уровень 88.0 % Скорость извлечения 3.3 X Качество трека 100.0 % CRC теста 2EFAFAA4 CRC копии 2EFAFAA4 Трек не обнаружен в базе AccurateRip Копирование... OK
Трек 12
Имя файла D:\CD RIP\clod fr\CD1\12 Marche Tout Droit (Walk Right In).wav
Длина предзазора 0:00:02.10
Пиковый уровень 99.9 % Скорость извлечения 3.2 X Качество трека 100.0 % CRC теста 23339CBA CRC копии 23339CBA Трек не обнаружен в базе AccurateRip Копирование... OK
Трек 13
Имя файла D:\CD RIP\clod fr\CD1\13 Pauvre Petite Fille Riche.wav
Длина предзазора 0:00:02.03
Пиковый уровень 99.9 % Скорость извлечения 3.6 X Качество трека 100.0 % CRC теста 07626AFE CRC копии 07626AFE Трек не обнаружен в базе AccurateRip Копирование... OK
Трек 14
Имя файла D:\CD RIP\clod fr\CD1\14 Si Tu Veux etre Heueux (If You Wanna be Happy).wav
Длина предзазора 0:00:02.04
Пиковый уровень 99.9 % Скорость извлечения 2.7 X Качество трека 99.9 % CRC теста AFBD7D39 CRC копии AFBD7D39 Трек не обнаружен в базе AccurateRip Копирование... OK
Трек 15
Имя файла D:\CD RIP\clod fr\CD1\15 Des Bises De Moi Pour Toi (From Me To You).wav
Длина предзазора 0:00:02.05
Пиковый уровень 99.9 % Скорость извлечения 3.2 X Качество трека 100.0 % CRC теста 473B0D9E CRC копии 473B0D9E Трек не обнаружен в базе AccurateRip Копирование... OK
Трек 16
Имя файла D:\CD RIP\clod fr\CD1\16 Comment Fais-tu (How do you do it).wav
Длина предзазора 0:00:02.04
Пиковый уровень 99.9 % Скорость извлечения 3.2 X Качество трека 100.0 % CRC теста 65F773D7 CRC копии 65F773D7 Трек не обнаружен в базе AccurateRip Копирование... OK
Трек 17
Имя файла D:\CD RIP\clod fr\CD1\17 Si J'avais Un Marteau (If I Had a Hammer).wav
Длина предзазора 0:00:02.02
Пиковый уровень 99.9 % Скорость извлечения 3.5 X Качество трека 100.0 % CRC теста 459DDCBA CRC копии 459DDCBA Трек не обнаружен в базе AccurateRip Копирование... OK
Трек 18
Имя файла D:\CD RIP\clod fr\CD1\18 Je Veux Rester Seul Avec Toi (I Want to Stay Here).wav
Длина предзазора 0:00:01.70
Пиковый уровень 99.9 % Скорость извлечения 3.4 X Качество трека 100.0 % CRC теста 5CCFBA35 CRC копии 5CCFBA35 Трек не обнаружен в базе AccurateRip Копирование... OK
Трек 19
Имя файла D:\CD RIP\clod fr\CD1\19 En Revant a Noel (In Summer).wav
Длина предзазора 0:00:02.01
Пиковый уровень 99.9 % Скорость извлечения 3.5 X Качество трека 100.0 % CRC теста 80C62514 CRC копии 80C62514 Трек не обнаружен в базе AccurateRip Копирование... OK
Трек 20
Имя файла D:\CD RIP\clod fr\CD1\20 Ma Petite Amie Est De Retour (My Boyfriend's Back).wav
Длина предзазора 0:00:02.07
Пиковый уровень 99.9 % Скорость извлечения 3.3 X Качество трека 100.0 % CRC теста F5FE9940 CRC копии F5FE9940 Трек не обнаружен в базе AccurateRip Копирование... OK
Трек 21
Имя файла D:\CD RIP\clod fr\CD1\21 De Ville En Ville (Little Loving).wav
Длина предзазора 0:00:02.05
Пиковый уровень 99.9 % Скорость извлечения 3.4 X Качество трека 100.0 % CRC теста FD92D422 CRC копии FD92D422 Трек не обнаружен в базе AccurateRip Копирование... OK
Трек 22
Имя файла D:\CD RIP\clod fr\CD1\22 Laisse-moi Tenir Ta Main (I Want To Hold Your Hand).wav
Длина предзазора 0:00:02.06
Пиковый уровень 89.0 % Скорость извлечения 3.4 X Качество трека 100.0 % CRC теста 47367BD7 CRC копии 47367BD7 Трек не обнаружен в базе AccurateRip Копирование... OK
Трек 23
Имя файла D:\CD RIP\clod fr\CD1\23 Maman Cherie (24 Hours from Tulsa).wav
Длина предзазора 0:00:01.71
Пиковый уровень 99.9 % Скорость извлечения 3.0 X Качество трека 99.9 % CRC теста EF401246 CRC копии EF401246 Трек не обнаружен в базе AccurateRip Копирование... OK
Трек 24
Имя файла D:\CD RIP\clod fr\CD1\24 J'y Pense Et Puis J'oublie (It Comes and Goes).wav
Длина предзазора 0:00:02.04
Пиковый уровень 99.9 % Скорость извлечения 2.8 X Качество трека 99.9 % CRC теста 7C4D8530 CRC копии 7C4D8530 Трек не обнаружен в базе AccurateRip Копирование... OK
Ни одного трека нет в базе AccurateRip
Ошибок не произошло
Конец отчёта
---- CUETools DB Plugin V2.1.3
[CTDB TOCID: 7v3ZcuThADDRLK7KPutRZVfsq.8-] found, Submit result: 7v3ZcuThADDRLK7KPutRZVfsq.8- has been uploaded[c1c4529f] (1/1) Differs in 12 samples @20:03:49You can use CUETools to repair this rip.
==== Контрольная сумма отчёта DE32F18B2B18C05B6585BF7A758E8A5D23131670A41BE2335492D6D1569E301C ====CD2:Exact Audio Copy V1.0 beta 3 from 29. August 2011
Отчёт EAC об извлечении, выполненном 10. марта 2013, 22:54
Claude Francois / Integrale 1962-1972 CD2
Дисковод: TOSHIBA DVD-ROM SD-R1312 Adapter: 0 ID: 1
Режим чтения : ДостоверностьИспользование точного потока : ДаОтключение кэша аудио : ДаИспользование указателей C2 : Нет
Коррекция смещения при чтении : 116Способность читать области Lead-in и Lead-out : НетЗаполнение пропущенных сэмплов тишиной : ДаУдаление блоков с тишиной в начале и конце : НетПри вычислениях CRC использовались нулевые сэмплы : ДаИнтерфейс : Встроенный Win32-интерфейс для Win NT/2000Обработка зазоров : Добавлено к предыдущему треку
Выходной формат : Пользовательский кодировщикВыбранный битрейт : 768 kBit/sКачество : ВысокийДобавление ID3-тега : НетУтилита сжатия : D:\Soft_Drivers\EAC\Flac\flac.exeДополнительные параметры : -V -8 -T "Date=%year%" -T "Genre=%genre%" %source%
TOC извлечённого CD
Трек | Старт | Длительность | Начальный сектор | Конечный сектор --------------------------------------------------------------------- 1 | 0:00.00 | 3:13.47 | 0 | 14521 2 | 3:13.47 | 2:11.13 | 14522 | 24359 3 | 5:24.60 | 2:34.54 | 24360 | 35963 4 | 7:59.39 | 2:24.54 | 35964 | 46817 5 | 10:24.18 | 2:20.48 | 46818 | 57365 6 | 12:44.66 | 3:06.21 | 57366 | 71336 7 | 15:51.12 | 2:24.42 | 71337 | 82178 8 | 18:15.54 | 2:02.57 | 82179 | 91385 9 | 20:18.36 | 2:22.23 | 91386 | 102058 10 | 22:40.59 | 3:03.49 | 102059 | 115832 11 | 25:44.33 | 3:02.21 | 115833 | 129503 12 | 28:46.54 | 2:41.63 | 129504 | 141641 13 | 31:28.42 | 2:35.24 | 141642 | 153290 14 | 34:03.66 | 2:01.42 | 153291 | 162407 15 | 36:05.33 | 2:20.54 | 162408 | 172961 16 | 38:26.12 | 2:46.18 | 172962 | 185429 17 | 41:12.30 | 2:17.18 | 185430 | 195722 18 | 43:29.48 | 3:04.69 | 195723 | 209591 19 | 46:34.42 | 3:44.42 | 209592 | 226433 20 | 50:19.09 | 2:51.21 | 226434 | 239279 21 | 53:10.30 | 3:09.23 | 239280 | 253477 22 | 56:19.53 | 2:24.52 | 253478 | 264329 23 | 58:44.30 | 2:32.66 | 264330 | 275795 24 | 61:17.21 | 2:57.12 | 275796 | 289082 25 | 64:14.33 | 2:44.53 | 289083 | 301435
Трек 1
Имя файла D:\CD RIP\Claude Francois - Integrale 1962-1972\CD2\01 La Ferme du Bonheur (Mockin'bird Hill).wav
Длина предзазора 0:00:02.00
Пиковый уровень 98.3 % Скорость извлечения 3.5 X Качество трека 100.0 % CRC теста C95B0C52 CRC копии C95B0C52 Трек не обнаружен в базе AccurateRip Копирование... OK
Трек 2
Имя файла D:\CD RIP\Claude Francois - Integrale 1962-1972\CD2\02 Chaque Jour C'est la Meme Chose (Every Day I Have to Cry).wav
Длина предзазора 0:00:01.64
Пиковый уровень 97.9 % Скорость извлечения 3.3 X Качество трека 100.0 % CRC теста 4FA94EC3 CRC копии 4FA94EC3 Трек не обнаружен в базе AccurateRip Копирование... OK
Трек 3
Имя файла D:\CD RIP\Claude Francois - Integrale 1962-1972\CD2\03 Donna Donna (Le Petit Garçon).wav
Длина предзазора 0:00:01.73
Пиковый уровень 99.7 % Скорость извлечения 2.9 X Качество трека 99.9 % CRC теста F42051C8 CRC копии F42051C8 Трек не обнаружен в базе AccurateRip Копирование... OK
Трек 4
Имя файла D:\CD RIP\Claude Francois - Integrale 1962-1972\CD2\04 Petite Meche de Cheveux.wav
Длина предзазора 0:00:01.70
Пиковый уровень 99.9 % Скорость извлечения 2.8 X Качество трека 99.9 % CRC теста F1E92F54 CRC копии F1E92F54 Трек не обнаружен в базе AccurateRip Копирование... OK
Трек 5
Имя файла D:\CD RIP\Claude Francois - Integrale 1962-1972\CD2\05 Dis-Moi Quand (Tell Me When).wav
Длина предзазора 0:00:01.74
Пиковый уровень 94.5 % Скорость извлечения 3.3 X Качество трека 100.0 % CRC теста CAAA4507 CRC копии CAAA4507 Трек не обнаружен в базе AccurateRip Копирование... OK
Трек 6
Имя файла D:\CD RIP\Claude Francois - Integrale 1962-1972\CD2\06 Je Sais.wav
Длина предзазора 0:00:02.00
Пиковый уровень 98.0 % Скорость извлечения 3.1 X Качество трека 99.9 % CRC теста C8DFBDCC CRC копии C8DFBDCC Трек не обнаружен в базе AccurateRip Копирование... OK
Трек 7
Имя файла D:\CD RIP\Claude Francois - Integrale 1962-1972\CD2\07 Les Cloches Sonnaient (When You Walk in the Room).wav
Длина предзазора 0:00:01.73
Пиковый уровень 88.5 % Скорость извлечения 3.5 X Качество трека 100.0 % CRC теста 8A60F160 CRC копии 8A60F160 Трек не обнаружен в базе AccurateRip Копирование... OK
Трек 8
Имя файла D:\CD RIP\Claude Francois - Integrale 1962-1972\CD2\08 Du Pain et du Beurre (Butter and Bread).wav
Длина предзазора 0:00:02.02
Пиковый уровень 88.7 % Скорость извлечения 3.3 X Качество трека 100.0 % CRC теста FBC26811 CRC копии FBC26811 Трек не обнаружен в базе AccurateRip Копирование... OK
Трек 9
Имя файла D:\CD RIP\Claude Francois - Integrale 1962-1972\CD2\09 Le Choses de la Maison (The Things in this House).wav
Длина предзазора 0:00:02.03
Пиковый уровень 97.8 % Скорость извлечения 3.4 X Качество трека 100.0 % CRC теста EB8FD241 CRC копии EB8FD241 Трек не обнаружен в базе AccurateRip Копирование... OK
Трек 10
Имя файла D:\CD RIP\Claude Francois - Integrale 1962-1972\CD2\10 Tout ca C'etait Hier (Spare a Thought for Me).wav
Длина предзазора 0:00:02.11
Пиковый уровень 99.1 % Скорость извлечения 3.5 X Качество трека 100.0 % CRC теста E6CBCC2B CRC копии E6CBCC2B Трек не обнаружен в базе AccurateRip Копирование... OK
Трек 11
Имя файла D:\CD RIP\Claude Francois - Integrale 1962-1972\CD2\11 Terry.wav
Длина предзазора 0:00:02.07
Пиковый уровень 99.2 % Скорость извлечения 3.0 X Качество трека 99.9 % CRC теста 7CEA3EFE CRC копии 7CEA3EFE Трек не обнаружен в базе AccurateRip Копирование... OK
Трек 12
Имя файла D:\CD RIP\Claude Francois - Integrale 1962-1972\CD2\12 Alors Salut! (Yeh Yeh).wav
Длина предзазора 0:00:02.05
Пиковый уровень 99.8 % Скорость извлечения 3.5 X Качество трека 100.0 % CRC теста 146C7C11 CRC копии 146C7C11 Трек не обнаружен в базе AccurateRip Копирование... OK
Трек 13
Имя файла D:\CD RIP\Claude Francois - Integrale 1962-1972\CD2\13 Sois Fier (Walk Tall).wav
Длина предзазора 0:00:01.68
Пиковый уровень 99.7 % Скорость извлечения 3.5 X Качество трека 100.0 % CRC теста 7D977E63 CRC копии 7D977E63 Трек не обнаружен в базе AccurateRip Копирование... OK
Трек 14
Имя файла D:\CD RIP\Claude Francois - Integrale 1962-1972\CD2\14 Silhouettes.wav
Длина предзазора 0:00:02.04
Пиковый уровень 99.1 % Скорость извлечения 3.3 X Качество трека 100.0 % CRC теста FABEC4C6 CRC копии FABEC4C6 Трек не обнаружен в базе AccurateRip Копирование... OK
Трек 15
Имя файла D:\CD RIP\Claude Francois - Integrale 1962-1972\CD2\15 Je Devrais Dormir (Teardrops fall like Rain).wav
Длина предзазора 0:00:02.05
Пиковый уровень 99.3 % Скорость извлечения 2.9 X Качество трека 99.9 % CRC теста 5B67D1DB CRC копии 5B67D1DB Трек не обнаружен в базе AccurateRip Копирование... OK
Трек 16
Имя файла D:\CD RIP\Claude Francois - Integrale 1962-1972\CD2\16 Quand un Bateau Passe (Trains and Boats and Planes).wav
Длина предзазора 0:00:02.10
Пиковый уровень 99.6 % Скорость извлечения 3.6 X Качество трека 100.0 % CRC теста 95E207A3 CRC копии 95E207A3 Трек не обнаружен в базе AccurateRip Копирование... OK
Трек 17
Имя файла D:\CD RIP\Claude Francois - Integrale 1962-1972\CD2\17 Meme si tu Revenais.wav
Длина предзазора 0:00:02.02
Пиковый уровень 100.0 % Скорость извлечения 3.4 X Качество трека 100.0 % CRC теста B4CAE56B CRC копии B4CAE56B Трек не обнаружен в базе AccurateRip Копирование... OK
Трек 18
Имя файла D:\CD RIP\Claude Francois - Integrale 1962-1972\CD2\18 Je T'aime Trop, Toi (I Got You, Babe).wav
Длина предзазора 0:00:01.73
Пиковый уровень 99.3 % Скорость извлечения 3.1 X Качество трека 99.9 % CRC теста 68C6AD4D CRC копии 68C6AD4D Трек не обнаружен в базе AccurateRip Копирование... OK
Трек 19
Имя файла D:\CD RIP\Claude Francois - Integrale 1962-1972\CD2\19 Ce Monde Absurde (Eve of Destruction).wav
Длина предзазора 0:00:02.00
Пиковый уровень 99.1 % Скорость извлечения 3.7 X Качество трека 100.0 % CRC теста C4212754 CRC копии C4212754 Трек не обнаружен в базе AccurateRip Копирование... OK
Трек 20
Имя файла D:\CD RIP\Claude Francois - Integrale 1962-1972\CD2\20 Georgie.wav
Длина предзазора 0:00:01.56
Пиковый уровень 83.1 % Скорость извлечения 3.0 X Качество трека 99.9 % CRC теста 82FE7228 CRC копии 82FE7228 Трек не обнаружен в базе AccurateRip Копирование... OK
Трек 21
Имя файла D:\CD RIP\Claude Francois - Integrale 1962-1972\CD2\21 Mais, N'essaie Pas de me Mentir (Make it easy on Yourself).wav
Длина предзазора 0:00:02.00
Пиковый уровень 88.7 % Скорость извлечения 3.6 X Качество трека 100.0 % CRC теста 4ACDED9F CRC копии 4ACDED9F Трек не обнаружен в базе AccurateRip Копирование... OK
Трек 22
Имя файла D:\CD RIP\Claude Francois - Integrale 1962-1972\CD2\22 Tout le Monde Rit D'un Clown (Everybody Loves a Clown).wav
Длина предзазора 0:00:01.69
Пиковый уровень 99.5 % Скорость извлечения 3.4 X Качество трека 100.0 % CRC теста 8533E980 CRC копии 8533E980 Трек не обнаружен в базе AccurateRip Копирование... OK
Трек 23
Имя файла D:\CD RIP\Claude Francois - Integrale 1962-1972\CD2\23 Je Jouet Extraordinaire (The Marvelous Toy).wav
Длина предзазора 0:00:02.04
Пиковый уровень 99.7 % Скорость извлечения 3.5 X Качество трека 100.0 % CRC теста 38E7D65D CRC копии 38E7D65D Трек не обнаружен в базе AccurateRip Копирование... OK
Трек 24
Имя файла D:\CD RIP\Claude Francois - Integrale 1962-1972\CD2\24 Mais Combien de Temps.wav
Длина предзазора 0:00:02.03
Пиковый уровень 89.0 % Скорость извлечения 3.6 X Качество трека 100.0 % CRC теста B0FEF665 CRC копии B0FEF665 Трек не обнаружен в базе AccurateRip Копирование... OK
Трек 25
Имя файла D:\CD RIP\Claude Francois - Integrale 1962-1972\CD2\25 C'est Moi...C'est Moi... (Ring, Ring, I've Got To Sing).wav
Длина предзазора 0:00:01.72
Пиковый уровень 88.5 % Скорость извлечения 2.9 X Качество трека 99.9 % CRC теста B7AE8859 CRC копии B7AE8859 Трек не обнаружен в базе AccurateRip Копирование... OK
Ни одного трека нет в базе AccurateRip
Ошибок не произошло
Конец отчёта
---- CUETools DB Plugin V2.1.3
[CTDB TOCID: in9NgDIXTHhxlrWQcfRMR.ypTdw-] disk not present in database, Submit result: in9NgDIXTHhxlrWQcfRMR.ypTdw- has been uploaded
==== Контрольная сумма отчёта 8803067B1B0DE83A42963B83B2CD7506AA9797BA54020610D4E7EBB11018303F ====CD3:Exact Audio Copy V1.0 beta 3 from 29. August 2011
Отчёт EAC об извлечении, выполненном 11. марта 2013, 20:14
Claude Francois / Integrale 1962-1972 CD3
Дисковод: TOSHIBA DVD-ROM SD-R1312 Adapter: 0 ID: 1
Режим чтения : ДостоверностьИспользование точного потока : ДаОтключение кэша аудио : ДаИспользование указателей C2 : Нет
Коррекция смещения при чтении : 116Способность читать области Lead-in и Lead-out : НетЗаполнение пропущенных сэмплов тишиной : ДаУдаление блоков с тишиной в начале и конце : НетПри вычислениях CRC использовались нулевые сэмплы : ДаИнтерфейс : Встроенный Win32-интерфейс для Win NT/2000Обработка зазоров : Добавлено к предыдущему треку
Выходной формат : Пользовательский кодировщикВыбранный битрейт : 768 kBit/sКачество : ВысокийДобавление ID3-тега : НетУтилита сжатия : D:\Soft_Drivers\EAC\Flac\flac.exeДополнительные параметры : -V -8 -T "Date=%year%" -T "Genre=%genre%" %source%
TOC извлечённого CD
Трек | Старт | Длительность | Начальный сектор | Конечный сектор --------------------------------------------------------------------- 1 | 0:00.00 | 3:01.13 | 0 | 13587 2 | 3:01.13 | 2:24.52 | 13588 | 24439 3 | 5:25.65 | 2:13.28 | 24440 | 34442 4 | 7:39.18 | 2:49.68 | 34443 | 47185 5 | 10:29.11 | 2:24.01 | 47186 | 57986 6 | 12:53.12 | 3:21.20 | 57987 | 73081 7 | 16:14.32 | 2:36.29 | 73082 | 84810 8 | 18:50.61 | 2:30.70 | 84811 | 96130 9 | 21:21.56 | 2:19.39 | 96131 | 106594 10 | 23:41.20 | 1:55.20 | 106595 | 115239 11 | 25:36.40 | 2:27.21 | 115240 | 126285 12 | 28:03.61 | 2:26.36 | 126286 | 137271 13 | 30:30.22 | 3:20.05 | 137272 | 152276 14 | 33:50.27 | 2:47.28 | 152277 | 164829 15 | 36:37.55 | 2:46.41 | 164830 | 177320 16 | 39:24.21 | 2:49.28 | 177321 | 190023 17 | 42:13.49 | 2:20.06 | 190024 | 200529 18 | 44:33.55 | 2:50.59 | 200530 | 213338 19 | 47:24.39 | 2:46.54 | 213339 | 225842 20 | 50:11.18 | 2:52.43 | 225843 | 238785 21 | 53:03.61 | 2:50.09 | 238786 | 251544 22 | 55:53.70 | 3:22.21 | 251545 | 266715 23 | 59:16.16 | 2:03.08 | 266716 | 275948 24 | 61:19.24 | 2:45.07 | 275949 | 288330 25 | 64:04.31 | 2:47.18 | 288331 | 300873
Трек 1
Имя файла D:\CD RIP\Claude Francois - Integrale 1962-1972\CD3\01 J'attendrai.wav
Длина предзазора 0:00:02.00
Пиковый уровень 99.9 % Скорость извлечения 3.6 X Качество трека 100.0 % CRC теста 31FD58A4 CRC копии 31FD58A4 Трек не обнаружен в базе AccurateRip Копирование... OK
Трек 2
Имя файла D:\CD RIP\Claude Francois - Integrale 1962-1972\CD3\02 Au Coin De Mes Reves (emission TV Cendrillon).wav
Длина предзазора 0:00:01.73
Пиковый уровень 99.9 % Скорость извлечения 3.4 X Качество трека 100.0 % CRC теста 76A6983D CRC копии 76A6983D Трек не обнаружен в базе AccurateRip Копирование... OK
Трек 3
Имя файла D:\CD RIP\Claude Francois - Integrale 1962-1972\CD3\03 Les Petites Choses (A Must To Avoid).wav
Длина предзазора 0:00:02.02
Пиковый уровень 99.9 % Скорость извлечения 3.3 X Качество трека 100.0 % CRC теста D6A50DA0 CRC копии D6A50DA0 Трек не обнаружен в базе AccurateRip Копирование... OK
Трек 4
Имя файла D:\CD RIP\Claude Francois - Integrale 1962-1972\CD3\04 Le Temps Des Pleurs.wav
Длина предзазора 0:00:02.10
Пиковый уровень 88.9 % Скорость извлечения 3.6 X Качество трека 100.0 % CRC теста ED692CBF CRC копии ED692CBF Трек не обнаружен в базе AccurateRip Копирование... OK
Трек 5
Имя файла D:\CD RIP\Claude Francois - Integrale 1962-1972\CD3\05 J'ai Joue Et Puis J'ai Perdu.wav
Длина предзазора 0:00:01.71
Пиковый уровень 99.9 % Скорость извлечения 3.5 X Качество трека 100.0 % CRC теста 44252103 CRC копии 44252103 Трек не обнаружен в базе AccurateRip Копирование... OK
Трек 6
Имя файла D:\CD RIP\Claude Francois - Integrale 1962-1972\CD3\06 Je Tiens Un Tigre Par La Queue (I've Got a Tiger by the Tail).wav
Длина предзазора 0:00:02.02
Пиковый уровень 99.9 % Скорость извлечения 2.3 X Качество трека 99.7 % CRC теста 2361E1EE CRC копии 2361E1EE Трек не обнаружен в базе AccurateRip Копирование... OK
Трек 7
Имя файла D:\CD RIP\Claude Francois - Integrale 1962-1972\CD3\07 Amoureux Du Monde Entier (Lovers of the World Unite).wav
Длина предзазора 0:00:02.01
Пиковый уровень 99.9 % Скорость извлечения 3.0 X Качество трека 99.9 % CRC теста 8C627FEC CRC копии 8C627FEC Трек не обнаружен в базе AccurateRip Копирование... OK
Трек 8
Имя файла D:\CD RIP\Claude Francois - Integrale 1962-1972\CD3\08 Sur Le Banc 21 (Bench No 3 at Waterloo Station).wav
Длина предзазора 0:00:02.07
Пиковый уровень 100.0 % Скорость извлечения 3.5 X Качество трека 100.0 % CRC теста E10A8433 CRC копии E10A8433 Трек не обнаружен в базе AccurateRip Копирование... OK
Трек 9
Имя файла D:\CD RIP\Claude Francois - Integrale 1962-1972\CD3\09 Miss Felicity Gray.wav
Длина предзазора 0:00:02.13
Пиковый уровень 99.9 % Скорость извлечения 3.5 X Качество трека 100.0 % CRC теста 647493B7 CRC копии 647493B7 Трек не обнаружен в базе AccurateRip Копирование... OK
Трек 10
Имя файла D:\CD RIP\Claude Francois - Integrale 1962-1972\CD3\10 Chacun a Son Tour (Gone From My Mind).wav
Длина предзазора 0:00:02.01
Пиковый уровень 99.9 % Скорость извлечения 3.3 X Качество трека 100.0 % CRC теста 640AECBF CRC копии 640AECBF Трек не обнаружен в базе AccurateRip Копирование... OK
Трек 11
Имя файла D:\CD RIP\Claude Francois - Integrale 1962-1972\CD3\11 J'Travail a l'Usine (Winchester Cathedral).wav
Длина предзазора 0:00:02.11
Пиковый уровень 97.6 % Скорость извлечения 3.4 X Качество трека 100.0 % CRC теста E885DC15 CRC копии E885DC15 Трек не обнаружен в базе AccurateRip Копирование... OK
Трек 12
Имя файла D:\CD RIP\Claude Francois - Integrale 1962-1972\CD3\12 Winchester Cathedral.wav
Длина предзазора 0:00:02.01
Пиковый уровень 99.9 % Скорость извлечения 3.4 X Качество трека 100.0 % CRC теста 1C7C55BE CRC копии 1C7C55BE Трек не обнаружен в базе AccurateRip Копирование... OK
Трек 13
Имя файла D:\CD RIP\Claude Francois - Integrale 1962-1972\CD3\13 Mais Quand Le Matin.wav
Длина предзазора 0:00:01.73
Пиковый уровень 99.9 % Скорость извлечения 3.6 X Качество трека 100.0 % CRC теста 052828D7 CRC копии 052828D7 Трек не обнаружен в базе AccurateRip Копирование... OK
Трек 14
Имя файла D:\CD RIP\Claude Francois - Integrale 1962-1972\CD3\14 Toute La Vie (The Reason Why).wav
Длина предзазора 0:00:02.09
Пиковый уровень 99.9 % Скорость извлечения 3.5 X Качество трека 100.0 % CRC теста 79932BD8 CRC копии 79932BD8 Трек не обнаружен в базе AccurateRip Копирование... OK
Трек 15
Имя файла D:\CD RIP\Claude Francois - Integrale 1962-1972\CD3\15 N'est-ce Pas Etrange.wav
Длина предзазора 0:00:02.12
Пиковый уровень 100.0 % Скорость извлечения 3.5 X Качество трека 100.0 % CRC теста 1A87EDEA CRC копии 1A87EDEA Трек не обнаружен в базе AccurateRip Копирование... OK
Трек 16
Имя файла D:\CD RIP\Claude Francois - Integrale 1962-1972\CD3\16 Car...tout Le Monde A Besoin D'amour (Baby I Need Your Loving).wav
Длина предзазора 0:00:02.02
Пиковый уровень 100.0 % Скорость извлечения 3.6 X Качество трека 100.0 % CRC теста 1FF3D448 CRC копии 1FF3D448 Трек не обнаружен в базе AccurateRip Копирование... OK
Трек 17
Имя файла D:\CD RIP\Claude Francois - Integrale 1962-1972\CD3\17 A La Campagne (In the Country).wav
Длина предзазора 0:00:02.15
Пиковый уровень 99.9 % Скорость извлечения 2.8 X Качество трека 99.9 % CRC теста 2A8D4B4B CRC копии 2A8D4B4B Трек не обнаружен в базе AccurateRip Копирование... OK
Трек 18
Имя файла D:\CD RIP\Claude Francois - Integrale 1962-1972\CD3\18 Hip Hip Hip Hurrah.wav
Длина предзазора 0:00:02.07
Пиковый уровень 99.9 % Скорость извлечения 3.6 X Качество трека 100.0 % CRC теста F1B5F7AE CRC копии F1B5F7AE Трек не обнаружен в базе AccurateRip Копирование... OK
Трек 19
Имя файла D:\CD RIP\Claude Francois - Integrale 1962-1972\CD3\19 Qu'est-ce Tu Deviens (There's a Kind of Hush).wav
Длина предзазора 0:00:02.16
Пиковый уровень 99.9 % Скорость извлечения 3.6 X Качество трека 100.0 % CRC теста 79AE5709 CRC копии 79AE5709 Трек не обнаружен в базе AccurateRip Копирование... OK
Трек 20
Имя файла D:\CD RIP\Claude Francois - Integrale 1962-1972\CD3\20 Pardon.wav
Длина предзазора 0:00:02.13
Пиковый уровень 99.9 % Скорость извлечения 3.6 X Качество трека 100.0 % CRC теста A01AB2BB CRC копии A01AB2BB Трек не обнаружен в базе AccurateRip Копирование... OK
Трек 21
Имя файла D:\CD RIP\Claude Francois - Integrale 1962-1972\CD3\21 Dans Une Larme.wav
Длина предзазора 0:00:02.30
Пиковый уровень 99.9 % Скорость извлечения 3.6 X Качество трека 100.0 % CRC теста 1BAAAF18 CRC копии 1BAAAF18 Трек не обнаружен в базе AccurateRip Копирование... OK
Трек 22
Имя файла D:\CD RIP\Claude Francois - Integrale 1962-1972\CD3\22 Il Faut être Deux (It Takes Two).wav
Длина предзазора 0:00:02.02
Пиковый уровень 100.0 % Скорость извлечения 3.6 X Качество трека 100.0 % CRC теста FDE54F1F CRC копии FDE54F1F Трек не обнаружен в базе AccurateRip Копирование... OK
Трек 23
Имя файла D:\CD RIP\Claude Francois - Integrale 1962-1972\CD3\23 Ce Soir Je Vais Boire (Stasera mi butto).wav
Длина предзазора 0:00:02.07
Пиковый уровень 89.0 % Скорость извлечения 3.2 X Качество трека 100.0 % CRC теста D0630999 CRC копии D0630999 Трек не обнаружен в базе AccurateRip Копирование... OK
Трек 24
Имя файла D:\CD RIP\Claude Francois - Integrale 1962-1972\CD3\24 Je Veux Chaque Dimanche Une Fleur.wav
Длина предзазора 0:00:02.12
Пиковый уровень 99.9 % Скорость извлечения 3.5 X Качество трека 100.0 % CRC теста 7EA1CB64 CRC копии 7EA1CB64 Трек не обнаружен в базе AccurateRip Копирование... OK
Трек 25
Имя файла D:\CD RIP\Claude Francois - Integrale 1962-1972\CD3\25 Pourquoi (Baby Now that I've Found You).wav
Длина предзазора 0:00:02.00
Пиковый уровень 99.9 % Скорость извлечения 3.5 X Качество трека 100.0 % CRC теста 80CB2CEB CRC копии 80CB2CEB Трек не обнаружен в базе AccurateRip Копирование... OK
Ни одного трека нет в базе AccurateRip
Ошибок не произошло
Конец отчёта
---- CUETools DB Plugin V2.1.3
[CTDB TOCID: Ab6fcrdG4g856s88RRUJwbt50Cg-] found, Submit result: Ab6fcrdG4g856s88RRUJwbt50Cg- has been uploaded[f093d376] (1/1) Differs in 12 samples @07:16:37You can use CUETools to repair this rip.
==== Контрольная сумма отчёта 769967EB77660A67051EAB9714D71EDFA4EF3118A21320F229B8C1DE5A9ABFCD ====CD4:Exact Audio Copy V1.0 beta 3 from 29. August 2011
Отчёт EAC об извлечении, выполненном 12. марта 2013, 1:31
Claude Francois / Integrale 1962-1972 CD4
Дисковод: TOSHIBA DVD-ROM SD-R1312 Adapter: 0 ID: 1
Режим чтения : ДостоверностьИспользование точного потока : ДаОтключение кэша аудио : ДаИспользование указателей C2 : Нет
Коррекция смещения при чтении : 116Способность читать области Lead-in и Lead-out : НетЗаполнение пропущенных сэмплов тишиной : ДаУдаление блоков с тишиной в начале и конце : НетПри вычислениях CRC использовались нулевые сэмплы : ДаИнтерфейс : Встроенный Win32-интерфейс для Win NT/2000Обработка зазоров : Добавлено к предыдущему треку
Выходной формат : Пользовательский кодировщикВыбранный битрейт : 768 kBit/sКачество : ВысокийДобавление ID3-тега : НетУтилита сжатия : D:\Soft_Drivers\EAC\Flac\flac.exeДополнительные параметры : -V -8 -T "Date=%year%" -T "Genre=%genre%" %source%
TOC извлечённого CD
Трек | Старт | Длительность | Начальный сектор | Конечный сектор --------------------------------------------------------------------- 1 | 0:00.00 | 4:12.46 | 0 | 18945 2 | 4:12.46 | 2:15.10 | 18946 | 29080 3 | 6:27.56 | 3:00.50 | 29081 | 42630 4 | 9:28.31 | 2:58.07 | 42631 | 55987 5 | 12:26.38 | 2:51.67 | 55988 | 68879 6 | 15:18.30 | 2:41.17 | 68880 | 80971 7 | 17:59.47 | 3:19.20 | 80972 | 95916 8 | 21:18.67 | 2:19.60 | 95917 | 106401 9 | 23:38.52 | 2:36.55 | 106402 | 118156 10 | 26:15.32 | 3:08.43 | 118157 | 132299 11 | 29:24.00 | 2:56.62 | 132300 | 145561 12 | 32:20.62 | 2:35.48 | 145562 | 157234 13 | 34:56.35 | 3:08.09 | 157235 | 171343 14 | 38:04.44 | 3:04.27 | 171344 | 185170 15 | 41:08.71 | 3:39.05 | 185171 | 201600 16 | 44:48.01 | 5:32.24 | 201601 | 226524 17 | 50:20.25 | 3:20.03 | 226525 | 241527 18 | 53:40.28 | 3:17.67 | 241528 | 256369 19 | 56:58.20 | 2:32.71 | 256370 | 267840 20 | 59:31.16 | 2:57.35 | 267841 | 281150 21 | 62:28.51 | 3:17.02 | 281151 | 295927 22 | 65:45.53 | 3:01.07 | 295928 | 309509 23 | 68:46.60 | 2:44.64 | 309510 | 321873 24 | 71:31.49 | 3:31.21 | 321874 | 337719 25 | 75:02.70 | 3:14.66 | 337720 | 352335
Трек 1
Имя файла D:\CD RIP\Claude Francois - Integrale 1962-1972\CD4\01 Comme D'habitude (My Way).wav
Длина предзазора 0:00:02.00
Пиковый уровень 99.9 % Скорость извлечения 3.7 X Качество трека 100.0 % CRC теста 9E70ED7C CRC копии 9E70ED7C Трек не обнаружен в базе AccurateRip Копирование... OK
Трек 2
Имя файла D:\CD RIP\Claude Francois - Integrale 1962-1972\CD4\02 L'homme au Traineau (Carrie Ann).wav
Длина предзазора 0:00:01.74
Пиковый уровень 99.9 % Скорость извлечения 2.8 X Качество трека 99.9 % CRC теста 96B8054F CRC копии 96B8054F Трек не обнаружен в базе AccurateRip Копирование... OK
Трек 3
Имя файла D:\CD RIP\Claude Francois - Integrale 1962-1972\CD4\03 La Plus Belle Chose du Monde (Massachussetts).wav
Длина предзазора 0:00:02.06
Пиковый уровень 99.7 % Скорость извлечения 3.5 X Качество трека 100.0 % CRC теста 9A895C6E CRC копии 9A895C6E Трек не обнаружен в базе AccurateRip Копирование... OK
Трек 4
Имя файла D:\CD RIP\Claude Francois - Integrale 1962-1972\CD4\04 Rien Rien Rien (I Was Made to Love Her).wav
Длина предзазора 0:00:02.11
Пиковый уровень 98.9 % Скорость извлечения 3.6 X Качество трека 100.0 % CRC теста 87E5BC1C CRC копии 87E5BC1C Трек не обнаружен в базе AccurateRip Копирование... OK
Трек 5
Имя файла D:\CD RIP\Claude Francois - Integrale 1962-1972\CD4\05 Ma Fille (My Guy).wav
Длина предзазора 0:00:02.08
Пиковый уровень 99.2 % Скорость извлечения 3.5 X Качество трека 100.0 % CRC теста A27349F3 CRC копии A27349F3 Трек не обнаружен в базе AccurateRip Копирование... OK
Трек 6
Имя файла D:\CD RIP\Claude Francois - Integrale 1962-1972\CD4\06 Le Martien (Flowers in the Rain).wav
Длина предзазора 0:00:02.06
Пиковый уровень 99.9 % Скорость извлечения 3.5 X Качество трека 100.0 % CRC теста DD8F0789 CRC копии DD8F0789 Трек не обнаружен в базе AccurateRip Копирование... OK
Трек 7
Имя файла D:\CD RIP\Claude Francois - Integrale 1962-1972\CD4\07 Apres Tout.wav
Длина предзазора 0:00:02.05
Пиковый уровень 98.6 % Скорость извлечения 3.6 X Качество трека 100.0 % CRC теста 1726DA98 CRC копии 1726DA98 Трек не обнаружен в базе AccurateRip Копирование... OK
Трек 8
Имя файла D:\CD RIP\Claude Francois - Integrale 1962-1972\CD4\08 Serre-Moi, Griffe Moi.wav
Длина предзазора 0:00:02.09
Пиковый уровень 99.6 % Скорость извлечения 2.8 X Качество трека 99.9 % CRC теста 3E6943C4 CRC копии 3E6943C4 Трек не обнаружен в базе AccurateRip Копирование... OK
Трек 9
Имя файла D:\CD RIP\Claude Francois - Integrale 1962-1972\CD4\09 Toi tu Voudrais.wav
Длина предзазора 0:00:02.07
Пиковый уровень 99.1 % Скорость извлечения 3.4 X Качество трека 100.0 % CRC теста 82F8BA10 CRC копии 82F8BA10 Трек не обнаружен в базе AccurateRip Копирование... OK
Трек 10
Имя файла D:\CD RIP\Claude Francois - Integrale 1962-1972\CD4\10 Deborah.wav
Длина предзазора 0:00:02.01
Пиковый уровень 99.9 % Скорость извлечения 3.1 X Качество трека 99.9 % CRC теста D145DAF4 CRC копии D145DAF4 Трек не обнаружен в базе AccurateRip Копирование... OK
Трек 11
Имя файла D:\CD RIP\Claude Francois - Integrale 1962-1972\CD4\11 Jacques a Dit (Simon Says).wav
Длина предзазора 0:00:02.10
Пиковый уровень 99.9 % Скорость извлечения 3.6 X Качество трека 100.0 % CRC теста CB82DBFC CRC копии CB82DBFC Трек не обнаружен в базе AccurateRip Копирование... OK
Трек 12
Имя файла D:\CD RIP\Claude Francois - Integrale 1962-1972\CD4\12 Aussi Loin.wav
Длина предзазора 0:00:02.15
Пиковый уровень 100.0 % Скорость извлечения 3.5 X Качество трека 100.0 % CRC теста 1F81B476 CRC копии 1F81B476 Трек не обнаружен в базе AccurateRip Копирование... OK
Трек 13
Имя файла D:\CD RIP\Claude Francois - Integrale 1962-1972\CD4\13 Chante Pleure.wav
Длина предзазора 0:00:02.04
Пиковый уровень 99.5 % Скорость извлечения 3.6 X Качество трека 100.0 % CRC теста 961044BF CRC копии 961044BF Трек не обнаружен в базе AccurateRip Копирование... OK
Трек 14
Имя файла D:\CD RIP\Claude Francois - Integrale 1962-1972\CD4\14 Prends Garde Petite Fille! (Young Girl).wav
Длина предзазора 0:00:02.12
Пиковый уровень 99.4 % Скорость извлечения 3.6 X Качество трека 100.0 % CRC теста E4AC821B CRC копии E4AC821B Трек не обнаружен в базе AccurateRip Копирование... OK
Трек 15
Имя файла D:\CD RIP\Claude Francois - Integrale 1962-1972\CD4\15 Avec la Tete Avec le Coeur.wav
Длина предзазора 0:00:02.06
Пиковый уровень 96.9 % Скорость извлечения 3.7 X Качество трека 100.0 % CRC теста 8032A720 CRC копии 8032A720 Трек не обнаружен в базе AccurateRip Копирование... OK
Трек 16
Имя файла D:\CD RIP\Claude Francois - Integrale 1962-1972\CD4\16 Eloise.wav
Длина предзазора 0:00:01.73
Пиковый уровень 99.9 % Скорость извлечения 3.6 X Качество трека 99.9 % CRC теста 6269514B CRC копии 6269514B Трек не обнаружен в базе AccurateRip Копирование... OK
Трек 17
Имя файла D:\CD RIP\Claude Francois - Integrale 1962-1972\CD4\17 Les Petites Souris.wav
Длина предзазора 0:00:02.17
Пиковый уровень 89.0 % Скорость извлечения 3.6 X Качество трека 100.0 % CRC теста AD26C40A CRC копии AD26C40A Трек не обнаружен в базе AccurateRip Копирование... OK
Трек 18
Имя файла D:\CD RIP\Claude Francois - Integrale 1962-1972\CD4\18 Ne te Fatigue Pas.wav
Длина предзазора 0:00:02.34
Пиковый уровень 99.9 % Скорость извлечения 3.1 X Качество трека 99.9 % CRC теста EE02EAA3 CRC копии EE02EAA3 Трек не обнаружен в базе AccurateRip Копирование... OK
Трек 19
Имя файла D:\CD RIP\Claude Francois - Integrale 1962-1972\CD4\19 Chut Plus un Mot.wav
Длина предзазора 0:00:02.15
Пиковый уровень 98.9 % Скорость извлечения 3.4 X Качество трека 100.0 % CRC теста C12A96B3 CRC копии C12A96B3 Трек не обнаружен в базе AccurateRip Копирование... OK
Трек 20
Имя файла D:\CD RIP\Claude Francois - Integrale 1962-1972\CD4\20 Reste (Begin).wav
Длина предзазора 0:00:02.09
Пиковый уровень 100.0 % Скорость извлечения 3.5 X Качество трека 100.0 % CRC теста F580645E CRC копии F580645E Трек не обнаружен в базе AccurateRip Копирование... OK
Трек 21
Имя файла D:\CD RIP\Claude Francois - Integrale 1962-1972\CD4\21 Dans Les Orphelinats.wav
Длина предзазора 0:00:02.04
Пиковый уровень 99.9 % Скорость извлечения 3.6 X Качество трека 100.0 % CRC теста F6CF5312 CRC копии F6CF5312 Трек не обнаружен в базе AccurateRip Копирование... OK
Трек 22
Имя файла D:\CD RIP\Claude Francois - Integrale 1962-1972\CD4\22 Les Majorettes.wav
Длина предзазора 0:00:02.09
Пиковый уровень 99.9 % Скорость извлечения 3.6 X Качество трека 100.0 % CRC теста 1E2BC208 CRC копии 1E2BC208 Трек не обнаружен в базе AccurateRip Копирование... OK
Трек 23
Имя файла D:\CD RIP\Claude Francois - Integrale 1962-1972\CD4\23 Le Magicien.wav
Длина предзазора 0:00:02.11
Пиковый уровень 99.7 % Скорость извлечения 3.5 X Качество трека 100.0 % CRC теста D0689449 CRC копии D0689449 Трек не обнаружен в базе AccurateRip Копирование... OK
Трек 24
Имя файла D:\CD RIP\Claude Francois - Integrale 1962-1972\CD4\24 Tu N'as Pas Toujours Dit Ca.wav
Длина предзазора 0:00:02.11
Пиковый уровень 99.9 % Скорость извлечения 3.6 X Качество трека 100.0 % CRC теста 7956CE95 CRC копии 7956CE95 Трек не обнаружен в базе AccurateRip Копирование... OK
Трек 25
Имя файла D:\CD RIP\Claude Francois - Integrale 1962-1972\CD4\25 Monsieur le Businessman.wav
Длина предзазора 0:00:02.11
Пиковый уровень 99.9 % Скорость извлечения 3.1 X Качество трека 99.9 % CRC теста 07A5E6AB CRC копии 07A5E6AB Трек не обнаружен в базе AccurateRip Копирование... OK
Ни одного трека нет в базе AccurateRip
Ошибок не произошло
Конец отчёта
---- CUETools DB Plugin V2.1.3
[CTDB TOCID: usf3GL4jnu2TVZTNOwp3F9Evf00-] found, Submit result: usf3GL4jnu2TVZTNOwp3F9Evf00- has been confirmed[cd28a512] (1/1) Accurately ripped
==== Контрольная сумма отчёта 11A51F59B827774F65B52CE6A3D3A90FB4D235018606B151E9486BFBE43F343D ====CD5:Exact Audio Copy V1.0 beta 3 from 29. August 2011
Отчёт EAC об извлечении, выполненном 12. марта 2013, 20:27
Claude Francois / Integrale 1962-1972 CD5
Дисковод: TOSHIBA DVD-ROM SD-R1312 Adapter: 0 ID: 1
Режим чтения : ДостоверностьИспользование точного потока : ДаОтключение кэша аудио : ДаИспользование указателей C2 : Нет
Коррекция смещения при чтении : 116Способность читать области Lead-in и Lead-out : НетЗаполнение пропущенных сэмплов тишиной : ДаУдаление блоков с тишиной в начале и конце : НетПри вычислениях CRC использовались нулевые сэмплы : ДаИнтерфейс : Встроенный Win32-интерфейс для Win NT/2000Обработка зазоров : Добавлено к предыдущему треку
Выходной формат : Пользовательский кодировщикВыбранный битрейт : 768 kBit/sКачество : ВысокийДобавление ID3-тега : НетУтилита сжатия : D:\Soft_Drivers\EAC\Flac\flac.exeДополнительные параметры : -V -8 -T "Date=%year%" -T "Genre=%genre%" %source%
TOC извлечённого CD
Трек | Старт | Длительность | Начальный сектор | Конечный сектор --------------------------------------------------------------------- 1 | 0:00.00 | 2:29.12 | 0 | 11186 2 | 2:29.12 | 3:12.14 | 11187 | 25600 3 | 5:41.26 | 3:29.14 | 25601 | 41289 4 | 9:10.40 | 3:28.47 | 41290 | 56936 5 | 12:39.12 | 3:01.43 | 56937 | 70554 6 | 15:40.55 | 2:52.09 | 70555 | 83463 7 | 18:32.64 | 2:44.69 | 83464 | 95832 8 | 21:17.58 | 2:59.72 | 95833 | 109329 9 | 24:17.55 | 3:05.56 | 109330 | 123260 10 | 27:23.36 | 3:19.49 | 123261 | 138234 11 | 30:43.10 | 3:07.01 | 138235 | 152260 12 | 33:50.11 | 3:15.61 | 152261 | 166946 13 | 37:05.72 | 3:22.36 | 166947 | 182132 14 | 40:28.33 | 2:48.06 | 182133 | 194738 15 | 43:16.39 | 3:23.58 | 194739 | 210021 16 | 46:40.22 | 2:54.71 | 210022 | 223142 17 | 49:35.18 | 2:57.35 | 223143 | 236452 18 | 52:32.53 | 3:03.03 | 236453 | 250180 19 | 55:35.56 | 3:01.67 | 250181 | 263822 20 | 58:37.48 | 2:43.07 | 263823 | 276054 21 | 61:20.55 | 3:07.48 | 276055 | 290127 22 | 64:28.28 | 2:33.15 | 290128 | 301617 23 | 67:01.43 | 3:02.32 | 301618 | 315299 24 | 70:04.00 | 3:29.13 | 315300 | 330987 25 | 73:33.13 | 2:32.61 | 330988 | 342448
Трек 1
Имя файла D:\CD RIP\Claude Francois - Integrale 1962-1972\CD5\01 Tout Eclate Tout Explose (Love Explosion).wav
Длина предзазора 0:00:02.00
Пиковый уровень 99.3 % Скорость извлечения 3.4 X Качество трека 100.0 % CRC теста 5D71597D CRC копии 5D71597D Трек не обнаружен в базе AccurateRip Копирование... OK
Трек 2
Имя файла D:\CD RIP\Claude Francois - Integrale 1962-1972\CD5\02 Un Monde de Musique.wav
Длина предзазора 0:00:02.00
Пиковый уровень 99.9 % Скорость извлечения 3.7 X Качество трека 100.0 % CRC теста F8DC2C66 CRC копии F8DC2C66 Трек не обнаружен в базе AccurateRip Копирование... OK
Трек 3
Имя файла D:\CD RIP\Claude Francois - Integrale 1962-1972\CD5\03 Reveries (Daydream).wav
Длина предзазора 0:00:02.04
Пиковый уровень 99.5 % Скорость извлечения 3.7 X Качество трека 100.0 % CRC теста 8FF52C8A CRC копии 8FF52C8A Трек не обнаружен в базе AccurateRip Копирование... OK
Трек 4
Имя файла D:\CD RIP\Claude Francois - Integrale 1962-1972\CD5\04 Une Petite Fille Aux Yeux Rouges.wav
Длина предзазора 0:00:02.10
Пиковый уровень 88.8 % Скорость извлечения 3.7 X Качество трека 100.0 % CRC теста 3F75A123 CRC копии 3F75A123 Трек не обнаружен в базе AccurateRip Копирование... OK
Трек 5
Имя файла D:\CD RIP\Claude Francois - Integrale 1962-1972\CD5\05 Un Jour uo L'autre.wav
Длина предзазора 0:00:02.09
Пиковый уровень 98.2 % Скорость извлечения 3.1 X Качество трека 99.9 % CRC теста C976C998 CRC копии C976C998 Трек не обнаружен в базе AccurateRip Копирование... OK
Трек 6
Имя файла D:\CD RIP\Claude Francois - Integrale 1962-1972\CD5\06 Le Temps Que J'arrive a Marseille (By the Time I Get to Phoenix).wav
Длина предзазора 0:00:02.06
Пиковый уровень 99.7 % Скорость извлечения 3.6 X Качество трека 100.0 % CRC теста AD8A965B CRC копии AD8A965B Трек не обнаружен в базе AccurateRip Копирование... OK
Трек 7
Имя файла D:\CD RIP\Claude Francois - Integrale 1962-1972\CD5\07 Les Moulins de Mon Coeur.wav
Длина предзазора 0:00:02.05
Пиковый уровень 99.8 % Скорость извлечения 3.6 X Качество трека 100.0 % CRC теста AF178686 CRC копии AF178686 Трек не обнаружен в базе AccurateRip Копирование... OK
Трек 8
Имя файла D:\CD RIP\Claude Francois - Integrale 1962-1972\CD5\08 Cherche (Show Me).wav
Длина предзазора 0:00:02.03
Пиковый уровень 99.7 % Скорость извлечения 3.6 X Качество трека 100.0 % CRC теста 7FC510B3 CRC копии 7FC510B3 Трек не обнаружен в базе AccurateRip Копирование... OK
Трек 9
Имя файла D:\CD RIP\Claude Francois - Integrale 1962-1972\CD5\09 Mon Coeur Est Une Maison Vide.wav
Длина предзазора 0:00:02.00
Пиковый уровень 99.5 % Скорость извлечения 3.7 X Качество трека 100.0 % CRC теста 3C30D97F CRC копии 3C30D97F Трек не обнаружен в базе AccurateRip Копирование... OK
Трек 10
Имя файла D:\CD RIP\Claude Francois - Integrale 1962-1972\CD5\10 Jeu Dangereux (Games People Play).wav
Длина предзазора 0:00:02.04
Пиковый уровень 99.5 % Скорость извлечения 3.6 X Качество трека 100.0 % CRC теста 7A1C3302 CRC копии 7A1C3302 Трек не обнаружен в базе AccurateRip Копирование... OK
Трек 11
Имя файла D:\CD RIP\Claude Francois - Integrale 1962-1972\CD5\11 Comme Les Autres.wav
Длина предзазора 0:00:02.08
Пиковый уровень 99.5 % Скорость извлечения 3.5 X Качество трека 100.0 % CRC теста 290C55D9 CRC копии 290C55D9 Трек не обнаружен в базе AccurateRip Копирование... OK
Трек 12
Имя файла D:\CD RIP\Claude Francois - Integrale 1962-1972\CD5\12 Ou tu Veux Quand tu Veux.wav
Длина предзазора 0:00:02.12
Пиковый уровень 99.1 % Скорость извлечения 3.6 X Качество трека 100.0 % CRC теста F6B78D6D CRC копии F6B78D6D Трек не обнаружен в базе AccurateRip Копирование... OK
Трек 13
Имя файла D:\CD RIP\Claude Francois - Integrale 1962-1972\CD5\13 Roule....wav
Длина предзазора 0:00:02.05
Пиковый уровень 99.2 % Скорость извлечения 3.1 X Качество трека 99.9 % CRC теста 1768E9FC CRC копии 1768E9FC Трек не обнаружен в базе AccurateRip Копирование... OK
Трек 14
Имя файла D:\CD RIP\Claude Francois - Integrale 1962-1972\CD5\14 Chaque Jour a la Meme Heure.wav
Длина предзазора 0:00:02.18
Пиковый уровень 99.5 % Скорость извлечения 3.4 X Качество трека 100.0 % CRC теста 29B717EB CRC копии 29B717EB Трек не обнаружен в базе AccurateRip Копирование... OK
Трек 15
Имя файла D:\CD RIP\Claude Francois - Integrale 1962-1972\CD5\15 Meme si Demain.wav
Длина предзазора 0:00:02.14
Пиковый уровень 99.9 % Скорость извлечения 3.6 X Качество трека 100.0 % CRC теста AE9559A9 CRC копии AE9559A9 Трек не обнаружен в базе AccurateRip Копирование... OK
Трек 16
Имя файла D:\CD RIP\Claude Francois - Integrale 1962-1972\CD5\16 Petit Jesus.wav
Длина предзазора 0:00:02.13
Пиковый уровень 98.9 % Скорость извлечения 2.9 X Качество трека 99.9 % CRC теста 86638F48 CRC копии 86638F48 Трек не обнаружен в базе AccurateRip Копирование... OK
Трек 17
Имя файла D:\CD RIP\Claude Francois - Integrale 1962-1972\CD5\17 Les Ballons Rouges.wav
Длина предзазора 0:00:02.07
Пиковый уровень 99.3 % Скорость извлечения 3.5 X Качество трека 100.0 % CRC теста BB981296 CRC копии BB981296 Трек не обнаружен в базе AccurateRip Копирование... OK
Трек 18
Имя файла D:\CD RIP\Claude Francois - Integrale 1962-1972\CD5\18 Douce Candy (Sugar Sugar).wav
Длина предзазора 0:00:02.05
Пиковый уровень 99.8 % Скорость извлечения 3.5 X Качество трека 100.0 % CRC теста E6E140D2 CRC копии E6E140D2 Трек не обнаружен в базе AccurateRip Копирование... OK
Трек 19
Имя файла D:\CD RIP\Claude Francois - Integrale 1962-1972\CD5\19 Menteur ou Cruel.wav
Длина предзазора 0:00:02.08
Пиковый уровень 99.0 % Скорость извлечения 3.0 X Качество трека 99.9 % CRC теста E68B325B CRC копии E68B325B Трек не обнаружен в базе AccurateRip Копирование... OK
Трек 20
Имя файла D:\CD RIP\Claude Francois - Integrale 1962-1972\CD5\20 Tu Serais Toute a Moi (I'm Gonna Make You Mine).wav
Длина предзазора 0:00:02.04
Пиковый уровень 99.5 % Скорость извлечения 3.4 X Качество трека 100.0 % CRC теста FDB9DA99 CRC копии FDB9DA99 Трек не обнаружен в базе AccurateRip Копирование... OK
Трек 21
Имя файла D:\CD RIP\Claude Francois - Integrale 1962-1972\CD5\21 Vivre Que C'est Bon (Viva Booy Joe).wav
Длина предзазора 0:00:02.05
Пиковый уровень 99.1 % Скорость извлечения 3.5 X Качество трека 100.0 % CRC теста 17728D26 CRC копии 17728D26 Трек не обнаружен в базе AccurateRip Копирование... OK
Трек 22
Имя файла D:\CD RIP\Claude Francois - Integrale 1962-1972\CD5\22 Le Pantin.wav
Длина предзазора 0:00:02.12
Пиковый уровень 99.5 % Скорость извлечения 3.4 X Качество трека 100.0 % CRC теста 9FA99519 CRC копии 9FA99519 Трек не обнаружен в базе AccurateRip Копирование... OK
Трек 23
Имя файла D:\CD RIP\Claude Francois - Integrale 1962-1972\CD5\23 Une Petite Larme M'a Trahi (Little Bitty Bear).wav
Длина предзазора 0:00:02.00
Пиковый уровень 99.8 % Скорость извлечения 3.5 X Качество трека 100.0 % CRC теста 7EF87C73 CRC копии 7EF87C73 Трек не обнаружен в базе AccurateRip Копирование... OK
Трек 24
Имя файла D:\CD RIP\Claude Francois - Integrale 1962-1972\CD5\24 Il Reste Toujours.wav
Длина предзазора 0:00:02.11
Пиковый уровень 99.9 % Скорость извлечения 3.1 X Качество трека 99.9 % CRC теста EEBD8323 CRC копии EEBD8323 Трек не обнаружен в базе AccurateRip Копирование... OK
Трек 25
Имя файла D:\CD RIP\Claude Francois - Integrale 1962-1972\CD5\25 Un Homme Libre.wav
Длина предзазора 0:00:02.12
Пиковый уровень 99.8 % Скорость извлечения 3.4 X Качество трека 100.0 % CRC теста 5355B083 CRC копии 5355B083 Трек не обнаружен в базе AccurateRip Копирование... OK
Ни одного трека нет в базе AccurateRip
Ошибок не произошло
Конец отчёта
---- CUETools DB Plugin V2.1.3
[CTDB TOCID: 9PY_FZ5VnTUDPy5IyLMm5PuWCno-] found, Submit result: 9PY_FZ5VnTUDPy5IyLMm5PuWCno- has been confirmed[4fdfa22a] (1/1) Accurately ripped
==== Контрольная сумма отчёта 5BCB264605E0B06CD4DCE473289F4E874392DDBBBDEBB93998914A8EA1D99231 ====CD6:Exact Audio Copy V1.0 beta 3 from 29. August 2011
Отчёт EAC об извлечении, выполненном 14. марта 2013, 20:19
Claude Francois / Integrale 1962-1972 CD6
Дисковод: TOSHIBA DVD-ROM SD-R1312 Adapter: 0 ID: 1
Режим чтения : ДостоверностьИспользование точного потока : ДаОтключение кэша аудио : ДаИспользование указателей C2 : Нет
Коррекция смещения при чтении : 116Способность читать области Lead-in и Lead-out : НетЗаполнение пропущенных сэмплов тишиной : ДаУдаление блоков с тишиной в начале и конце : НетПри вычислениях CRC использовались нулевые сэмплы : ДаИнтерфейс : Встроенный Win32-интерфейс для Win NT/2000Обработка зазоров : Добавлено к предыдущему треку
Выходной формат : Пользовательский кодировщикВыбранный битрейт : 768 kBit/sКачество : ВысокийДобавление ID3-тега : НетУтилита сжатия : D:\Soft_Drivers\EAC\Flac\flac.exeДополнительные параметры : -V -8 -T "Date=%year%" -T "Genre=%genre%" %source%
TOC извлечённого CD
Трек | Старт | Длительность | Начальный сектор | Конечный сектор --------------------------------------------------------------------- 1 | 0:00.00 | 2:40.27 | 0 | 12026 2 | 2:40.27 | 3:08.27 | 12027 | 26153 3 | 5:48.54 | 2:47.23 | 26154 | 38701 4 | 8:36.02 | 3:12.65 | 38702 | 53166 5 | 11:48.67 | 3:16.50 | 53167 | 67916 6 | 15:05.42 | 2:36.26 | 67917 | 79642 7 | 17:41.68 | 2:34.42 | 79643 | 91234 8 | 20:16.35 | 2:36.73 | 91235 | 103007 9 | 22:53.33 | 2:53.19 | 103008 | 116001 10 | 25:46.52 | 1:48.69 | 116002 | 124170 11 | 27:35.46 | 2:13.50 | 124171 | 134195 12 | 29:49.21 | 2:32.55 | 134196 | 145650 13 | 32:22.01 | 3:12.39 | 145651 | 160089 14 | 35:34.40 | 2:36.55 | 160090 | 171844 15 | 38:11.20 | 3:32.17 | 171845 | 187761 16 | 41:43.37 | 2:14.52 | 187762 | 197863 17 | 43:58.14 | 2:18.15 | 197864 | 208228 18 | 46:16.29 | 3:49.68 | 208229 | 225471 19 | 50:06.22 | 2:38.15 | 225472 | 237336
Трек 1
Имя файла D:\CD RIP\Claude Francois - Integrale 1962-1972\CD6\01 Diggy Liggy Lai et Diggy Liggy Lo (Diggy Liggy Lo).wav
Длина предзазора 0:00:02.00
Пиковый уровень 99.9 % Скорость извлечения 2.9 X Качество трека 99.9 % CRC теста 8D766D39 CRC копии 8D766D39 Трек не обнаружен в базе AccurateRip Копирование... OK
Трек 2
Имя файла D:\CD RIP\Claude Francois - Integrale 1962-1972\CD6\02 Parce Que Je T'aime Mon Enfant.wav
Длина предзазора 0:00:02.05
Пиковый уровень 99.9 % Скорость извлечения 3.6 X Качество трека 100.0 % CRC теста 62D85E1D CRC копии 62D85E1D Трек не обнаружен в базе AccurateRip Копирование... OK
Трек 3
Имя файла D:\CD RIP\Claude Francois - Integrale 1962-1972\CD6\03 Le Monde Est Grand Les Gens Sont Beaux (Wonderful World Beautiful People).wav
Длина предзазора 0:00:02.01
Пиковый уровень 99.9 % Скорость извлечения 3.0 X Качество трека 99.9 % CRC теста 9043F046 CRC копии 9043F046 Трек не обнаружен в базе AccurateRip Копирование... OK
Трек 4
Имя файла D:\CD RIP\Claude Francois - Integrale 1962-1972\CD6\04 Olivier.wav
Длина предзазора 0:00:02.04
Пиковый уровень 89.0 % Скорость извлечения 3.2 X Качество трека 99.9 % CRC теста C8BD0108 CRC копии C8BD0108 Трек не обнаружен в базе AccurateRip Копирование... OK
Трек 5
Имя файла D:\CD RIP\Claude Francois - Integrale 1962-1972\CD6\05 Le Dragon Magique (Puff The Magic Dragon).wav
Длина предзазора 0:00:02.01
Пиковый уровень 99.9 % Скорость извлечения 3.7 X Качество трека 100.0 % CRC теста EAC40B9C CRC копии EAC40B9C Трек не обнаружен в базе AccurateRip Копирование... OK
Трек 6
Имя файла D:\CD RIP\Claude Francois - Integrale 1962-1972\CD6\06 C'est Noel Et J'aurai Tout ça.wav
Длина предзазора 0:00:02.10
Пиковый уровень 100.0 % Скорость извлечения 3.0 X Качество трека 99.9 % CRC теста 3E83B43F CRC копии 3E83B43F Трек не обнаружен в базе AccurateRip Копирование... OK
Трек 7
Имя файла D:\CD RIP\Claude Francois - Integrale 1962-1972\CD6\07 C'est De L'eau, C'est Du Vent.wav
Длина предзазора 0:00:02.05
Пиковый уровень 99.8 % Скорость извлечения 2.5 X Качество трека 99.8 % CRC теста BD2C2DA2 CRC копии BD2C2DA2 Трек не обнаружен в базе AccurateRip Копирование... OK
Трек 8
Имя файла D:\CD RIP\Claude Francois - Integrale 1962-1972\CD6\08 Des Roses De Noel.wav
Длина предзазора 0:00:02.07
Пиковый уровень 94.9 % Скорость извлечения 3.5 X Качество трека 100.0 % CRC теста A987853A CRC копии A987853A Трек не обнаружен в базе AccurateRip Копирование... OK
Трек 9
Имя файла D:\CD RIP\Claude Francois - Integrale 1962-1972\CD6\09 E E E. A. A. A..wav
Длина предзазора 0:00:02.04
Пиковый уровень 95.4 % Скорость извлечения 3.1 X Качество трека 99.9 % CRC теста 1BFA1B25 CRC копии 1BFA1B25 Трек не обнаружен в базе AccurateRip Копирование... OK
Трек 10
Имя файла D:\CD RIP\Claude Francois - Integrale 1962-1972\CD6\10 Boum Boum (Gonna Get Along Without You Now).wav
Длина предзазора 0:00:02.10
Пиковый уровень 98.7 % Скорость извлечения 3.2 X Качество трека 100.0 % CRC теста 8A5A08F8 CRC копии 8A5A08F8 Трек не обнаружен в базе AccurateRip Копирование... OK
Трек 11
Имя файла D:\CD RIP\Claude Francois - Integrale 1962-1972\CD6\11 Le Petit Canard.wav
Длина предзазора 0:00:02.06
Пиковый уровень 99.9 % Скорость извлечения 3.4 X Качество трека 100.0 % CRC теста 7D026112 CRC копии 7D026112 Трек не обнаружен в базе AccurateRip Копирование... OK
Трек 12
Имя файла D:\CD RIP\Claude Francois - Integrale 1962-1972\CD6\12 L'histoire Irlandaise.wav
Длина предзазора 0:00:02.09
Пиковый уровень 88.6 % Скорость извлечения 2.9 X Качество трека 99.9 % CRC теста 8692D489 CRC копии 8692D489 Трек не обнаружен в базе AccurateRip Копирование... OK
Трек 13
Имя файла D:\CD RIP\Claude Francois - Integrale 1962-1972\CD6\13 Si Douce a Mon Souvenir.wav
Длина предзазора 0:00:01.73
Пиковый уровень 99.9 % Скорость извлечения 3.7 X Качество трека 100.0 % CRC теста 7733660D CRC копии 7733660D Трек не обнаружен в базе AccurateRip Копирование... OK
Трек 14
Имя файла D:\CD RIP\Claude Francois - Integrale 1962-1972\CD6\14 Aida.wav
Длина предзазора 0:00:01.74
Пиковый уровень 99.4 % Скорость извлечения 3.5 X Качество трека 100.0 % CRC теста 0ED71074 CRC копии 0ED71074 Трек не обнаружен в базе AccurateRip Копирование... OK
Трек 15
Имя файла D:\CD RIP\Claude Francois - Integrale 1962-1972\CD6\15 Le Musee De Ma Vie.wav
Длина предзазора 0:00:02.06
Пиковый уровень 99.9 % Скорость извлечения 3.7 X Качество трека 100.0 % CRC теста 52098B7E CRC копии 52098B7E Трек не обнаружен в базе AccurateRip Копирование... OK
Трек 16
Имя файла D:\CD RIP\Claude Francois - Integrale 1962-1972\CD6\16 L'anneau Dans La Riviere.wav
Длина предзазора 0:00:02.03
Пиковый уровень 99.4 % Скорость извлечения 3.4 X Качество трека 100.0 % CRC теста 8A857816 CRC копии 8A857816 Трек не обнаружен в базе AccurateRip Копирование... OK
Трек 17
Имя файла D:\CD RIP\Claude Francois - Integrale 1962-1972\CD6\17 Vivre Au Soleil.wav
Длина предзазора 0:00:02.17
Пиковый уровень 99.8 % Скорость извлечения 3.4 X Качество трека 100.0 % CRC теста 01F27CF9 CRC копии 01F27CF9 Трек не обнаружен в базе AccurateRip Копирование... OK
Трек 18
Имя файла D:\CD RIP\Claude Francois - Integrale 1962-1972\CD6\18 C'est Un Depart.wav
Длина предзазора 0:00:02.05
Пиковый уровень 99.1 % Скорость извлечения 3.7 X Качество трека 100.0 % CRC теста C79554D5 CRC копии C79554D5 Трек не обнаружен в базе AccurateRip Копирование... OK
Трек 19
Имя файла D:\CD RIP\Claude Francois - Integrale 1962-1972\CD6\19 Jamais Un Amour (Baby Take Me in Your Arms).wav
Длина предзазора 0:00:02.08
Пиковый уровень 100.0 % Скорость извлечения 3.5 X Качество трека 100.0 % CRC теста 6F4B6C30 CRC копии 6F4B6C30 Трек не обнаружен в базе AccurateRip Копирование... OK
Ни одного трека нет в базе AccurateRip
Ошибок не произошло
Конец отчёта
---- CUETools DB Plugin V2.1.3
[CTDB TOCID: _1XYrjyWNHzotUd0nDC.ES_S2n4-] found, Submit result: _1XYrjyWNHzotUd0nDC.ES_S2n4- has been confirmed[b22b972a] (1/1) Accurately ripped
==== Контрольная сумма отчёта 4B9CE0825FCF4D1FC1BE47A206D130E8E84ADBBF3370961E0728987A51B345CA ====CD7:Exact Audio Copy V1.0 beta 3 from 29. August 2011
Отчёт EAC об извлечении, выполненном 15. марта 2013, 20:51
Claude Francois / Integrale 1962-1972 CD7
Дисковод: TOSHIBA DVD-ROM SD-R1312 Adapter: 0 ID: 1
Режим чтения : ДостоверностьИспользование точного потока : ДаОтключение кэша аудио : ДаИспользование указателей C2 : Нет
Коррекция смещения при чтении : 116Способность читать области Lead-in и Lead-out : НетЗаполнение пропущенных сэмплов тишиной : ДаУдаление блоков с тишиной в начале и конце : НетПри вычислениях CRC использовались нулевые сэмплы : ДаИнтерфейс : Встроенный Win32-интерфейс для Win NT/2000Обработка зазоров : Добавлено к предыдущему треку
Выходной формат : Пользовательский кодировщикВыбранный битрейт : 768 kBit/sКачество : ВысокийДобавление ID3-тега : НетУтилита сжатия : D:\Soft_Drivers\EAC\Flac\flac.exeДополнительные параметры : -V -8 -T "Date=%year%" -T "Genre=%genre%" %source%
TOC извлечённого CD
Трек | Старт | Длительность | Начальный сектор | Конечный сектор --------------------------------------------------------------------- 1 | 0:00.00 | 3:34.41 | 0 | 16090 2 | 3:34.41 | 1:42.15 | 16091 | 23755 3 | 5:16.56 | 2:38.29 | 23756 | 35634 4 | 7:55.10 | 3:25.17 | 35635 | 51026 5 | 11:20.27 | 2:58.29 | 51027 | 64405 6 | 14:18.56 | 2:58.62 | 64406 | 77817 7 | 17:17.43 | 2:58.22 | 77818 | 91189 8 | 20:15.65 | 3:26.18 | 91190 | 106657 9 | 23:42.08 | 3:26.26 | 106658 | 122133 10 | 27:08.34 | 3:08.44 | 122134 | 136277 11 | 30:17.03 | 2:04.36 | 136278 | 145613 12 | 32:21.39 | 2:52.18 | 145614 | 158531 13 | 35:13.57 | 2:16.45 | 158532 | 168776 14 | 37:30.27 | 3:04.53 | 168777 | 182629 15 | 40:35.05 | 3:20.26 | 182630 | 197655 16 | 43:55.31 | 2:44.45 | 197656 | 210000 17 | 46:40.01 | 2:22.59 | 210001 | 220709 18 | 49:02.60 | 3:19.44 | 220710 | 235678 19 | 52:22.29 | 2:43.39 | 235679 | 247942
Трек 1
Имя файла D:\CD RIP\Claude Francois - Integrale 1962-1972\CD7\01 Fleur Sauvage.wav
Длина предзазора 0:00:02.00
Пиковый уровень 99.9 % Скорость извлечения 3.6 X Качество трека 100.0 % CRC теста BD51F444 CRC копии BD51F444 Трек не обнаружен в базе AccurateRip Копирование... OK
Трек 2
Имя файла D:\CD RIP\Claude Francois - Integrale 1962-1972\CD7\02 Quand Rien Ne Va Plus (Mairzy Doats).wav
Длина предзазора 0:00:02.09
Пиковый уровень 99.9 % Скорость извлечения 3.2 X Качество трека 100.0 % CRC теста EB76C4B8 CRC копии EB76C4B8 Трек не обнаружен в базе AccurateRip Копирование... OK
Трек 3
Имя файла D:\CD RIP\Claude Francois - Integrale 1962-1972\CD7\03 Vous et Moi.wav
Длина предзазора 0:00:02.01
Пиковый уровень 100.0 % Скорость извлечения 2.9 X Качество трека 99.9 % CRC теста 05FCD300 CRC копии 05FCD300 Трек не обнаружен в базе AccurateRip Копирование... OK
Трек 4
Имя файла D:\CD RIP\Claude Francois - Integrale 1962-1972\CD7\04 Je Danse.wav
Длина предзазора 0:00:02.00
Пиковый уровень 100.0 % Скорость извлечения 3.7 X Качество трека 100.0 % CRC теста DAD49565 CRC копии DAD49565 Трек не обнаружен в базе AccurateRip Копирование... OK
Трек 5
Имя файла D:\CD RIP\Claude Francois - Integrale 1962-1972\CD7\05 Ne Pars Pas.wav
Длина предзазора 0:00:01.71
Пиковый уровень 99.9 % Скорость извлечения 3.6 X Качество трека 100.0 % CRC теста 9BBD0E3A CRC копии 9BBD0E3A Трек не обнаружен в базе AccurateRip Копирование... OK
Трек 6
Имя файла D:\CD RIP\Claude Francois - Integrale 1962-1972\CD7\06 C'est La Meme Chanson (It's the Same Old Song).wav
Длина предзазора 0:00:02.00
Пиковый уровень 99.2 % Скорость извлечения 3.6 X Качество трека 100.0 % CRC теста D52FEC0A CRC копии D52FEC0A Трек не обнаружен в базе AccurateRip Копирование... OK
Трек 7
Имя файла D:\CD RIP\Claude Francois - Integrale 1962-1972\CD7\07 Bernadette.wav
Длина предзазора 0:00:02.04
Пиковый уровень 99.5 % Скорость извлечения 3.1 X Качество трека 99.9 % CRC теста 7B0F7FFA CRC копии 7B0F7FFA Трек не обнаружен в базе AccurateRip Копирование... OK
Трек 8
Имя файла D:\CD RIP\Claude Francois - Integrale 1962-1972\CD7\08 Anne-Marie.wav
Длина предзазора 0:00:02.07
Пиковый уровень 100.0 % Скорость извлечения 3.7 X Качество трека 100.0 % CRC теста 5C5A9333 CRC копии 5C5A9333 Трек не обнаружен в базе AccurateRip Копирование... OK
Трек 9
Имя файла D:\CD RIP\Claude Francois - Integrale 1962-1972\CD7\09 Les Anneaux et les Couteaux.wav
Длина предзазора 0:00:02.12
Пиковый уровень 98.9 % Скорость извлечения 3.7 X Качество трека 100.0 % CRC теста 561B7A44 CRC копии 561B7A44 Трек не обнаружен в базе AccurateRip Копирование... OK
Трек 10
Имя файла D:\CD RIP\Claude Francois - Integrale 1962-1972\CD7\10 Et Pourtant le Temps Passe.wav
Длина предзазора 0:00:02.16
Пиковый уровень 99.2 % Скорость извлечения 3.1 X Качество трека 99.9 % CRC теста E4123DCF CRC копии E4123DCF Трек не обнаружен в базе AccurateRip Копирование... OK
Трек 11
Имя файла D:\CD RIP\Claude Francois - Integrale 1962-1972\CD7\11 Les Femmes de France.wav
Длина предзазора 0:00:02.09
Пиковый уровень 98.9 % Скорость извлечения 2.7 X Качество трека 99.9 % CRC теста ADA27924 CRC копии ADA27924 Трек не обнаружен в базе AccurateRip Копирование... OK
Трек 12
Имя файла D:\CD RIP\Claude Francois - Integrale 1962-1972\CD7\12 Je Te Demande Pardon.wav
Длина предзазора 0:00:02.04
Пиковый уровень 97.1 % Скорость извлечения 3.6 X Качество трека 100.0 % CRC теста AF712982 CRC копии AF712982 Трек не обнаружен в базе AccurateRip Копирование... OK
Трек 13
Имя файла D:\CD RIP\Claude Francois - Integrale 1962-1972\CD7\13 Les Ballons et les Billes.wav
Длина предзазора 0:00:02.09
Пиковый уровень 99.6 % Скорость извлечения 3.4 X Качество трека 100.0 % CRC теста 0875B88A CRC копии 0875B88A Трек не обнаружен в базе AccurateRip Копирование... OK
Трек 14
Имя файла D:\CD RIP\Claude Francois - Integrale 1962-1972\CD7\14 Seule une Romance.wav
Длина предзазора 0:00:02.05
Пиковый уровень 96.1 % Скорость извлечения 3.6 X Качество трека 100.0 % CRC теста 36FDB07A CRC копии 36FDB07A Трек не обнаружен в базе AccurateRip Копирование... OK
Трек 15
Имя файла D:\CD RIP\Claude Francois - Integrale 1962-1972\CD7\15 Je Vais Mieux.wav
Длина предзазора 0:00:02.22
Пиковый уровень 95.5 % Скорость извлечения 3.7 X Качество трека 100.0 % CRC теста 0D6E8FFA CRC копии 0D6E8FFA Трек не обнаружен в базе AccurateRip Копирование... OK
Трек 16
Имя файла D:\CD RIP\Claude Francois - Integrale 1962-1972\CD7\16 Reveille-Moi.wav
Длина предзазора 0:00:02.00
Пиковый уровень 98.9 % Скорость извлечения 3.6 X Качество трека 100.0 % CRC теста A9FD5BD2 CRC копии A9FD5BD2 Трек не обнаружен в базе AccurateRip Копирование... OK
Трек 17
Имя файла D:\CD RIP\Claude Francois - Integrale 1962-1972\CD7\17 Hey! Ho! C'est Impossible.wav
Длина предзазора 0:00:02.10
Пиковый уровень 98.8 % Скорость извлечения 3.3 X Качество трека 100.0 % CRC теста B1C77B40 CRC копии B1C77B40 Трек не обнаружен в базе AccurateRip Копирование... OK
Трек 18
Имя файла D:\CD RIP\Claude Francois - Integrale 1962-1972\CD7\18 Il Fait Beau, Il Fait Bon (Freedom Come Freedom Go).wav
Длина предзазора 0:00:02.16
Пиковый уровень 99.2 % Скорость извлечения 3.6 X Качество трека 100.0 % CRC теста 9BC45D03 CRC копии 9BC45D03 Трек не обнаружен в базе AccurateRip Копирование... OK
Трек 19
Имя файла D:\CD RIP\Claude Francois - Integrale 1962-1972\CD7\19 Stop Au Nom De L'amour (Stop In the Name of Love).wav
Длина предзазора 0:00:02.10
Пиковый уровень 99.9 % Скорость извлечения 3.5 X Качество трека 100.0 % CRC теста 4BB0527D CRC копии 4BB0527D Трек не обнаружен в базе AccurateRip Копирование... OK
Ни одного трека нет в базе AccurateRip
Ошибок не произошло
Конец отчёта
---- CUETools DB Plugin V2.1.3
[CTDB TOCID: wFj5DKUpSQI.kCazTSyVGnagUMQ-] found, Submit result: wFj5DKUpSQI.kCazTSyVGnagUMQ- has been confirmed[0d9d5a65] (1/1) Accurately ripped
==== Контрольная сумма отчёта 14C6C14C3E7B90056B9AE265D52822967AED1B2C318B762F5F8EE5F4E0225599 ====CD8:Exact Audio Copy V1.0 beta 3 from 29. August 2011
Отчёт EAC об извлечении, выполненном 15. марта 2013, 21:54
Claude Francois / Integrale 1962-1972 CD8
Дисковод: TOSHIBA DVD-ROM SD-R1312 Adapter: 0 ID: 1
Режим чтения : ДостоверностьИспользование точного потока : ДаОтключение кэша аудио : ДаИспользование указателей C2 : Нет
Коррекция смещения при чтении : 116Способность читать области Lead-in и Lead-out : НетЗаполнение пропущенных сэмплов тишиной : ДаУдаление блоков с тишиной в начале и конце : НетПри вычислениях CRC использовались нулевые сэмплы : ДаИнтерфейс : Встроенный Win32-интерфейс для Win NT/2000Обработка зазоров : Добавлено к предыдущему треку
Выходной формат : Пользовательский кодировщикВыбранный битрейт : 768 kBit/sКачество : ВысокийДобавление ID3-тега : НетУтилита сжатия : D:\Soft_Drivers\EAC\Flac\flac.exeДополнительные параметры : -V -8 -T "Date=%year%" -T "Genre=%genre%" %source%
TOC извлечённого CD
Трек | Старт | Длительность | Начальный сектор | Конечный сектор --------------------------------------------------------------------- 1 | 0:00.00 | 2:57.58 | 0 | 13332 2 | 2:57.58 | 3:04.60 | 13333 | 27192 3 | 6:02.43 | 2:43.38 | 27193 | 39455 4 | 8:46.06 | 3:05.18 | 39456 | 53348 5 | 11:51.24 | 2:51.35 | 53349 | 66208 6 | 14:42.59 | 3:40.61 | 66209 | 82769 7 | 18:23.45 | 2:46.62 | 82770 | 95281 8 | 21:10.32 | 2:28.21 | 95282 | 106402 9 | 23:38.53 | 2:57.60 | 106403 | 119737 10 | 26:36.38 | 4:19.42 | 119738 | 139204 11 | 30:56.05 | 3:42.49 | 139205 | 155903 12 | 34:38.54 | 3:29.29 | 155904 | 171607 13 | 38:08.08 | 3:30.18 | 171608 | 187375 14 | 41:38.26 | 3:05.15 | 187376 | 201265 15 | 44:43.41 | 2:39.06 | 201266 | 213196 16 | 47:22.47 | 2:58.71 | 213197 | 226617 17 | 50:21.43 | 4:46.47 | 226618 | 248114 18 | 55:08.15 | 3:29.30 | 248115 | 263819 19 | 58:37.45 | 2:56.00 | 263820 | 277019 20 | 61:33.45 | 2:46.46 | 277020 | 289515 21 | 64:20.16 | 3:27.11 | 289516 | 305051
Трек 1
Имя файла D:\CD RIP\Claude Francois - Integrale 1962-1972\CD8\01 Un Peu D'amour, Beaucoup de Haine.wav
Длина предзазора 0:00:02.00
Пиковый уровень 100.0 % Скорость извлечения 3.6 X Качество трека 100.0 % CRC теста 677D0B05 CRC копии 677D0B05 Трек не обнаружен в базе AccurateRip Копирование... OK
Трек 2
Имя файла D:\CD RIP\Claude Francois - Integrale 1962-1972\CD8\02 Plus Rien Qu'une Adresse en Commun.wav
Длина предзазора 0:00:02.05
Пиковый уровень 99.9 % Скорость извлечения 3.5 X Качество трека 100.0 % CRC теста 86ECA417 CRC копии 86ECA417 Трек не обнаружен в базе AccurateRip Копирование... OK
Трек 3
Имя файла D:\CD RIP\Claude Francois - Integrale 1962-1972\CD8\03 Comme un Jour Nouveau.wav
Длина предзазора 0:00:02.13
Пиковый уровень 99.9 % Скорость извлечения 3.5 X Качество трека 100.0 % CRC теста BA74EB6D CRC копии BA74EB6D Трек не обнаружен в базе AccurateRip Копирование... OK
Трек 4
Имя файла D:\CD RIP\Claude Francois - Integrale 1962-1972\CD8\04 En Souvenir.wav
Длина предзазора 0:00:02.09
Пиковый уровень 76.9 % Скорость извлечения 3.1 X Качество трека 99.9 % CRC теста A58097BB CRC копии A58097BB Трек не обнаружен в базе AccurateRip Копирование... OK
Трек 5
Имя файла D:\CD RIP\Claude Francois - Integrale 1962-1972\CD8\05 Aime Moi ou Quitte Moi.wav
Длина предзазора 0:00:02.05
Пиковый уровень 100.0 % Скорость извлечения 3.0 X Качество трека 99.9 % CRC теста 74DC9EC2 CRC копии 74DC9EC2 Трек не обнаружен в базе AccurateRip Копирование... OK
Трек 6
Имя файла D:\CD RIP\Claude Francois - Integrale 1962-1972\CD8\06 Combien de Rivieres (River Deep Mountain High).wav
Длина предзазора 0:00:02.11
Пиковый уровень 99.9 % Скорость извлечения 3.7 X Качество трека 100.0 % CRC теста 12D56EC4 CRC копии 12D56EC4 Трек не обнаружен в базе AccurateRip Копирование... OK
Трек 7
Имя файла D:\CD RIP\Claude Francois - Integrale 1962-1972\CD8\07 Donne un Peu de Reve.wav
Длина предзазора 0:00:02.07
Пиковый уровень 99.9 % Скорость извлечения 3.5 X Качество трека 100.0 % CRC теста C00819F7 CRC копии C00819F7 Трек не обнаружен в базе AccurateRip Копирование... OK
Трек 8
Имя файла D:\CD RIP\Claude Francois - Integrale 1962-1972\CD8\08 Et je Cours, je Cours.wav
Длина предзазора 0:00:02.07
Пиковый уровень 99.9 % Скорость извлечения 3.5 X Качество трека 100.0 % CRC теста 2DD98617 CRC копии 2DD98617 Трек не обнаружен в базе AccurateRip Копирование... OK
Трек 9
Имя файла D:\CD RIP\Claude Francois - Integrale 1962-1972\CD8\09 Et je ne Pense Plus a Toi (Chicago).wav
Длина предзазора 0:00:02.11
Пиковый уровень 99.4 % Скорость извлечения 3.6 X Качество трека 100.0 % CRC теста 31C11504 CRC копии 31C11504 Трек не обнаружен в базе AccurateRip Копирование... OK
Трек 10
Имя файла D:\CD RIP\Claude Francois - Integrale 1962-1972\CD8\10 Un Jardin Dans Mon Coeur (You've Got a Friend).wav
Длина предзазора 0:00:02.08
Пиковый уровень 100.0 % Скорость извлечения 3.7 X Качество трека 100.0 % CRC теста 5BD73070 CRC копии 5BD73070 Трек не обнаружен в базе AccurateRip Копирование... OK
Трек 11
Имя файла D:\CD RIP\Claude Francois - Integrale 1962-1972\CD8\11 Y'a le Printemps Qui Chante.wav
Длина предзазора 0:00:02.03
Пиковый уровень 99.7 % Скорость извлечения 3.6 X Качество трека 100.0 % CRC теста 4F7B9878 CRC копии 4F7B9878 Трек не обнаружен в базе AccurateRip Копирование... OK
Трек 12
Имя файла D:\CD RIP\Claude Francois - Integrale 1962-1972\CD8\12 Feu de Paille (American Pie).wav
Длина предзазора 0:00:02.16
Пиковый уровень 99.8 % Скорость извлечения 3.6 X Качество трека 100.0 % CRC теста 00786D2A CRC копии 00786D2A Трек не обнаружен в базе AccurateRip Копирование... OK
Трек 13
Имя файла D:\CD RIP\Claude Francois - Integrale 1962-1972\CD8\13 Pourvu Que je me Souvienne du Soleil.wav
Длина предзазора 0:00:02.05
Пиковый уровень 99.0 % Скорость извлечения 3.7 X Качество трека 100.0 % CRC теста 03CBC563 CRC копии 03CBC563 Трек не обнаружен в базе AccurateRip Копирование... OK
Трек 14
Имя файла D:\CD RIP\Claude Francois - Integrale 1962-1972\CD8\14 Voleurs Bohemiens.wav
Длина предзазора 0:00:02.17
Пиковый уровень 99.2 % Скорость извлечения 3.6 X Качество трека 100.0 % CRC теста C60F2565 CRC копии C60F2565 Трек не обнаружен в базе AccurateRip Копирование... OK
Трек 15
Имя файла D:\CD RIP\Claude Francois - Integrale 1962-1972\CD8\15 Merci, Merci Beaucoup.wav
Длина предзазора 0:00:02.12
Пиковый уровень 99.5 % Скорость извлечения 3.5 X Качество трека 100.0 % CRC теста A39109AB CRC копии A39109AB Трек не обнаружен в базе AccurateRip Копирование... OK
Трек 16
Имя файла D:\CD RIP\Claude Francois - Integrale 1962-1972\CD8\16 Mais C'est Different Deja.wav
Длина предзазора 0:00:02.09
Пиковый уровень 99.8 % Скорость извлечения 3.1 X Качество трека 99.9 % CRC теста 64A8C68B CRC копии 64A8C68B Трек не обнаружен в базе AccurateRip Копирование... OK
Трек 17
Имя файла D:\CD RIP\Claude Francois - Integrale 1962-1972\CD8\17 En Attendant.wav
Длина предзазора 0:00:02.08
Пиковый уровень 99.8 % Скорость извлечения 3.8 X Качество трека 100.0 % CRC теста 46E90CD7 CRC копии 46E90CD7 Трек не обнаружен в базе AccurateRip Копирование... OK
Трек 18
Имя файла D:\CD RIP\Claude Francois - Integrale 1962-1972\CD8\18 Quand L'epicier Ouvre sa Boutique (Sh'diddle dum dom diddle).wav
Длина предзазора 0:00:02.07
Пиковый уровень 99.7 % Скорость извлечения 3.6 X Качество трека 100.0 % CRC теста BD800E7A CRC копии BD800E7A Трек не обнаружен в базе AccurateRip Копирование... OK
Трек 19
Имя файла D:\CD RIP\Claude Francois - Integrale 1962-1972\CD8\19 Je Chante Pour Les Gens Qui S'aiment (Softly Whispering I Love You).wav
Длина предзазора 0:00:02.13
Пиковый уровень 99.6 % Скорость извлечения 3.5 X Качество трека 100.0 % CRC теста 41A02F73 CRC копии 41A02F73 Трек не обнаружен в базе AccurateRip Копирование... OK
Трек 20
Имя файла D:\CD RIP\Claude Francois - Integrale 1962-1972\CD8\20 Elle Est au Bout de la Nuit.wav
Длина предзазора 0:00:02.08
Пиковый уровень 99.8 % Скорость извлечения 2.9 X Качество трека 99.9 % CRC теста 70389333 CRC копии 70389333 Трек не обнаружен в базе AccurateRip Копирование... OK
Трек 21
Имя файла D:\CD RIP\Claude Francois - Integrale 1962-1972\CD8\21 Jesus Christ Superstar (Superstar).wav
Длина предзазора 0:00:02.08
Пиковый уровень 99.0 % Скорость извлечения 3.2 X Качество трека 99.9 % CRC теста 5ABEABDD CRC копии 5ABEABDD Трек не обнаружен в базе AccurateRip Копирование... OK
Ни одного трека нет в базе AccurateRip
Ошибок не произошло
Конец отчёта
---- CUETools DB Plugin V2.1.3
[CTDB TOCID: _UkKvEfKm50dqu_96w8.kFOaFhw-] found, Submit result: _UkKvEfKm50dqu_96w8.kFOaFhw- has been confirmed[59af06e5] (1/1) Accurately ripped
==== Контрольная сумма отчёта 388C126202146E2E11F8FC1143778B809E550A3162AB8D6315A71E999ED8B1BC ====
Доп. информация: Антология творчества Клода Франсуа периода с 1962 по 1972 год.

Для скачивания файла отключите блокировку рекламы и перезагрузите страницу.

disable adblock Как отключить блокировку рекламы?

Скачать по магнет ссылке 3,57 GB 

Войти с помощью:

Загрузка...
Загрузка...


   
Текущее время: 18-Июн 13:32 :: Часовой пояс: UTC ± 0