Andre Hazes / Mamma
Жанр: Dutch Chanson
Страна-производитель диска: The Netherlands
Год издания: 1998
Издатель (лейбл): PolyMedia
Номер по каталогу: 558 579-2
Страна: The Netherlands
Аудиокодек: FLAC (*.flac)
Тип рипа: image+.cue
Битрейт аудио: lossless
Продолжительность: 52'28
Источник (релизер): Own Rip
Наличие сканов в содержимом раздачи: да
Треклист:
01 "Mamma"
02 "Witte rozen"
03 "Met de kinderen naar de kermis"
04 "Waarom"
05 "Een tulp is veel mooier"
06 "Je speelde met mij"
07 "De vlieger"
08 "Ik maak van je leven een sprookje"
09 "Kom terug bij mij"
10 "Kleine verschoppeling"
11 "Ik kan gewoon niet zonder jou"
12 "Twee lippen zo rood"
13 "Eenzame kerst"
14 "Kom naar huis toe mama"
15 "Eleonora"
16 "Het noodlot"

Лог создания рипа

Exact Audio Copy V1.0 beta 3 from 29. August 2011
EAC extraction logfile from 4. November 2013, 19:05
Andre Hazes / Mamma
Used drive : TSSTcorpCDDVDW SE-208AB Adapter: 1 ID: 0
Read mode : SecureUtilize accurate stream : YesDefeat audio cache : YesMake use of C2 pointers : No
Read offset correction : 6Overread into Lead-In and Lead-Out : NoFill up missing offset samples with silence : YesDelete leading and trailing silent blocks : NoNull samples used in CRC calculations : YesUsed interface : Native Win32 interface for Win NT & 2000
Used output format : User Defined EncoderSelected bitrate : 768 kBit/sQuality : HighAdd ID3 tag : NoCommand line compressor : C:\Program Files\Exact Audio Copy\FLAC\FLAC.EXEAdditional command line options : -6 -V -T "ARTIST=%artist%" -T "TITLE=%title%" -T "ALBUM=%albumtitle%" -T "DATE=%year%" -T "TRACKNUMBER=%tracknr%" -T "GENRE=%genre%" -T "COMMENT=%comment%" -T "BAND=%albuminterpret%" -T "ALBUMARTIST=%albuminterpret%" -T "COMPOSER=%composer%" %haslyrics%--tag-from-file=LYRICS="%lyricsfile%"%haslyrics% -T "DISCNUMBER=%cdnumber%" -T "TOTALDISCS=%totalcds%" -T "TOTALTRACKS=%numtracks%" %hascover%--picture="%coverfile%"%hascover% %source% -o %dest%
TOC of the extracted CD
Track | Start | Length | Start sector | End sector --------------------------------------------------------- 1 | 0:00.00 | 4:02.27 | 0 | 18176 2 | 4:02.27 | 4:11.65 | 18177 | 37066 3 | 8:14.17 | 2:16.28 | 37067 | 47294 4 | 10:30.45 | 2:56.02 | 47295 | 60496 5 | 13:26.47 | 2:32.43 | 60497 | 71939 6 | 15:59.15 | 3:05.30 | 71940 | 85844 7 | 19:04.45 | 3:52.47 | 85845 | 103291 8 | 22:57.17 | 3:34.33 | 103292 | 119374 9 | 26:31.50 | 2:51.60 | 119375 | 132259 10 | 29:23.35 | 3:11.50 | 132260 | 146634 11 | 32:35.10 | 2:46.42 | 146635 | 159126 12 | 35:21.52 | 2:53.68 | 159127 | 172169 13 | 38:15.45 | 3:08.35 | 172170 | 186304 14 | 41:24.05 | 3:45.52 | 186305 | 203231 15 | 45:09.57 | 3:19.35 | 203232 | 218191 16 | 48:29.17 | 3:58.53 | 218192 | 236094
Range status and errors
Selected range
Filename L:\04 NAAR ********\Andre Hazes - Mamma.wav
Peak level 100.0 % Extraction speed 1.8 X Range quality 100.0 % Test CRC C8D6F672 Copy CRC C8D6F672 Copy OK
No errors occurred
AccurateRip summary
Track 1 accurately ripped (confidence 1) [0F8C960A] (AR v2)Track 2 accurately ripped (confidence 1) [98C8E417] (AR v2)Track 3 accurately ripped (confidence 1) [0E5B502D] (AR v2)Track 4 accurately ripped (confidence 1) [661DEAFE] (AR v2)Track 5 accurately ripped (confidence 1) [C06E2F91] (AR v2)Track 6 accurately ripped (confidence 1) [0A7AEE2D] (AR v2)Track 7 accurately ripped (confidence 1) [560DC85B] (AR v2)Track 8 accurately ripped (confidence 1) [95A1961F] (AR v2)Track 9 accurately ripped (confidence 1) [75190229] (AR v2)Track 10 accurately ripped (confidence 1) [E83A1D8C] (AR v2)Track 11 accurately ripped (confidence 1) [B533198C] (AR v2)Track 12 accurately ripped (confidence 1) [92617579] (AR v2)Track 13 accurately ripped (confidence 1) [031DA8AF] (AR v2)Track 14 accurately ripped (confidence 1) [2DCC1D87] (AR v2)Track 15 accurately ripped (confidence 1) [81EFEA07] (AR v2)Track 16 accurately ripped (confidence 1) [BB9E6A2D] (AR v2)
All tracks accurately ripped
End of status report
---- CUETools DB Plugin V2.1.3
[CTDB TOCID: N83bD.bAXM.9BhcxRiwPeg8_dGY-] disk not present in database, Submit result: N83bD.bAXM.9BhcxRiwPeg8_dGY- has been uploaded
==== Log checksum 830540EFC4748AACB054B6C4FDF734574CD926D523D39127EDD8D9DDD9660DC1 ====

Содержание индексной карты (.CUE)

REM GENRE folkREM DATE 1998REM DISCID ED0C4B10REM COMMENT "ExactAudioCopy v1.0b3"CATALOG 0000000000000PERFORMER "Andre Hazes"TITLE "Mamma"FILE "Andre Hazes - Mamma.flac" WAVE TRACK 01 AUDIO TITLE "Mamma" PERFORMER "Andre Hazes" ISRC NLA307700030 INDEX 01 00:00:00 TRACK 02 AUDIO TITLE "Witte rozen" PERFORMER "Andre Hazes" ISRC NLA307700068 INDEX 00 04:00:40 INDEX 01 04:02:27 TRACK 03 AUDIO TITLE "Met de kinderen naar de kermis" PERFORMER "Andre Hazes" ISRC NLA307700069 INDEX 00 08:12:30 INDEX 01 08:14:17 TRACK 04 AUDIO TITLE "Waarom" PERFORMER "Andre Hazes" ISRC NLA307700070 INDEX 00 10:28:58 INDEX 01 10:30:45 TRACK 05 AUDIO TITLE "Een tulp is veel mooier" PERFORMER "Andre Hazes" ISRC NLA307700071 INDEX 00 13:24:60 INDEX 01 13:26:47 TRACK 06 AUDIO TITLE "Je speelde met mij" PERFORMER "Andre Hazes" ISRC NLA307700072 INDEX 00 15:57:28 INDEX 01 15:59:15 TRACK 07 AUDIO TITLE "De vlieger" PERFORMER "Andre Hazes" ISRC NLA307700023 INDEX 00 19:02:58 INDEX 01 19:04:45 TRACK 08 AUDIO TITLE "Ik van je leven een sprookje" PERFORMER "Andre Hazes" ISRC NLA307700073 INDEX 00 22:55:30 INDEX 01 22:57:17 TRACK 09 AUDIO TITLE "Kom terug bij mij" PERFORMER "Andre Hazes" ISRC NLA307700074 INDEX 00 26:29:63 INDEX 01 26:31:50 TRACK 10 AUDIO TITLE "Kleine verschoppeling" PERFORMER "Andre Hazes" ISRC NLA307700075 INDEX 00 29:21:48 INDEX 01 29:23:35 TRACK 11 AUDIO TITLE "Ik kan gewoon niet zonder jou" PERFORMER "Andre Hazes" ISRC NLA307700076 INDEX 00 32:33:23 INDEX 01 32:35:10 TRACK 12 AUDIO TITLE "Twee lippen zo rood" PERFORMER "Andre Hazes" ISRC NLA307700077 INDEX 00 35:19:65 INDEX 01 35:21:52 TRACK 13 AUDIO TITLE "Eenzame kerst" PERFORMER "Andre Hazes" ISRC NLA307700017 INDEX 00 38:13:58 INDEX 01 38:15:45 TRACK 14 AUDIO TITLE "Kom naar huis toe mama" PERFORMER "Andre Hazes" ISRC NLA307900060 INDEX 00 41:22:18 INDEX 01 41:24:05 TRACK 15 AUDIO TITLE "Eleonora" PERFORMER "Andre Hazes" ISRC NLA307900061 INDEX 00 45:07:68 INDEX 01 45:09:57 TRACK 16 AUDIO TITLE "Het noodlot" PERFORMER "Andre Hazes" ISRC NLA307900063 INDEX 00 48:27:30 INDEX 01 48:29:17

To download the file disable ad blocking, and reload the page.

disable adblock How to disable ad blocking?

Download by magnet link 336 MB Download Torrent

Login using:

Загрузка...

Similar topics

(Chanson française) Aldebert - Enfantillages Vol.2 - 2013, MP3, 320 kbps
 135 MB   0 | 0   30-Apr-17 20:01   38
(Pop | Chanson) Eddy de Pretto - Culte - 2018, MP3, 320 kbps
 175 MB   0 | 0   10-Nov-18 16:15   34


   
Current time is: 19-Dec 18:18 :: All times are UTC + 3