Milva / Ich Hab' Keine Angst
Жанр: Folk, Pop, World Music
Страна-производитель диска: Sweden
Год издания: 1981
Издатель (лейбл): Metronome
Номер по каталогу: 811 631-2
Страна: Italy
Аудиокодек: FLAC (*.flac)
Тип рипа: tracks+.cue
Битрейт аудио: lossless
Продолжительность: 41:58
Источник: собственный диск
Наличие сканов в содержимом раздачи: да
1 Ich Hab' Keine Angst
2 Sie Sind Noch Jung
3 Christine
4 Kennst Du Das Auch
5 Er
6 Freunde, Die Keine Sind
7 Ich Bin So Gern Allein
8 Du Hast Es Gut
9 Der Morgen Danach
10 Kinder
11 Da Oben Ist Sein Zimmer

Лог создания рипа

Exact Audio Copy V1.0 beta 3 from 29. August 2011
EAC extraction logfile from 28. October 2013, 19:36
Milva / Ich Hab' Keine Angst
Used drive : SlimtypeDVD A DS8A5SH Adapter: 0 ID: 1
Read mode : SecureUtilize accurate stream : YesDefeat audio cache : YesMake use of C2 pointers : No
Read offset correction : 6Overread into Lead-In and Lead-Out : NoFill up missing offset samples with silence : YesDelete leading and trailing silent blocks : NoNull samples used in CRC calculations : YesUsed interface : Native Win32 interface for Win NT & 2000Gap handling : Appended to previous track
Used output format : User Defined EncoderSelected bitrate : 128 kBit/sQuality : HighAdd ID3 tag : NoCommand line compressor : C:\Program Files (x86)\Exact Audio Copy\flac.exeAdditional command line options : -V -8 -T "Genre=%genre%" -T "Artist=%artist%" -T "Title=%title%" -T "Album=%albumtitle%" -T "Date=%year%" -T "Tracknumber=%tracknr%" -T "Comment=%comment%" %source%
TOC of the extracted CD
Track | Start | Length | Start sector | End sector --------------------------------------------------------- 1 | 0:00.32 | 4:16.55 | 32 | 19286 2 | 4:17.12 | 4:49.28 | 19287 | 40989 3 | 9:06.40 | 4:26.55 | 40990 | 60994 4 | 13:33.20 | 3:42.70 | 60995 | 77714 5 | 17:16.15 | 5:40.22 | 77715 | 103236 6 | 22:56.37 | 5:56.30 | 103237 | 129966 7 | 28:52.67 | 3:01.23 | 129967 | 143564 8 | 31:54.15 | 3:07.10 | 143565 | 157599 9 | 35:01.25 | 2:36.32 | 157600 | 169331 10 | 37:37.57 | 3:05.40 | 169332 | 183246 11 | 40:43.22 | 1:20.40 | 183247 | 189286
Track 1
Filename D:\Ich Hab' Keine Angst\01 - Ich Hab' Keine Angst.wav
Pre-gap length 0:00:02.32
Peak level 90.9 % Extraction speed 1.0 X Track quality 100.0 % Test CRC 094E9768 Copy CRC 094E9768 Accurately ripped (confidence 7) [2A95112C] (AR v2) Copy OK
Track 2
Filename D:\Ich Hab' Keine Angst\02 - Sie Sind Noch Jung.wav
Pre-gap length 0:00:03.00
Peak level 89.1 % Extraction speed 1.2 X Track quality 100.0 % Test CRC EA7115E6 Copy CRC EA7115E6 Accurately ripped (confidence 7) [9764ACA6] (AR v2) Copy OK
Track 3
Filename D:\Ich Hab' Keine Angst\03 - Christine.wav
Pre-gap length 0:00:03.01
Peak level 92.8 % Extraction speed 1.3 X Track quality 100.0 % Test CRC 62E68F5C Copy CRC 62E68F5C Accurately ripped (confidence 7) [1E5582BE] (AR v2) Copy OK
Track 4
Filename D:\Ich Hab' Keine Angst\04 - Kennst Du Das Auch.wav
Pre-gap length 0:00:03.01
Peak level 88.6 % Extraction speed 1.4 X Track quality 100.0 % Test CRC 416D47AD Copy CRC 416D47AD Accurately ripped (confidence 7) [2623B936] (AR v2) Copy OK
Track 5
Filename D:\Ich Hab' Keine Angst\05 - Er.wav
Pre-gap length 0:00:03.00
Peak level 95.5 % Extraction speed 1.4 X Track quality 99.9 % Test CRC C30E28FF Copy CRC C30E28FF Accurately ripped (confidence 7) [62080881] (AR v2) Copy OK
Track 6
Filename D:\Ich Hab' Keine Angst\06 - Freunde, Die Keine Sind.wav
Pre-gap length 0:00:03.00
Peak level 91.1 % Extraction speed 1.7 X Track quality 100.0 % Test CRC F2FA78A6 Copy CRC F2FA78A6 Accurately ripped (confidence 7) [EB9BA49B] (AR v2) Copy OK
Track 7
Filename D:\Ich Hab' Keine Angst\07 - Ich Bin So Gern Allein.wav
Pre-gap length 0:00:03.00
Peak level 79.7 % Extraction speed 1.6 X Track quality 100.0 % Test CRC 5FFE2DC9 Copy CRC 5FFE2DC9 Accurately ripped (confidence 7) [C44E983D] (AR v2) Copy OK
Track 8
Filename D:\Ich Hab' Keine Angst\08 - Du Hast Es Gut.wav
Pre-gap length 0:00:03.01
Peak level 83.8 % Extraction speed 1.7 X Track quality 100.0 % Test CRC 5E12D8A8 Copy CRC 5E12D8A8 Accurately ripped (confidence 7) [9A332BE0] (AR v2) Copy OK
Track 9
Filename D:\Ich Hab' Keine Angst\09 - Der Morgen Danach.wav
Pre-gap length 0:00:03.01
Peak level 67.8 % Extraction speed 1.7 X Track quality 100.0 % Test CRC C658A402 Copy CRC C658A402 Accurately ripped (confidence 7) [302DCFD9] (AR v2) Copy OK
Track 10
Filename D:\Ich Hab' Keine Angst\10 - Kinder.wav
Pre-gap length 0:00:03.00
Peak level 81.3 % Extraction speed 1.8 X Track quality 100.0 % Test CRC 6BC3BF0F Copy CRC 6BC3BF0F Accurately ripped (confidence 7) [4A851F66] (AR v2) Copy OK
Track 11
Filename D:\Ich Hab' Keine Angst\11 - Da Oben Ist Sein Zimmer.wav
Pre-gap length 0:00:03.00
Peak level 70.7 % Extraction speed 1.4 X Track quality 100.0 % Test CRC 870AF494 Copy CRC 870AF494 Accurately ripped (confidence 7) [D5787CD1] (AR v2) Copy OK
All tracks accurately ripped
No errors occurred
End of status report
==== Log checksum 840932800ABD80FD7351A2C217B7B14E50B66DF313BD4617E4A151771F6C3A7C ====

Содержание индексной карты (.CUE)

REM GENRE ChansonREM DATE 1981REM DISCID 9709DB0BREM COMMENT "ExactAudioCopy v1.0b3"CATALOG 0042281163128PERFORMER "Milva"TITLE "Ich Hab' Keine Angst"FILE "01 - Ich Hab' Keine Angst.wav" WAVE TRACK 01 AUDIO TITLE "Ich Hab' Keine Angst" PERFORMER "Milva" ISRC DEF088100010 PREGAP 00:00:32 INDEX 01 00:00:00 TRACK 02 AUDIO TITLE "Sie Sind Noch Jung" PERFORMER "Milva" ISRC DEF088100020 INDEX 00 04:13:55FILE "02 - Sie Sind Noch Jung.wav" WAVE INDEX 01 00:00:00 TRACK 03 AUDIO TITLE "Christine" PERFORMER "Milva" ISRC DEF088100030 INDEX 00 04:46:27FILE "03 - Christine.wav" WAVE INDEX 01 00:00:00 TRACK 04 AUDIO TITLE "Kennst Du Das Auch" PERFORMER "Milva" ISRC DEF088100040 INDEX 00 04:23:54FILE "04 - Kennst Du Das Auch.wav" WAVE INDEX 01 00:00:00 TRACK 05 AUDIO TITLE "Er" PERFORMER "Milva" ISRC DEF088100050 INDEX 00 03:39:70FILE "05 - Er.wav" WAVE INDEX 01 00:00:00 TRACK 06 AUDIO TITLE "Freunde, Die Keine Sind" PERFORMER "Milva" ISRC DEF088100060 INDEX 00 05:37:22FILE "06 - Freunde, Die Keine Sind.wav" WAVE INDEX 01 00:00:00 TRACK 07 AUDIO TITLE "Ich Bin So Gern Allein" PERFORMER "Milva" ISRC DEF088100070 INDEX 00 05:53:30FILE "07 - Ich Bin So Gern Allein.wav" WAVE INDEX 01 00:00:00 TRACK 08 AUDIO TITLE "Du Hast Es Gut" PERFORMER "Milva" ISRC DEF088100080 INDEX 00 02:58:22FILE "08 - Du Hast Es Gut.wav" WAVE INDEX 01 00:00:00 TRACK 09 AUDIO TITLE "Der Morgen Danach" PERFORMER "Milva" ISRC DEF088100090 INDEX 00 03:04:09FILE "09 - Der Morgen Danach.wav" WAVE INDEX 01 00:00:00 TRACK 10 AUDIO TITLE "Kinder" PERFORMER "Milva" ISRC DEF088100100 INDEX 00 02:33:32FILE "10 - Kinder.wav" WAVE INDEX 01 00:00:00 TRACK 11 AUDIO TITLE "Da Oben Ist Sein Zimmer" PERFORMER "Milva" ISRC DEF088100110 INDEX 00 03:02:40FILE "11 - Da Oben Ist Sein Zimmer.wav" WAVE INDEX 01 00:00:00

To download the file disable ad blocking, and reload the page.

disable adblock How to disable ad blocking?

Download by magnet link 241 MB Download Torrent

Login using:

Similar topics

(Pop, Chanson, Oldie, Schlager) Lys Assia - Lys Assia - 2011, MP3, 320 kbps
 159 MB   0 | 0   13-May-17 22:25   0


   
Current time is: 18-Oct 04:38 :: All times are UTC ± 0