Dalida / Collection (2 CD)- -Жанр: Chanson, Disco
Страна-производитель диска[/b]: France, Germany
Год издания: 1987-1993
Издатель (лейбл): Orlando, Carrere
Номер по каталогу: CA / 801 / 96.460
Страна: France
Аудиокодек: FLAC (*.flac)
Тип рипа: image+.cue
Битрейт аудио: lossless
Продолжительность: 5:00
Источник (релизер): Диски из личной коллекции
Наличие сканов в содержимом раздачи: нет
-Альбомы:

1987 - Pour En Arriver Là

Жанр: Chanson, Disco
Страна-производитель диска: France
Год издания: 1987
Издатель (лейбл): Orlando, Carrere
Номер по каталогу: CA / 801 / 96.460
Страна: France
Аудиокодек: FLAC (*.flac)
Тип рипа: image+.cue
Битрейт аудио: lossless
Продолжительность: 59:02
Источник (релизер): Диск из личной коллекции
Наличие сканов в содержимом раздачи: нет
Треклист:
1 Pour En Arriver Là 3:52
2 Avec Le Temps 4:33
3 Partir Ou Mourir 3:57
4 Lucas 4:10
5 Pour Ne Pas Vivre Seul 3:01
6 Bravo 4:21
7 Voilà Pourquoi Je Chante 5:18
8 L'amour Et Moi 5:03
9 Quand On N'a Que L'amour 2:48
10 A Ma Manière 4:15
11 Mourir Sur Scène 3:29
12 Et La Vie Continuera 3:30
13 Je Suis Malade 4:16
14 Et Tous Ces Regards 6:32

Лог создания рипа

Exact Audio Copy V1.0 beta 3 from 29. August 2011
Отчёт EAC об извлечении, выполненном 29. октября 2013, 23:27
Dalida / Pour en arriver là
Дисковод: ASUS DRW-24F1ST a Adapter: 2 ID: 1
Режим чтения : ДостоверностьИспользование точного потока : ДаОтключение кэша аудио : ДаИспользование указателей C2 : Нет
Коррекция смещения при чтении : 6Способность читать области Lead-in и Lead-out : НетЗаполнение пропущенных сэмплов тишиной : ДаУдаление блоков с тишиной в начале и конце : НетПри вычислениях CRC использовались нулевые сэмплы : ДаИнтерфейс : Встроенный Win32-интерфейс для Win NT/2000
Выходной формат : Пользовательский кодировщикВыбранный битрейт : 768 kBit/sКачество : ВысокийДобавление ID3-тега : НетУтилита сжатия : C:\Program Files\Exact Audio Copy\FLAC\FLAC.EXEДополнительные параметры : -6 -V -T "ARTIST=%artist%" -T "TITLE=%title%" -T "ALBUM=%albumtitle%" -T "DATE=%year%" -T "TRACKNUMBER=%tracknr%" -T "GENRE=%genre%" -T "COMMENT=%comment%" -T "BAND=%albuminterpret%" -T "ALBUMARTIST=%albuminterpret%" -T "COMPOSER=%composer%" %haslyrics%--tag-from-file=LYRICS="%lyricsfile%"%haslyrics% -T "DISCNUMBER=%cdnumber%" -T "TOTALDISCS=%totalcds%" -T "TOTALTRACKS=%numtracks%" %hascover%--picture="%coverfile%"%hascover% %source% -o %dest%
TOC извлечённого CD
Трек | Старт | Длительность | Начальный сектор | Конечный сектор --------------------------------------------------------------------- 1 | 0:00.33 | 3:52.07 | 33 | 17439 2 | 3:52.40 | 4:32.53 | 17440 | 37892 3 | 8:25.18 | 3:56.57 | 37893 | 55649 4 | 12:22.00 | 4:10.03 | 55650 | 74402 5 | 16:32.03 | 3:00.55 | 74403 | 87957 6 | 19:32.58 | 4:20.37 | 87958 | 107494 7 | 23:53.20 | 5:17.55 | 107495 | 131324 8 | 29:11.00 | 5:02.48 | 131325 | 154022 9 | 34:13.48 | 2:47.32 | 154023 | 166579 10 | 37:01.05 | 4:14.35 | 166580 | 185664 11 | 41:15.40 | 3:29.23 | 185665 | 201362 12 | 44:44.63 | 3:29.40 | 201363 | 217077 13 | 48:14.28 | 4:15.50 | 217078 | 236252 14 | 52:30.03 | 6:32.20 | 236253 | 265672
Характеристики диапазона извлечения и сообщения об ошибках
Выбранный диапазон
Имя файла F:\www.********.org\Dalida - Paroles\01 Pour En Arriver La (1987)\Dalida - Pour en arriver là (1987).wav
Пиковый уровень 100.0 % Скорость извлечения 2.3 X Качество диапазона 99.9 % CRC теста D6B896DB CRC копии D6B896DB Копирование... OK
Ошибок не произошло
Конец отчёта
---- CUETools DB Plugin V2.1.3
[CTDB TOCID: Dc28VWt_RxWWY0YqhwKZA7nwLOQ-] disk not present in database, Submit result: discs with pregaps not supported in this protocol version
==== Контрольная сумма отчёта F7193C05CB73D212BB073CD946CFD0335E7A4F589907588896A43F99CB56981C ====

Скриншот спектра частот

1993 - Paroles Qui dansent

Жанр: Chanson, Disco
Страна-производитель диска: Germany
Год издания: 1993
Издатель (лейбл): Orlando, Carrere
Номер по каталогу: 4509 94428-2
Страна: France
Аудиокодек: FLAC (*.flac)
Тип рипа: image+.cue
Битрейт аудио: lossless
Продолжительность: 67:20
Источник (релизер): Диск из личной коллекции
Наличие сканов в содержимом раздачи: нет
Треклист:
1 Laissez-Moi Danser (Monday, Tuesday) 4:54
2 Quelque Part Au Soleil 7:28
3 Kalimba De Luna (Version Française) 5:08
4 Rio Do Brasil (Version Maxi Club) 6:55
5 Confidences Sur La Frequence (Version Maxi Club) 7:01
6 Gigi In Paradisco (Version Maxi Club) 6:16
7 Let Me Dance 6:06
8 Soleil, Soleil 4:07
9 Darla Dirladada (Creation Française Originale) 3:20
10 Lambeth Walk 2:41
11 Ça Me Fait Rever 13:03

Лог создания рипа

Exact Audio Copy V1.0 beta 3 from 29. August 2011
Отчёт EAC об извлечении, выполненном 21. марта 2013, 9:17
Dalida / Paroles Qui Dansent
Дисковод: HL-DT-STDVDRAM GH22NS40 Adapter: 2 ID: 1
Режим чтения : ДостоверностьИспользование точного потока : ДаОтключение кэша аудио : ДаИспользование указателей C2 : Нет
Коррекция смещения при чтении : 667Способность читать области Lead-in и Lead-out : НетЗаполнение пропущенных сэмплов тишиной : ДаУдаление блоков с тишиной в начале и конце : НетПри вычислениях CRC использовались нулевые сэмплы : ДаИнтерфейс : Встроенный Win32-интерфейс для Win NT/2000
Выходной формат : Пользовательский кодировщикВыбранный битрейт : 768 kBit/sКачество : ВысокийДобавление ID3-тега : НетУтилита сжатия : C:\Program Files\Exact Audio Copy\FLAC\FLAC.EXEДополнительные параметры : -6 -V -T "ARTIST=%artist%" -T "TITLE=%title%" -T "ALBUM=%albumtitle%" -T "DATE=%year%" -T "TRACKNUMBER=%tracknr%" -T "GENRE=%genre%" -T "COMMENT=%comment%" -T "BAND=%albuminterpret%" -T "ALBUMARTIST=%albuminterpret%" -T "COMPOSER=%composer%" %haslyrics%--tag-from-file=LYRICS="%lyricsfile%"%haslyrics% -T "DISCNUMBER=%cdnumber%" -T "TOTALDISCS=%totalcds%" -T "TOTALTRACKS=%numtracks%" %hascover%--picture="%coverfile%"%hascover% %source% -o %dest%
TOC извлечённого CD
Трек | Старт | Длительность | Начальный сектор | Конечный сектор --------------------------------------------------------------------- 1 | 0:00.00 | 4:55.52 | 0 | 22176 2 | 4:55.52 | 7:29.73 | 22177 | 55924 3 | 12:25.50 | 5:10.17 | 55925 | 79191 4 | 17:35.67 | 6:56.65 | 79192 | 110456 5 | 24:32.57 | 7:03.35 | 110457 | 142216 6 | 31:36.17 | 6:18.28 | 142217 | 170594 7 | 37:54.45 | 6:08.25 | 170595 | 198219 8 | 44:02.70 | 4:08.32 | 198220 | 216851 9 | 48:11.27 | 3:21.33 | 216852 | 231959 10 | 51:32.60 | 2:43.37 | 231960 | 244221 11 | 54:16.22 | 13:03.25 | 244222 | 302971
Характеристики диапазона извлечения и сообщения об ошибках
Выбранный диапазон
Имя файла I:\www.********.org\Dalida\01 Paroles Qoui Dansent (1993)\Dalida - Paroles Qui Dansent (1993).wav
Пиковый уровень 100.0 % Скорость извлечения 2.1 X Качество диапазона 100.0 % CRC теста 4B4612AD CRC копии 4B4612AD Копирование... OK
Ошибок не произошло
AccurateRip: сводка
Трек 1 отсутствует в базе данныхТрек 2 отсутствует в базе данныхТрек 3 отсутствует в базе данныхТрек 4 отсутствует в базе данныхТрек 5 отсутствует в базе данныхТрек 6 отсутствует в базе данныхТрек 7 отсутствует в базе данныхТрек 8 отсутствует в базе данныхТрек 9 отсутствует в базе данныхТрек 10 отсутствует в базе данныхТрек 11 отсутствует в базе данных
Ни одного трека нет в базе AccurateRip
Конец отчёта
==== Контрольная сумма отчёта 2C419C5CC7E9E7588C8CE4B311FCA2B1D89CFED6B01D34F44DD9F7778E861E97 ====

Скриншот спектра частот

To download the file disable ad blocking, and reload the page.

disable adblock How to disable ad blocking?

Download by magnet link 834 MB Download Torrent

Login using:

Similar topics



   
Current time is: 18-Oct 05:53 :: All times are UTC ± 0