Various Artists - Rolling Stone Rare Trax Vol.60: Allez Pop!
Жанр: Chanson
Страна-производитель диска: Germany
Год издания: 2008
Номер по каталогу: n/a
Страна: 00:37:32
Аудиокодек: FLAC (*.flac)
Тип рипа: image+.cue
Битрейт аудио: lossless
Источник (релизер): avax
Наличие сканов в содержимом раздачи: да
Треклист:
01 Françoiz Breut - L'Étincelle ou la contrainte du feu 3:46
02 Poney Express - Poupée 3:24
03 Julie Delpy - Mr. Unhappy 3:25
04 Brisa Roché - Whistle 3:04
05 Holden - Madrid 4:07
06 Michel Houellebecq - Paris - Dourdan 4:42
07 Pascal Parisot - Le Roi (des Cons) 2:55
08 Marianne Dissard - Cayenne 3:39
09 Colleen - Everyone Alive Wants Answers 3:30
10 Sébastien Tellier - Roche 5:00

Лог создания рипа

Exact Audio Copy V1.0 beta 3 from 29. August 2011
EAC extraction logfile from 14. May 2013, 13:30
RSRT Various / Vol. 60: Allez Pop!
Used drive : PIONEER BD-RW BDR-206 Adapter: 0 ID: 2
Read mode : SecureUtilize accurate stream : YesDefeat audio cache : YesMake use of C2 pointers : No
Read offset correction : 667Overread into Lead-In and Lead-Out : NoFill up missing offset samples with silence : YesDelete leading and trailing silent blocks : NoNull samples used in CRC calculations : YesUsed interface : Native Win32 interface for Win NT & 2000
Used output format : User Defined EncoderSelected bitrate : 1024 kBit/sQuality : HighAdd ID3 tag : YesCommand line compressor : C:\Program Files\FLAC\flac.exeAdditional command line options : -5 -T "Artist=%artist%" -T "Title=%title%" -T "Album=%albumtitle%" -T "Date=%year%" -T "Tracknumber=%tracknr%" -T "Genre=%genre%" %source% -o %dest%
TOC of the extracted CD
Track | Start | Length | Start sector | End sector --------------------------------------------------------- 1 | 0:00.00 | 3:46.02 | 0 | 16951 2 | 3:46.02 | 3:24.08 | 16952 | 32259 3 | 7:10.10 | 3:25.07 | 32260 | 47641 4 | 10:35.17 | 3:03.49 | 47642 | 61415 5 | 13:38.66 | 4:07.16 | 61416 | 79956 6 | 17:46.07 | 4:41.58 | 79957 | 101089 7 | 22:27.65 | 2:55.11 | 101090 | 114225 8 | 25:23.01 | 3:38.72 | 114226 | 130647 9 | 29:01.73 | 3:30.12 | 130648 | 146409 10 | 32:32.10 | 4:59.65 | 146410 | 168899
Range status and errors
Selected range
Filename F:\=== VINYL RIPS ===\=== EAC===\X FRESH RIP\Rare Trax - Vol. 60 - Allez Pop!.wav
Peak level 99.0 % Extraction speed 1.6 X Range quality 100.0 % Copy CRC D32D4CE0 Copy OK
No errors occurred
AccurateRip summary
Track 1 accurately ripped (confidence 3) [98D0DFF6] (AR v2)Track 2 accurately ripped (confidence 3) [31017D58] (AR v2)Track 3 accurately ripped (confidence 3) [E7EE620B] (AR v2)Track 4 accurately ripped (confidence 3) [EFF087CC] (AR v2)Track 5 accurately ripped (confidence 3) [D5117CE9] (AR v2)Track 6 accurately ripped (confidence 3) [A8265F57] (AR v2)Track 7 accurately ripped (confidence 3) [552D61C8] (AR v2)Track 8 accurately ripped (confidence 3) [BC37F40B] (AR v2)Track 9 accurately ripped (confidence 3) [3FB7F1D8] (AR v2)Track 10 accurately ripped (confidence 3) [659A8860] (AR v2)
All tracks accurately ripped
End of status report
---- CUETools DB Plugin V2.1.3
[CTDB TOCID: 7icGKBTyEAHYnQUuUs1zX1jp1sc-] found, Submit result: 7icGKBTyEAHYnQUuUs1zX1jp1sc- has been confirmed[b5a83e1c] (1/1) Accurately ripped
==== Log checksum 2B2EE1C796FDC137D475662FBE49BE3BE35CA2751C2EC437469D658C09B8E7A9 ====

Лог проверки качества

AUDIOCHECKER v2.0 beta (build 457) - by Dester - opdester@freemail.hu~~~~~~~~~~~~~~~~~~~~~~~~~~~~~~~~~~-=== DO NOT EDIT THIS FILE! ===-
Path: ...\VA - RSRT Vol. 60 - Allez Pop! (2008)
1 -=- Rare Trax - Vol. 60 - Allez Pop!.flac -=- CDDA (100%)
232406052

Доп. инфо

CD-приложение к германскому изданию журнала Rolling Stone Magazine

To download the file disable ad blocking, and reload the page.

disable adblock How to disable ad blocking?

Download by magnet link 226 MB Download Torrent

Login using:

Similar topics



   
Current time is: 18-Oct 19:48 :: All times are UTC ± 0