Thomas Fersen / Дискография
Жанр: Chanson française
Страна-производитель диска: France
Год издания: 1993 - 2011
Издатель (лейбл): Tôt ou tard / Warner Music (2007; 2008)
Страна: France
Аудиокодек: FLAC (*.flac)
Тип рипа: tracks
Битрейт аудио: lossless
Источник (релизер): WEB
Наличие сканов в содержимом раздачи: нет

01 Thomas Fersen - Le bal des oiseaux (1993) [FLAC] // 40:31

01 Le Bal des oiseaux
02 Je t'attendais
03 Juillet
04 Tout, tout, tout et plus rien
05 Pour toi mon amour
06 Lofotens
07 La Baston
08 Libertad
09 Ces bouches à nourrir
10 À Dahouët
11 Ne me touche pas
12 Mon pays
13 Allons nous coucher

Лог создания рипа

Exact Audio Copy V0.99 prebeta 4 from 23. January 2008
EAC extraction logfile from 18. January 2009, 2:33
Thomas Fersen / Le bal des oiseaux
Used drive : PHILIPS SPD2412T Adapter: 0 ID: 0
Read mode : SecureUtilize accurate stream : YesDefeat audio cache : YesMake use of C2 pointers : No
Read offset correction : 6Overread into Lead-In and Lead-Out : NoFill up missing offset samples with silence : YesDelete leading and trailing silent blocks : NoNull samples used in CRC calculations : YesUsed interface : Native Win32 interface for Win NT & 2000Gap handling : Appended to previous track
Used output format : User Defined EncoderSelected bitrate : 192 kBit/sQuality : HighAdd ID3 tag : NoCommand line compressor : C:\Program Files\FLAC\flac.exeAdditional command line options : -V -8 -T "artist=%a" -T "title=%t" -T "album=%g" -T "date=%y" -T "tracknumber=%n" -T "genre=%m" %s
TOC of the extracted CD
Track | Start | Length | Start sector | End sector --------------------------------------------------------- 1 | 0:00.00 | 4:53.70 | 0 | 22044 2 | 4:53.70 | 2:27.67 | 22045 | 33136 3 | 7:21.62 | 3:04.60 | 33137 | 46996 4 | 10:26.47 | 3:24.60 | 46997 | 62356 5 | 13:51.32 | 2:27.43 | 62357 | 73424 6 | 16:19.00 | 2:26.25 | 73425 | 84399 7 | 18:45.25 | 2:14.42 | 84400 | 94491 8 | 20:59.67 | 4:23.03 | 94492 | 114219 9 | 25:22.70 | 2:39.17 | 114220 | 126161 10 | 28:02.12 | 1:29.18 | 126162 | 132854 11 | 29:31.30 | 4:03.50 | 132855 | 151129 12 | 33:35.05 | 2:30.45 | 151130 | 162424 13 | 36:05.50 | 4:26.00 | 162425 | 182374
Track 1
Filename E:\uploads\Thomas Fersen - Le bal des oiseaux (flac)\01 - Le bal des oiseaux.wav
Pre-gap length 0:00:02.00
Peak level 93.9 % Track quality 100.0 % Test CRC 8188CF08 Copy CRC 8188CF08 Copy OK
Track 2
Filename E:\uploads\Thomas Fersen - Le bal des oiseaux (flac)\02 - Je t'attendais.wav
Peak level 93.9 % Track quality 100.0 % Test CRC 1275B3D4 Copy CRC 1275B3D4 Copy OK
Track 3
Filename E:\uploads\Thomas Fersen - Le bal des oiseaux (flac)\03 - Juillet.wav
Pre-gap length 0:00:00.82
Peak level 93.9 % Track quality 100.0 % Test CRC E03D6967 Copy CRC E03D6967 Copy OK
Track 4
Filename E:\uploads\Thomas Fersen - Le bal des oiseaux (flac)\04 - Tout, tout, tout et plus rien.wav
Pre-gap length 0:00:01.49
Peak level 99.2 % Track quality 100.0 % Test CRC BB0D9644 Copy CRC BB0D9644 Copy OK
Track 5
Filename E:\uploads\Thomas Fersen - Le bal des oiseaux (flac)\05 - Pour toi mon amour.wav
Peak level 93.9 % Track quality 100.0 % Test CRC D568F4BD Copy CRC D568F4BD Copy OK
Track 6
Filename E:\uploads\Thomas Fersen - Le bal des oiseaux (flac)\06 - Lofotens.wav
Pre-gap length 0:00:02.40
Peak level 93.9 % Track quality 100.0 % Test CRC 55295225 Copy CRC 55295225 Copy OK
Track 7
Filename E:\uploads\Thomas Fersen - Le bal des oiseaux (flac)\07 - La baston.wav
Peak level 93.9 % Track quality 100.0 % Test CRC 58686538 Copy CRC 58686538 Copy OK
Track 8
Filename E:\uploads\Thomas Fersen - Le bal des oiseaux (flac)\08 - Libertad.wav
Pre-gap length 0:00:01.42
Peak level 93.9 % Track quality 100.0 % Test CRC 58784C76 Copy CRC 58784C76 Copy OK
Track 9
Filename E:\uploads\Thomas Fersen - Le bal des oiseaux (flac)\09 - Ces bouches а nourrir.wav
Peak level 93.9 % Track quality 100.0 % Test CRC FA948B0C Copy CRC FA948B0C Copy OK
Track 10
Filename E:\uploads\Thomas Fersen - Le bal des oiseaux (flac)\10 - A dahouлt.wav
Pre-gap length 0:00:01.82
Peak level 74.7 % Track quality 100.0 % Test CRC 61A1FC5C Copy CRC 61A1FC5C Copy OK
Track 11
Filename E:\uploads\Thomas Fersen - Le bal des oiseaux (flac)\11 - Ne me touche pas.wav
Peak level 93.9 % Track quality 100.0 % Test CRC 322E598B Copy CRC 322E598B Copy OK
Track 12
Filename E:\uploads\Thomas Fersen - Le bal des oiseaux (flac)\12 - Mon pays.wav
Pre-gap length 0:00:01.86
Peak level 93.9 % Track quality 100.0 % Test CRC E483F82E Copy CRC E483F82E Copy OK
Track 13
Filename E:\uploads\Thomas Fersen - Le bal des oiseaux (flac)\13 - Allons nous coucher.wav
Pre-gap length 0:00:01.58
Peak level 93.6 % Track quality 99.9 % Test CRC 344CEA0E Copy CRC 344CEA0E Copy OK
No errors occurred
End of status report

Лог проверки качества

AUDIOCHECKER v2.0 beta (build 457) - by Dester - opdester@freemail.hu~~~~~~~~~~~~~~~~~~~~~~~~~~~~~~~~~~-=== DO NOT EDIT THIS FILE! ===-
Path: ...\AC
01 -=- 01 - Le bal des oiseaux.flac -=- CDDA (100%)02 -=- 02 - Je t'attendais.flac -=- CDDA (100%)03 -=- 03 - Juillet.flac -=- CDDA (100%)04 -=- 04 - Tout, tout, tout et plus rien.flac -=- CDDA (100%)05 -=- 05 - Pour toi mon amour.flac -=- CDDA (100%)06 -=- 06 - Lofotens.flac -=- CDDA (100%)07 -=- 07 - La baston.flac -=- CDDA (100%)08 -=- 08 - Libertad.flac -=- CDDA (100%)09 -=- 09 - Ces bouches a nourrir.flac -=- CDDA (100%)10 -=- 10 - A dahouet.flac -=- CDDA (100%)11 -=- 11 - Ne me touche pas.flac -=- CDDA (100%)12 -=- 12 - Mon pays.flac -=- CDDA (100%)13 -=- 13 - Allons nous coucher.flac -=- CDDA (100%)
Summary 100,00% CDDA
90499940

(.CUE)

REM GENRE Chanson
REM DATE 1993
REM DISCID AD097F0D
REM COMMENT "ExactAudioCopy v0.99pb4"
PERFORMER "Thomas Fersen"
TITLE "Le bal des oiseaux"
FILE "01 - Le bal des oiseaux.wav" WAVE
TRACK 01 AUDIO
TITLE "Le bal des oiseaux"
PERFORMER "Thomas Fersen"
INDEX 01 00:00:00
FILE "02 - Je t'attendais.wav" WAVE
TRACK 02 AUDIO
TITLE "Je t'attendais"
PERFORMER "Thomas Fersen"
INDEX 01 00:00:00
TRACK 03 AUDIO
TITLE "Juillet"
PERFORMER "Thomas Fersen"
INDEX 00 02:27:05
FILE "03 - Juillet.wav" WAVE
INDEX 01 00:00:00
TRACK 04 AUDIO
TITLE "Tout, tout, tout et plus rien"
PERFORMER "Thomas Fersen"
INDEX 00 03:03:23
FILE "04 - Tout, tout, tout et plus rien.wav" WAVE
INDEX 01 00:00:00
FILE "05 - Pour toi mon amour.wav" WAVE
TRACK 05 AUDIO
TITLE "Pour toi mon amour"
PERFORMER "Thomas Fersen"
INDEX 01 00:00:00
TRACK 06 AUDIO
TITLE "Lofotens"
PERFORMER "Thomas Fersen"
INDEX 00 02:25:13
FILE "06 - Lofotens.wav" WAVE
INDEX 01 00:00:00
FILE "07 - La baston.wav" WAVE
TRACK 07 AUDIO
TITLE "La baston"
PERFORMER "Thomas Fersen"
INDEX 01 00:00:00
TRACK 08 AUDIO
TITLE "Libertad"
PERFORMER "Thomas Fersen"
INDEX 00 02:13:10
FILE "08 - Libertad.wav" WAVE
INDEX 01 00:00:00
FILE "09 - Ces bouches а nourrir.wav" WAVE
TRACK 09 AUDIO
TITLE "Ces bouches а nourrir"
PERFORMER "Thomas Fersen"
INDEX 01 00:00:00
TRACK 10 AUDIO
TITLE "A dahouлt"
PERFORMER "Thomas Fersen"
INDEX 00 02:37:30
FILE "10 - A dahouлt.wav" WAVE
INDEX 01 00:00:00
FILE "11 - Ne me touche pas.wav" WAVE
TRACK 11 AUDIO
TITLE "Ne me touche pas"
PERFORMER "Thomas Fersen"
INDEX 01 00:00:00
TRACK 12 AUDIO
TITLE "Mon pays"
PERFORMER "Thomas Fersen"
INDEX 00 04:01:60
FILE "12 - Mon pays.wav" WAVE
INDEX 01 00:00:00
TRACK 13 AUDIO
TITLE "Allons nous coucher"
PERFORMER "Thomas Fersen"
INDEX 00 02:29:01
FILE "13 - Allons nous coucher.wav" WAVE
INDEX 01 00:00:00

02 Thomas Fersen - Les Ronds de Carotte (1995) [FLAC] // 42:43

01 Louise
02 Au café de la paix
03 Hugo, chanson du cyclone
04 Les Ronds de carotte
05 Dans les transports
06 Un temps de chien
07 Ne pleure plus
08 Hugo, à la bougie
09 Pommes, pommes, pommes
10 Un parapluie pour deux
11 Pont Mirabeau
12 Bella Ciao
13 L'Histoire d'une heure
14 L'Escalier

Лог создания рипа

Exact Audio Copy V1.0 beta 3 from 29. August 2011
EAC extraction logfile from 14. March 2012, 20:20
Thomas Fersen / Les Ronds de Carotte
Used drive : TSSTcorpCDDVDW SN-S083F Adapter: 0 ID: 0
Read mode : SecureUtilize accurate stream : YesDefeat audio cache : YesMake use of C2 pointers : No
Read offset correction : 6Overread into Lead-In and Lead-Out : NoFill up missing offset samples with silence : YesDelete leading and trailing silent blocks : NoNull samples used in CRC calculations : YesUsed interface : Native Win32 interface for Win NT & 2000Gap handling : Appended to previous track
Used output format : User Defined EncoderSelected bitrate : 1024 kBit/sQuality : HighAdd ID3 tag : NoCommand line compressor : C:\Program Files (x86)\FLAC\flac.exeAdditional command line options : -8 -V -T "ARTIST=%artist%" -T "TITLE=%title%" -T "ALBUM=%albumtitle%" -T "DATE=%year%" -T "TRACKNUMBER=%tracknr%" -T "GENRE=%genre%" -T "PERFORMER=%albuminterpret%" -T "COMPOSER=%composer%" %haslyrics%--tag-from-file=LYRICS="%lyricsfile%"%haslyrics% -T "ALBUMARTIST=%albumartist%" -T "DISCNUMBER=%cdnumber%" -T "TOTALDISCS=%totalcds%" -T "TOTALTRACKS=%numtracks%" -T "COMMENT=%comment%" %source% -o %dest%
TOC of the extracted CD
Track | Start | Length | Start sector | End sector --------------------------------------------------------- 1 | 0:00.00 | 2:22.50 | 0 | 10699 2 | 2:22.50 | 4:05.47 | 10700 | 29121 3 | 6:28.22 | 2:40.43 | 29122 | 41164 4 | 9:08.65 | 2:44.37 | 41165 | 53501 5 | 11:53.27 | 3:19.45 | 53502 | 68471 6 | 15:12.72 | 3:42.40 | 68472 | 85161 7 | 18:55.37 | 4:05.43 | 85162 | 103579 8 | 23:01.05 | 2:34.00 | 103580 | 115129 9 | 25:35.05 | 3:47.15 | 115130 | 132169 10 | 29:22.20 | 2:59.50 | 132170 | 145644 11 | 32:21.70 | 4:04.30 | 145645 | 163974 12 | 36:26.25 | 1:52.42 | 163975 | 172416 13 | 38:18.67 | 2:39.25 | 172417 | 184366 14 | 40:58.17 | 1:45.18 | 184367 | 192259
Track 1
Filename D:\RIP\Thomas Fersen - Les Ronds de Carotte\01 Louise.wav
Pre-gap length 0:00:02.00
Peak level 98.6 % Extraction speed 1.0 X Track quality 100.0 % Test CRC A1C81CB1 Copy CRC A1C81CB1 Accurately ripped (confidence 18) [101B1DC7] (AR v1) Copy OK
Track 2
Filename D:\RIP\Thomas Fersen - Les Ronds de Carotte\02 Au café de la paix.wav
Pre-gap length 0:00:00.17
Peak level 91.6 % Extraction speed 1.2 X Track quality 100.0 % Test CRC BB4F3061 Copy CRC BB4F3061 Accurately ripped (confidence 18) [5455E85C] (AR v1) Copy OK
Track 3
Filename D:\RIP\Thomas Fersen - Les Ronds de Carotte\03 Hugo, chanson du cyclone.wav
Pre-gap length 0:00:00.40
Peak level 89.9 % Extraction speed 1.2 X Track quality 100.0 % Test CRC 32ADDD24 Copy CRC 32ADDD24 Accurately ripped (confidence 18) [EE4A4363] (AR v1) Copy OK
Track 4
Filename D:\RIP\Thomas Fersen - Les Ronds de Carotte\04 Les ronds de carotte.wav
Pre-gap length 0:00:00.26
Peak level 93.8 % Extraction speed 1.3 X Track quality 100.0 % Test CRC 354C23AC Copy CRC 354C23AC Accurately ripped (confidence 18) [322C015A] (AR v1) Copy OK
Track 5
Filename D:\RIP\Thomas Fersen - Les Ronds de Carotte\05 Dans les transports.wav
Peak level 93.7 % Extraction speed 1.4 X Track quality 100.0 % Test CRC 2C5B4DAD Copy CRC 2C5B4DAD Accurately ripped (confidence 18) [ECAD4D19] (AR v1) Copy OK
Track 6
Filename D:\RIP\Thomas Fersen - Les Ronds de Carotte\06 Un temps de chien.wav
Pre-gap length 0:00:00.69
Peak level 91.1 % Extraction speed 1.5 X Track quality 100.0 % Test CRC B232E4C8 Copy CRC B232E4C8 Accurately ripped (confidence 18) [6EACD870] (AR v1) Copy OK
Track 7
Filename D:\RIP\Thomas Fersen - Les Ronds de Carotte\07 Ne pleure plus.wav
Peak level 100.0 % Extraction speed 1.6 X Track quality 100.0 % Test CRC 6920A258 Copy CRC 6920A258 Accurately ripped (confidence 17) [4AF75515] (AR v1) Copy OK
Track 8
Filename D:\RIP\Thomas Fersen - Les Ronds de Carotte\08 Hugo, à la bougie.wav
Pre-gap length 0:00:00.30
Peak level 81.7 % Extraction speed 1.0 X Track quality 99.9 % Test CRC 9F17219C Copy CRC 9F17219C Accurately ripped (confidence 18) [577E80A5] (AR v1) Copy OK
Track 9
Filename D:\RIP\Thomas Fersen - Les Ronds de Carotte\09 Pommes, pommes, pommes.wav
Peak level 93.0 % Extraction speed 1.7 X Track quality 100.0 % Test CRC 94B5F0D4 Copy CRC 94B5F0D4 Accurately ripped (confidence 17) [6C3D4EDB] (AR v1) Copy OK
Track 10
Filename D:\RIP\Thomas Fersen - Les Ronds de Carotte\10 Un parapluie pour deux.wav
Peak level 98.4 % Extraction speed 1.7 X Track quality 100.0 % Test CRC C3F07323 Copy CRC C3F07323 Accurately ripped (confidence 17) [1ED58ED8] (AR v1) Copy OK
Track 11
Filename D:\RIP\Thomas Fersen - Les Ronds de Carotte\11 Pont Mirabeau.wav
Pre-gap length 0:00:02.73
Peak level 98.7 % Extraction speed 1.9 X Track quality 100.0 % Test CRC A957EB7A Copy CRC A957EB7A Accurately ripped (confidence 18) [A0C55C0F] (AR v1) Copy OK
Track 12
Filename D:\RIP\Thomas Fersen - Les Ronds de Carotte\12 Bella ciao.wav
Pre-gap length 0:00:00.93
Peak level 91.6 % Extraction speed 1.0 X Track quality 99.9 % Test CRC EE5F0E82 Copy CRC EE5F0E82 Accurately ripped (confidence 18) [C9C74010] (AR v1) Copy OK
Track 13
Filename D:\RIP\Thomas Fersen - Les Ronds de Carotte\13 L'histoire d'une heure.wav
Pre-gap length 0:00:00.29
Peak level 87.3 % Extraction speed 1.2 X Track quality 99.9 % Test CRC 3C66E7C7 Copy CRC 3C66E7C7 Accurately ripped (confidence 17) [0C5958BE] (AR v1) Copy OK
Track 14
Filename D:\RIP\Thomas Fersen - Les Ronds de Carotte\14 L'escalier.wav
Pre-gap length 0:00:00.42
Peak level 92.6 % Extraction speed 0.9 X Track quality 99.8 % Test CRC 4E94E23D Copy CRC 4E94E23D Accurately ripped (confidence 16) [71822701] (AR v1) Copy OK
All tracks accurately ripped
No errors occurred
End of status report
---- CUETools DB Plugin V2.1.3
[CTDB TOCID: PG8_riwYyVawY3YspDm5pvwnWng-] found, Submit result: PG8_riwYyVawY3YspDm5pvwnWng- has been confirmed[59cc6a98] (2/2) Accurately ripped
==== Log checksum 167710E7BAD38A8DFF2C34B6D806231DF662533A2E47878619CE54D7CEAD49CB ====
------------------------------------------------------------
Exact Audio Copy V1.0 beta 3 from 29. August 2011
EAC extraction logfile from 14. March 2012, 20:21
Thomas Fersen / Les Ronds de Carotte
Used drive : TSSTcorpCDDVDW SN-S083F Adapter: 0 ID: 0
Read mode : SecureUtilize accurate stream : YesDefeat audio cache : YesMake use of C2 pointers : No
Read offset correction : 6Overread into Lead-In and Lead-Out : NoFill up missing offset samples with silence : YesDelete leading and trailing silent blocks : NoNull samples used in CRC calculations : YesUsed interface : Native Win32 interface for Win NT & 2000Gap handling : Appended to previous track
Used output format : User Defined EncoderSelected bitrate : 1024 kBit/sQuality : HighAdd ID3 tag : NoCommand line compressor : C:\Program Files (x86)\FLAC\flac.exeAdditional command line options : -8 -V -T "ARTIST=%artist%" -T "TITLE=%title%" -T "ALBUM=%albumtitle%" -T "DATE=%year%" -T "TRACKNUMBER=%tracknr%" -T "GENRE=%genre%" -T "PERFORMER=%albuminterpret%" -T "COMPOSER=%composer%" %haslyrics%--tag-from-file=LYRICS="%lyricsfile%"%haslyrics% -T "ALBUMARTIST=%albumartist%" -T "DISCNUMBER=%cdnumber%" -T "TOTALDISCS=%totalcds%" -T "TOTALTRACKS=%numtracks%" -T "COMMENT=%comment%" %source% -o %dest%
TOC of the extracted CD
Track | Start | Length | Start sector | End sector --------------------------------------------------------- 1 | 0:00.00 | 2:22.50 | 0 | 10699 2 | 2:22.50 | 4:05.47 | 10700 | 29121 3 | 6:28.22 | 2:40.43 | 29122 | 41164 4 | 9:08.65 | 2:44.37 | 41165 | 53501 5 | 11:53.27 | 3:19.45 | 53502 | 68471 6 | 15:12.72 | 3:42.40 | 68472 | 85161 7 | 18:55.37 | 4:05.43 | 85162 | 103579 8 | 23:01.05 | 2:34.00 | 103580 | 115129 9 | 25:35.05 | 3:47.15 | 115130 | 132169 10 | 29:22.20 | 2:59.50 | 132170 | 145644 11 | 32:21.70 | 4:04.30 | 145645 | 163974 12 | 36:26.25 | 1:52.42 | 163975 | 172416 13 | 38:18.67 | 2:39.25 | 172417 | 184366 14 | 40:58.17 | 1:45.18 | 184367 | 192259
Track 1
Filename D:\RIP\Thomas Fersen - Les Ronds de Carotte\01 Louise.wav
Pre-gap length 0:00:02.00
Peak level 98.6 % Extraction speed 1.0 X Track quality 100.0 % Test CRC A1C81CB1 Copy CRC A1C81CB1 Accurately ripped (confidence 18) [101B1DC7] (AR v1) Copy OK
Track 2
Filename D:\RIP\Thomas Fersen - Les Ronds de Carotte\02 Au café de la paix.wav
Pre-gap length 0:00:00.17
Peak level 91.6 % Extraction speed 1.2 X Track quality 100.0 % Test CRC BB4F3061 Copy CRC BB4F3061 Accurately ripped (confidence 18) [5455E85C] (AR v1) Copy OK
Track 3
Filename D:\RIP\Thomas Fersen - Les Ronds de Carotte\03 Hugo, chanson du cyclone.wav
Pre-gap length 0:00:00.40
Peak level 89.9 % Extraction speed 1.2 X Track quality 100.0 % Test CRC 32ADDD24 Copy CRC 32ADDD24 Accurately ripped (confidence 18) [EE4A4363] (AR v1) Copy OK
Track 4
Filename D:\RIP\Thomas Fersen - Les Ronds de Carotte\04 Les ronds de carotte.wav
Pre-gap length 0:00:00.26
Peak level 93.8 % Extraction speed 1.3 X Track quality 100.0 % Test CRC 354C23AC Copy CRC 354C23AC Accurately ripped (confidence 18) [322C015A] (AR v1) Copy OK
Track 5
Filename D:\RIP\Thomas Fersen - Les Ronds de Carotte\05 Dans les transports.wav
Peak level 93.7 % Extraction speed 1.4 X Track quality 100.0 % Test CRC 2C5B4DAD Copy CRC 2C5B4DAD Accurately ripped (confidence 18) [ECAD4D19] (AR v1) Copy OK
Track 6
Filename D:\RIP\Thomas Fersen - Les Ronds de Carotte\06 Un temps de chien.wav
Pre-gap length 0:00:00.69
Peak level 91.1 % Extraction speed 1.5 X Track quality 100.0 % Test CRC B232E4C8 Copy CRC B232E4C8 Accurately ripped (confidence 18) [6EACD870] (AR v1) Copy OK
Track 7
Filename D:\RIP\Thomas Fersen - Les Ronds de Carotte\07 Ne pleure plus.wav
Peak level 100.0 % Extraction speed 1.6 X Track quality 100.0 % Test CRC 6920A258 Copy CRC 6920A258 Accurately ripped (confidence 17) [4AF75515] (AR v1) Copy OK
Track 8
Filename D:\RIP\Thomas Fersen - Les Ronds de Carotte\08 Hugo, à la bougie.wav
Pre-gap length 0:00:00.30
Peak level 81.7 % Extraction speed 1.0 X Track quality 99.9 % Test CRC 9F17219C Copy CRC 9F17219C Accurately ripped (confidence 18) [577E80A5] (AR v1) Copy OK
Track 9
Filename D:\RIP\Thomas Fersen - Les Ronds de Carotte\09 Pommes, pommes, pommes.wav
Peak level 93.0 % Extraction speed 1.7 X Track quality 100.0 % Test CRC 94B5F0D4 Copy CRC 94B5F0D4 Accurately ripped (confidence 17) [6C3D4EDB] (AR v1) Copy OK
Track 10
Filename D:\RIP\Thomas Fersen - Les Ronds de Carotte\10 Un parapluie pour deux.wav
Peak level 98.4 % Extraction speed 1.7 X Track quality 100.0 % Test CRC C3F07323 Copy CRC C3F07323 Accurately ripped (confidence 17) [1ED58ED8] (AR v1) Copy OK
Track 11
Filename D:\RIP\Thomas Fersen - Les Ronds de Carotte\11 Pont Mirabeau.wav
Pre-gap length 0:00:02.73
Peak level 98.7 % Extraction speed 1.9 X Track quality 100.0 % Test CRC A957EB7A Copy CRC A957EB7A Accurately ripped (confidence 18) [A0C55C0F] (AR v1) Copy OK
Track 12
Filename D:\RIP\Thomas Fersen - Les Ronds de Carotte\12 Bella ciao.wav
Pre-gap length 0:00:00.93
Peak level 91.6 % Extraction speed 1.0 X Track quality 99.9 % Test CRC EE5F0E82 Copy CRC EE5F0E82 Accurately ripped (confidence 18) [C9C74010] (AR v1) Copy OK
Track 13
Filename D:\RIP\Thomas Fersen - Les Ronds de Carotte\13 L'histoire d'une heure.wav
Pre-gap length 0:00:00.29
Peak level 87.3 % Extraction speed 1.2 X Track quality 99.9 % Test CRC 3C66E7C7 Copy CRC 3C66E7C7 Accurately ripped (confidence 17) [0C5958BE] (AR v1) Copy OK
Track 14
Filename D:\RIP\Thomas Fersen - Les Ronds de Carotte\14 L'escalier.wav
Pre-gap length 0:00:00.42
Peak level 92.6 % Extraction speed 0.9 X Track quality 99.8 % Test CRC 4E94E23D Copy CRC 4E94E23D Accurately ripped (confidence 16) [71822701] (AR v1) Copy OK
All tracks accurately ripped
No errors occurred
End of status report
---- CUETools DB Plugin V2.1.3
[CTDB TOCID: PG8_riwYyVawY3YspDm5pvwnWng-] found, Submit result: PG8_riwYyVawY3YspDm5pvwnWng- has been confirmed[59cc6a98] (2/2) Accurately ripped
==== Log checksum 13134E28E5CCEF4F11AAFDA934DDAC12275C811203F88CFF7B03209FC14E2A54 ====

Лог проверки качества

AUDIOCHECKER v2.0 beta (build 457) - by Dester - opdester@freemail.hu~~~~~~~~~~~~~~~~~~~~~~~~~~~~~~~~~~-=== DO NOT EDIT THIS FILE! ===-
Path: ...\AC
01 -=- 01 Louise.flac -=- CDDA (99%)02 -=- 02 Au cafe de la paix.flac -=- CDDA (100%)03 -=- 03 Hugo, chanson du cyclone.flac -=- CDDA (99%)04 -=- 04 Les ronds de carotte.flac -=- CDDA (100%)05 -=- 05 Dans les transports.flac -=- CDDA (100%)06 -=- 06 Un temps de chien.flac -=- CDDA (100%)07 -=- 07 Ne pleure plus.flac -=- CDDA (100%)08 -=- 08 Hugo, a la bougie.flac -=- CDDA (100%)09 -=- 09 Pommes, pommes, pommes.flac -=- CDDA (100%)10 -=- 10 Un parapluie pour deux.flac -=- CDDA (100%)11 -=- 11 Pont Mirabeau.flac -=- CDDA (100%)12 -=- 12 Bella ciao.flac -=- CDDA (100%)13 -=- 13 L'histoire d'une heure.flac -=- CDDA (100%)14 -=- 14 L'escalier.flac -=- CDDA (100%)
Summary 99,86% CDDA
82664228

(.CUE)

REM GENRE Chanson
REM DATE 1995
REM DISCID AE0A030E
REM COMMENT "ExactAudioCopy v1.0b3"
CATALOG 4509991660201
PERFORMER "Thomas Fersen"
TITLE "Les Ronds de Carotte"
FILE "01 Louise.wav" WAVE
TRACK 01 AUDIO
TITLE "Louise"
PERFORMER "Thomas Fersen"
ISRC FRZ049400580
INDEX 01 00:00:00
TRACK 02 AUDIO
TITLE "Au cafй de la paix"
PERFORMER "Thomas Fersen"
ISRC FRZ049400600
INDEX 00 02:22:37
FILE "02 Au cafй de la paix.wav" WAVE
INDEX 01 00:00:00
TRACK 03 AUDIO
TITLE "Hugo, chanson du cyclone"
PERFORMER "Thomas Fersen"
ISRC FRZ049400620
INDEX 00 04:05:17
FILE "03 Hugo, chanson du cyclone.wav" WAVE
INDEX 01 00:00:00
TRACK 04 AUDIO
TITLE "Les ronds de carotte"
PERFORMER "Thomas Fersen"
ISRC FRZ049400630
INDEX 00 02:40:23
FILE "04 Les ronds de carotte.wav" WAVE
INDEX 01 00:00:00
FILE "05 Dans les transports.wav" WAVE
TRACK 05 AUDIO
TITLE "Dans les transports"
PERFORMER "Thomas Fersen"
ISRC FRZ049400640
INDEX 01 00:00:00
TRACK 06 AUDIO
TITLE "Un temps de chien"
PERFORMER "Thomas Fersen"
ISRC FRZ049400650
INDEX 00 03:18:68
FILE "06 Un temps de chien.wav" WAVE
INDEX 01 00:00:00
FILE "07 Ne pleure plus.wav" WAVE
TRACK 07 AUDIO
TITLE "Ne pleure plus"
PERFORMER "Thomas Fersen"
ISRC FRZ049400660
INDEX 01 00:00:00
TRACK 08 AUDIO
TITLE "Hugo, а la bougie"
PERFORMER "Thomas Fersen"
ISRC FRZ049400670
INDEX 00 04:05:20
FILE "08 Hugo, а la bougie.wav" WAVE
INDEX 01 00:00:00
FILE "09 Pommes, pommes, pommes.wav" WAVE
TRACK 09 AUDIO
TITLE "Pommes, pommes, pommes"
PERFORMER "Thomas Fersen"
ISRC FRZ049400680
INDEX 01 00:00:00
FILE "10 Un parapluie pour deux.wav" WAVE
TRACK 10 AUDIO
TITLE "Un parapluie pour deux"
PERFORMER "Thomas Fersen"
ISRC FRZ049400690
INDEX 01 00:00:00
TRACK 11 AUDIO
TITLE "Pont Mirabeau"
PERFORMER "Thomas Fersen"
ISRC FRZ049400700
INDEX 00 02:56:70
FILE "11 Pont Mirabeau.wav" WAVE
INDEX 01 00:00:00
TRACK 12 AUDIO
TITLE "Bella ciao"
PERFORMER "Thomas Fersen"
ISRC FRZ049400590
INDEX 00 04:03:35
FILE "12 Bella ciao.wav" WAVE
INDEX 01 00:00:00
TRACK 13 AUDIO
TITLE "L'histoire d'une heure"
PERFORMER "Thomas Fersen"
ISRC FRZ049400610
INDEX 00 01:52:20
FILE "13 L'histoire d'une heure.wav" WAVE
INDEX 01 00:00:00
TRACK 14 AUDIO
TITLE "L'escalier"
PERFORMER "Thomas Fersen"
ISRC FRZ049400710
INDEX 00 02:38:68
FILE "14 L'escalier.wav" WAVE
INDEX 01 00:00:00

03 Thomas Fersen - Le Jour du Poisson (1997) [FLAC] // 40:31

Disque d'or en 2001 (Золотой диск)
01 Bucéphale
02 Ma douceur
03 Les Papillons
04 Que l'on est bête
05 Moi qui me croyais un saint
06 La Blatte
07 Pickpocket
08 Bijou
09 Les Tours d'horloge
10 Où trouver des fleurs un lundi soir après minuit ?
11 Je suis dev'nue la bonne

Лог создания рипа

Exact Audio Copy V0.99 prebeta 4 from 23. January 2008
EAC extraction logfile from 15. January 2009, 10:08
Thomas Fersen / Le Jour Du Poisson
Used drive : PHILIPS SPD2412T Adapter: 0 ID: 0
Read mode : SecureUtilize accurate stream : YesDefeat audio cache : YesMake use of C2 pointers : No
Read offset correction : 6Overread into Lead-In and Lead-Out : NoFill up missing offset samples with silence : YesDelete leading and trailing silent blocks : NoNull samples used in CRC calculations : YesUsed interface : Native Win32 interface for Win NT & 2000Gap handling : Appended to previous track
Used output format : User Defined EncoderSelected bitrate : 192 kBit/sQuality : HighAdd ID3 tag : NoCommand line compressor : C:\Program Files\FLAC\flac.exeAdditional command line options : -V -8 -T "artist=%a" -T "title=%t" -T "album=%g" -T "date=%y" -T "tracknumber=%n" -T "genre=%m" %s
TOC of the extracted CD
Track | Start | Length | Start sector | End sector --------------------------------------------------------- 1 | 0:00.32 | 3:09.58 | 32 | 14264 2 | 3:10.15 | 4:37.40 | 14265 | 35079 3 | 7:47.55 | 4:05.27 | 35080 | 53481 4 | 11:53.07 | 3:26.00 | 53482 | 68931 5 | 15:19.07 | 4:08.10 | 68932 | 87541 6 | 19:27.17 | 2:40.50 | 87542 | 99591 7 | 22:07.67 | 4:07.45 | 99592 | 118161 8 | 26:15.37 | 3:29.15 | 118162 | 133851 9 | 29:44.52 | 3:17.65 | 133852 | 148691 10 | 33:02.42 | 2:38.18 | 148692 | 160559 11 | 35:40.60 | 4:27.47 | 160560 | 180631
Track 1
Filename E:\uploads\Thomas Fersen - Le Jour Du Poisson (flac)\01 - Bucйphale.wav
Pre-gap length 0:00:02.42
Peak level 100.0 % Track quality 100.0 % Test CRC 7E400280 Copy CRC 7E400280 Copy OK
Track 2
Filename E:\uploads\Thomas Fersen - Le Jour Du Poisson (flac)\02 - Ma Douceur.wav
Pre-gap length 0:00:01.86
Peak level 100.0 % Track quality 100.0 % Test CRC 3D292EB2 Copy CRC 3D292EB2 Copy OK
Track 3
Filename E:\uploads\Thomas Fersen - Le Jour Du Poisson (flac)\03 - Les Papillons.wav
Pre-gap length 0:00:01.84
Peak level 100.0 % Track quality 99.9 % Test CRC 2DA53815 Copy CRC 2DA53815 Copy OK
Track 4
Filename E:\uploads\Thomas Fersen - Le Jour Du Poisson (flac)\04 - Que L'on Est Bкte.wav
Pre-gap length 0:00:01.36
Peak level 98.8 % Track quality 100.0 % Test CRC 3E936789 Copy CRC 3E936789 Copy OK
Track 5
Filename E:\uploads\Thomas Fersen - Le Jour Du Poisson (flac)\05 - Moi Qui Me Croyais Un Saint.wav
Pre-gap length 0:00:02.60
Peak level 100.0 % Track quality 100.0 % Test CRC 801031D3 Copy CRC 801031D3 Copy OK
Track 6
Filename E:\uploads\Thomas Fersen - Le Jour Du Poisson (flac)\06 - La Blatte.wav
Pre-gap length 0:00:01.60
Peak level 99.1 % Track quality 100.0 % Test CRC 4418888C Copy CRC 4418888C Copy OK
Track 7
Filename E:\uploads\Thomas Fersen - Le Jour Du Poisson (flac)\07 - Pickpocket.wav
Pre-gap length 0:00:02.80
Peak level 100.0 % Track quality 100.0 % Test CRC BF6EA901 Copy CRC BF6EA901 Copy OK
Track 8
Filename E:\uploads\Thomas Fersen - Le Jour Du Poisson (flac)\08 - Bijou.wav
Pre-gap length 0:00:01.60
Peak level 100.0 % Track quality 99.9 % Test CRC 81943587 Copy CRC 81943587 Copy OK
Track 9
Filename E:\uploads\Thomas Fersen - Le Jour Du Poisson (flac)\09 - Les Tours D'horloge.wav
Pre-gap length 0:00:01.76
Peak level 88.1 % Track quality 100.0 % Test CRC 72647C0E Copy CRC 72647C0E Copy OK
Track 10
Filename E:\uploads\Thomas Fersen - Le Jour Du Poisson (flac)\10 - Oщ Trouver Des Fleurs Un Lundi Soir Aprиs Minuit .wav
Pre-gap length 0:00:02.42
Peak level 100.0 % Track quality 100.0 % Test CRC 752616DE Copy CRC 752616DE Copy OK
Track 11
Filename E:\uploads\Thomas Fersen - Le Jour Du Poisson (flac)\11 - Je Suis Dev'nue La Bonne.wav
Pre-gap length 0:00:01.93
Peak level 100.0 % Track quality 99.9 % Test CRC ACD0E2CC Copy CRC ACD0E2CC Copy OK
No errors occurred
End of status report

Лог проверки качества

AUDIOCHECKER v2.0 beta (build 457) - by Dester - opdester@freemail.hu~~~~~~~~~~~~~~~~~~~~~~~~~~~~~~~~~~-=== DO NOT EDIT THIS FILE! ===-
Path: ...\AC
01 -=- 01 - Bucephale.flac -=- CDDA (100%)02 -=- 02 - Ma Douceur.flac -=- CDDA (99%)03 -=- 03 - Les Papillons.flac -=- CDDA (100%)04 -=- 04 - Que L'on Est Bete.flac -=- CDDA (100%)05 -=- 05 - Moi Qui Me Croyais Un Saint.flac -=- CDDA (100%)06 -=- 06 - La Blatte.flac -=- CDDA (100%)07 -=- 07 - Pickpocket.flac -=- CDDA (100%)08 -=- 08 - Bijou.flac -=- CDDA (100%)09 -=- 09 - Les Tours D'horloge.flac -=- CDDA (100%)10 -=- 10 - Ou Trouver Des Fleurs Un Lundi Soir Apres Minuit .flac -=- CDDA (100%)11 -=- 11 - Je Suis Dev'nue La Bonne.flac -=- CDDA (100%)
Summary 99,91% CDDA
248708100

(.CUE)

REM GENRE Chanson
REM DATE 1997
REM DISCID A309680B
REM COMMENT "ExactAudioCopy v0.99pb4"
PERFORMER "Thomas Fersen"
TITLE "Le Jour Du Poisson"
FILE "01 - Bucйphale.wav" WAVE
TRACK 01 AUDIO
TITLE "Bucйphale"
PERFORMER "Thomas Fersen"
PREGAP 00:00:32
INDEX 01 00:00:00
TRACK 02 AUDIO
TITLE "Ma Douceur"
PERFORMER "Thomas Fersen"
INDEX 00 03:07:68
FILE "02 - Ma Douceur.wav" WAVE
INDEX 01 00:00:00
TRACK 03 AUDIO
TITLE "Les Papillons"
PERFORMER "Thomas Fersen"
INDEX 00 04:35:52
FILE "03 - Les Papillons.wav" WAVE
INDEX 01 00:00:00
TRACK 04 AUDIO
TITLE "Que L'on Est Bкte"
PERFORMER "Thomas Fersen"
INDEX 00 04:04:00
FILE "04 - Que L'on Est Bкte.wav" WAVE
INDEX 01 00:00:00
TRACK 05 AUDIO
TITLE "Moi Qui Me Croyais Un Saint"
PERFORMER "Thomas Fersen"
INDEX 00 03:23:30
FILE "05 - Moi Qui Me Croyais Un Saint.wav" WAVE
INDEX 01 00:00:00
TRACK 06 AUDIO
TITLE "La Blatte"
PERFORMER "Thomas Fersen"
INDEX 00 04:06:40
FILE "06 - La Blatte.wav" WAVE
INDEX 01 00:00:00
TRACK 07 AUDIO
TITLE "Pickpocket"
PERFORMER "Thomas Fersen"
INDEX 00 02:37:65
FILE "07 - Pickpocket.wav" WAVE
INDEX 01 00:00:00
TRACK 08 AUDIO
TITLE "Bijou"
PERFORMER "Thomas Fersen"
INDEX 00 04:06:00
FILE "08 - Bijou.wav" WAVE
INDEX 01 00:00:00
TRACK 09 AUDIO
TITLE "Les Tours D'horloge"
PERFORMER "Thomas Fersen"
INDEX 00 03:27:33
FILE "09 - Les Tours D'horloge.wav" WAVE
INDEX 01 00:00:00
TRACK 10 AUDIO
TITLE "Oщ Trouver Des Fleurs Un Lundi Soir Aprиs Minuit?"
PERFORMER "Thomas Fersen"
INDEX 00 03:15:33
FILE "10 - Oщ Trouver Des Fleurs Un Lundi Soir Aprиs Minuit .wav" WAVE
INDEX 01 00:00:00
TRACK 11 AUDIO
TITLE "Je Suis Dev'nue La Bonne"
PERFORMER "Thomas Fersen"
INDEX 00 02:36:23
FILE "11 - Je Suis Dev'nue La Bonne.wav" WAVE
INDEX 01 00:00:00

04 Thomas Fersen - Qu4tre (1999) [FLAC] // 37:46

01 Irène
02 Les Malheurs du lion
03 Dugenou
04 Élisabeth
05 Monsieur
06 Marie-des-guérites
07 La Chauve souris
08 Le Moucheron
09 Chez toi
10 La Chandelle

Лог создания рипа

Exact Audio Copy V0.99 prebeta 4 from 23. January 2008
EAC extraction logfile from 22. April 2008, 21:24
Thomas Fersen / Qu4tre
Used drive : TOSHIBA ODD-DVD SD-R6372 Adapter: 1 ID: 0
Read mode : SecureUtilize accurate stream : YesDefeat audio cache : YesMake use of C2 pointers : No
Read offset correction : 116Overread into Lead-In and Lead-Out : NoFill up missing offset samples with silence : YesDelete leading and trailing silent blocks : NoNull samples used in CRC calculations : YesUsed interface : Native Win32 interface for Win NT & 2000Gap handling : Appended to previous track
Used output format : User Defined EncoderSelected bitrate : 768 kBit/sQuality : HighAdd ID3 tag : NoCommand line compressor : C:\Program Files\FLAC\flac.exeAdditional command line options : -V -8 -T "artist=%a" -T "title=%t" -T "album=%g" -T "date=%y" -T "tracknumber=%n" %s
TOC of the extracted CD
Track | Start | Length | Start sector | End sector --------------------------------------------------------- 1 | 0:00.00 | 4:40.62 | 0 | 21061 2 | 4:40.62 | 3:26.62 | 21062 | 36573 3 | 8:07.49 | 3:54.72 | 36574 | 54195 4 | 12:02.46 | 4:08.56 | 54196 | 72851 5 | 16:11.27 | 3:54.14 | 72852 | 90415 6 | 20:05.41 | 3:20.54 | 90416 | 105469 7 | 23:26.20 | 3:37.10 | 105470 | 121754 8 | 27:03.30 | 2:44.04 | 121755 | 134058 9 | 29:47.34 | 3:19.01 | 134059 | 148984 10 | 33:06.35 | 4:39.40 | 148985 | 169949
Track 1
Filename C:\Hi there RIAA, What's up IFPI\Thomas Fersen - Qu4tre\01 - Irиne.wav
Pre-gap length 0:00:02.00
Peak level 100.0 % Track quality 100.0 % Test CRC 9F4632BB Copy CRC 9F4632BB Cannot be verified as accurate (confidence 8) [A79F9448], AccurateRip returned [DCA74907] Copy OK
Track 2
Filename C:\Hi there RIAA, What's up IFPI\Thomas Fersen - Qu4tre\02 - Les Malheurs Du Lion.wav
Pre-gap length 0:00:01.16
Peak level 100.0 % Track quality 100.0 % Test CRC 6B8F5CCF Copy CRC 6B8F5CCF Cannot be verified as accurate (confidence 8) [7D051BE5], AccurateRip returned [4E5341A9] Copy OK
Track 3
Filename C:\Hi there RIAA, What's up IFPI\Thomas Fersen - Qu4tre\03 - Dugenou.wav
Pre-gap length 0:00:02.08
Peak level 99.9 % Track quality 100.0 % Test CRC C66AB106 Copy CRC C66AB106 Cannot be verified as accurate (confidence 8) [384B3CD9], AccurateRip returned [8E6E2CE4] Copy OK
Track 4
Filename C:\Hi there RIAA, What's up IFPI\Thomas Fersen - Qu4tre\04 - Elisabeth.wav
Pre-gap length 0:00:03.16
Peak level 98.8 % Track quality 100.0 % Test CRC 05370ADF Copy CRC 05370ADF Cannot be verified as accurate (confidence 8) [B62DFEA3], AccurateRip returned [11C675E5] Copy OK
Track 5
Filename C:\Hi there RIAA, What's up IFPI\Thomas Fersen - Qu4tre\05 - Monsieur.wav
Pre-gap length 0:00:04.57
Peak level 99.0 % Track quality 100.0 % Test CRC ED0E9D98 Copy CRC ED0E9D98 Cannot be verified as accurate (confidence 8) [6F7C3467], AccurateRip returned [111E45DB] Copy OK
Track 6
Filename C:\Hi there RIAA, What's up IFPI\Thomas Fersen - Qu4tre\06 - Marie-Des-Guйrites.wav
Peak level 100.0 % Track quality 100.0 % Test CRC C49A77D8 Copy CRC C49A77D8 Cannot be verified as accurate (confidence 8) [D9EF75EE], AccurateRip returned [08843AAB] Copy OK
Track 7
Filename C:\Hi there RIAA, What's up IFPI\Thomas Fersen - Qu4tre\07 - La Chauve-Souris.wav
Pre-gap length 0:00:02.54
Peak level 100.0 % Track quality 99.9 % Test CRC A7E3A04E Copy CRC A7E3A04E Cannot be verified as accurate (confidence 8) [82E62747], AccurateRip returned [6BD9A159] Copy OK
Track 8
Filename C:\Hi there RIAA, What's up IFPI\Thomas Fersen - Qu4tre\08 - Le Moucheron.wav
Pre-gap length 0:00:03.00
Peak level 97.9 % Track quality 99.9 % Test CRC 545B09CB Copy CRC 545B09CB Cannot be verified as accurate (confidence 8) [99184685], AccurateRip returned [9205F945] Copy OK
Track 9
Filename C:\Hi there RIAA, What's up IFPI\Thomas Fersen - Qu4tre\09 - Chez Toi.wav
Pre-gap length 0:00:01.13
Peak level 98.7 % Track quality 100.0 % Test CRC 915C6D1F Copy CRC 915C6D1F Cannot be verified as accurate (confidence 8) [AA8573E6], AccurateRip returned [F61BB42A] Copy OK
Track 10
Filename C:\Hi there RIAA, What's up IFPI\Thomas Fersen - Qu4tre\10 - La Chandelle.wav
Pre-gap length 0:00:02.55
Peak level 100.0 % Track quality 100.0 % Test CRC 39C650CA Copy CRC 39C650CA Cannot be verified as accurate (confidence 8) [A6A562E0], AccurateRip returned [5338E6CB] Copy OK
No tracks could be verified as accurateYou may have a different pressing from the one(s) in the database
No errors occurred
End of status report

Лог проверки качества

AUDIOCHECKER v2.0 beta (build 457) - by Dester - opdester@freemail.hu~~~~~~~~~~~~~~~~~~~~~~~~~~~~~~~~~~-=== DO NOT EDIT THIS FILE! ===-
Path: ...\AC
01 -=- 01 - Irene.flac -=- CDDA (100%)02 -=- 02 - Les Malheurs Du Lion.flac -=- CDDA (100%)03 -=- 03 - Dugenou.flac -=- CDDA (99%)04 -=- 04 - Elisabeth.flac -=- CDDA (100%)05 -=- 05 - Monsieur.flac -=- CDDA (99%)06 -=- 06 - Marie-Des-Guerites.flac -=- CDDA (100%)07 -=- 07 - La Chauve Souris.flac -=- CDDA (100%)08 -=- 08 - Le Moucheron.flac -=- CDDA (100%)09 -=- 09 - Chez Toi.flac -=- CDDA (100%)10 -=- 10 - La Chandelle.flac -=- CDDA (100%)
Summary 99,80% CDDA
147683812

(.CUE)

REM DATE 1999
REM DISCID 9B08DA0A
REM COMMENT "ExactAudioCopy v0.99pb4"
PERFORMER "Thomas Fersen"
TITLE "Qu4tre"
FILE "01 - Irиne.flac" WAVE
TRACK 01 AUDIO
TITLE "Irиne"
PERFORMER "Thomas Fersen"
INDEX 01 00:00:00
TRACK 02 AUDIO
TITLE "Les Malheurs Du Lion"
PERFORMER "Thomas Fersen"
INDEX 00 04:39:46
FILE "02 - Les Malheurs Du Lion.flac" WAVE
INDEX 01 00:00:00
TRACK 03 AUDIO
TITLE "Dugenou"
PERFORMER "Thomas Fersen"
INDEX 00 03:24:54
FILE "03 - Dugenou.flac" WAVE
INDEX 01 00:00:00
TRACK 04 AUDIO
TITLE "Elisabeth"
PERFORMER "Thomas Fersen"
INDEX 00 03:51:56
FILE "04 - Elisabeth.flac" WAVE
INDEX 01 00:00:00
TRACK 05 AUDIO
TITLE "Monsieur"
PERFORMER "Thomas Fersen"
INDEX 00 04:03:74
FILE "05 - Monsieur.flac" WAVE
INDEX 01 00:00:00
FILE "06 - Marie-Des-Guйrites.flac" WAVE
TRACK 06 AUDIO
TITLE "Marie-Des-Guйrites"
PERFORMER "Thomas Fersen"
INDEX 01 00:00:00
TRACK 07 AUDIO
TITLE "La Chauve-Souris"
PERFORMER "Thomas Fersen"
INDEX 00 03:18:00
FILE "07 - La Chauve-Souris.flac" WAVE
INDEX 01 00:00:00
TRACK 08 AUDIO
TITLE "Le Moucheron"
PERFORMER "Thomas Fersen"
INDEX 00 03:34:10
FILE "08 - Le Moucheron.flac" WAVE
INDEX 01 00:00:00
TRACK 09 AUDIO
TITLE "Chez Toi"
PERFORMER "Thomas Fersen"
INDEX 00 02:42:66
FILE "09 - Chez Toi.flac" WAVE
INDEX 01 00:00:00
TRACK 10 AUDIO
TITLE "La Chandelle"
PERFORMER "Thomas Fersen"
INDEX 00 03:16:21
FILE "10 - La Chandelle.flac" WAVE
INDEX 01 00:00:00

05 Thomas Fersen - Pièces montée des grands jours (2003) [FLAC] // 42:24

Disque d'or en 2003 (Золотой диск)
01 Diane de Poitiers
02 Deux pieds
03 Saint-Jean-du-Doigt
04 Le Chat botté
05 Pièce montée des grands jours (avec Marie Trintignant)
06 Borborygmes
07 Croque
08 Les Cravates
09 Rititi, ratata (il paraît qu'elles aiment)
10 Bambi
11 Né dans une rose

Лог создания рипа

Exact Audio Copy V1.0 beta 3 from 29. August 2011
EAC extraction logfile from 30. December 2012, 11:52
Thomas Fersen / Pièce montée des grands jours
Used drive : HL-DT-STDVDRAM GH22NS40 Adapter: 5 ID: 1
Read mode : SecureUtilize accurate stream : YesDefeat audio cache : YesMake use of C2 pointers : No
Read offset correction : 667Overread into Lead-In and Lead-Out : NoFill up missing offset samples with silence : YesDelete leading and trailing silent blocks : NoNull samples used in CRC calculations : YesUsed interface : Native Win32 interface for Win NT & 2000Gap handling : Appended to previous track
Used output format : User Defined EncoderSelected bitrate : 1024 kBit/sQuality : HighAdd ID3 tag : NoCommand line compressor : C:\Program Files (x86)\Logiciels\FLAC\flac.exeAdditional command line options : -8 -V -T "ARTIST=%artist%" -T "TITLE=%title%" -T "ALBUM=%albumtitle%" -T "DATE=%year%" -T "TRACKNUMBER=%tracknr%" -T "GENRE=%genre%" -T "PERFORMER=%albuminterpret%" -T "COMPOSER=%composer%" %haslyrics%--tag-from-file=LYRICS="%lyricsfile%"%haslyrics% -T "ALBUMARTIST=%albumartist%" -T "DISCNUMBER=%cdnumber%" -T "TOTALDISCS=%totalcds%" -T "TOTALTRACKS=%numtracks%" -T "COMMENT=%comment%" %source% -o %dest%
TOC of the extracted CD
Track | Start | Length | Start sector | End sector --------------------------------------------------------- 1 | 0:00.00 | 3:06.65 | 0 | 14014 2 | 3:06.65 | 3:01.65 | 14015 | 27654 3 | 6:08.55 | 2:52.27 | 27655 | 40581 4 | 9:01.07 | 3:38.40 | 40582 | 56971 5 | 12:39.47 | 4:08.50 | 56972 | 75621 6 | 16:48.22 | 3:29.58 | 75622 | 91354 7 | 20:18.05 | 3:53.27 | 91355 | 108856 8 | 24:11.32 | 3:04.05 | 108857 | 122661 9 | 27:15.37 | 7:16.03 | 122662 | 155364 10 | 34:31.40 | 3:33.30 | 155365 | 171369 11 | 38:04.70 | 4:19.05 | 171370 | 190799 12 | 44:56.00 | 7:41.55 | 202200 | 236829
Track 1
Filename D:\Téléchargements\01 - Diane de Poitiers.wav
Pre-gap length 0:00:02.00
Peak level 97.7 % Extraction speed 0.8 X Track quality 99.9 % Test CRC BDEC300C Copy CRC BDEC300C Accurately ripped (confidence 4) [0EAE1F84] (AR v2) Copy OK
Track 2
Filename D:\Téléchargements\02 - Deux pieds.wav
Peak level 97.7 % Extraction speed 1.0 X Track quality 100.0 % Test CRC F012DB72 Copy CRC F012DB72 Accurately ripped (confidence 4) [B265C216] (AR v2) Copy OK
Track 3
Filename D:\Téléchargements\03 - Saint-Jean-du-doigt.wav
Peak level 97.7 % Extraction speed 1.1 X Track quality 100.0 % Test CRC B38C1494 Copy CRC B38C1494 Accurately ripped (confidence 4) [9F5727EC] (AR v2) Copy OK
Track 4
Filename D:\Téléchargements\04 - Le chat botté.wav
Pre-gap length 0:00:01.48
Peak level 98.8 % Extraction speed 1.2 X Track quality 100.0 % Test CRC 1F8E3588 Copy CRC 1F8E3588 Accurately ripped (confidence 4) [0F1D43C5] (AR v2) Copy OK
Track 5
Filename D:\Téléchargements\05 - Pièce montée des grands jours.wav
Peak level 97.7 % Extraction speed 1.2 X Track quality 99.9 % Test CRC 66C2BCA8 Copy CRC 66C2BCA8 Accurately ripped (confidence 4) [B597EAE6] (AR v2) Copy OK
Track 6
Filename D:\Téléchargements\06 - Borborygmes.wav
Peak level 96.6 % Extraction speed 1.4 X Track quality 100.0 % Test CRC 67E8929F Copy CRC 67E8929F Accurately ripped (confidence 4) [3928C18C] (AR v2) Copy OK
Track 7
Filename D:\Téléchargements\07 - Croque.wav
Peak level 98.8 % Extraction speed 1.3 X Track quality 99.9 % Test CRC B9F5DE30 Copy CRC B9F5DE30 Accurately ripped (confidence 4) [D2A1833F] (AR v2) Copy OK
Track 8
Filename D:\Téléchargements\08 - Les cravates.wav
Peak level 98.8 % Extraction speed 1.5 X Track quality 100.0 % Test CRC 172E2717 Copy CRC 172E2717 Accurately ripped (confidence 4) [B3B5D341] (AR v2) Copy OK
Track 9
Filename D:\Téléchargements\09 - Rititi Ratata (il paraît qu'elles aiment).wav
Pre-gap length 0:00:02.29
Peak level 98.8 % Extraction speed 1.8 X Track quality 100.0 % Test CRC 5B158FAC Copy CRC 5B158FAC Accurately ripped (confidence 4) [8E30ADAE] (AR v2) Copy OK
Track 10
Filename D:\Téléchargements\10 - Bambi.wav
Peak level 98.8 % Extraction speed 1.7 X Track quality 100.0 % Test CRC 311CCE21 Copy CRC 311CCE21 Accurately ripped (confidence 4) [B9703BE1] (AR v2) Copy OK
Track 11
Filename D:\Téléchargements\11 - Né dans une rose.wav
Peak level 98.8 % Extraction speed 1.9 X Track quality 100.0 % Test CRC 124B7F8E Copy CRC 124B7F8E Accurately ripped (confidence 4) [84E8B1AE] (AR v2) Copy OK
All tracks accurately ripped
No errors occurred
End of status report
==== Log checksum 01F5470C58036055D392B9A6D61846B4ACF8C6637BC2B7B22010785FE7FB9A36 ====
------------------------------------------------------------
Exact Audio Copy V1.0 beta 3 from 29. August 2011
EAC extraction logfile from 30. December 2012, 11:52
Thomas Fersen / Pièce montée des grands jours
Used drive : HL-DT-STDVDRAM GH22NS40 Adapter: 5 ID: 1
Read mode : SecureUtilize accurate stream : YesDefeat audio cache : YesMake use of C2 pointers : No
Read offset correction : 667Overread into Lead-In and Lead-Out : NoFill up missing offset samples with silence : YesDelete leading and trailing silent blocks : NoNull samples used in CRC calculations : YesUsed interface : Native Win32 interface for Win NT & 2000Gap handling : Appended to previous track
Used output format : User Defined EncoderSelected bitrate : 1024 kBit/sQuality : HighAdd ID3 tag : NoCommand line compressor : C:\Program Files (x86)\Logiciels\FLAC\flac.exeAdditional command line options : -8 -V -T "ARTIST=%artist%" -T "TITLE=%title%" -T "ALBUM=%albumtitle%" -T "DATE=%year%" -T "TRACKNUMBER=%tracknr%" -T "GENRE=%genre%" -T "PERFORMER=%albuminterpret%" -T "COMPOSER=%composer%" %haslyrics%--tag-from-file=LYRICS="%lyricsfile%"%haslyrics% -T "ALBUMARTIST=%albumartist%" -T "DISCNUMBER=%cdnumber%" -T "TOTALDISCS=%totalcds%" -T "TOTALTRACKS=%numtracks%" -T "COMMENT=%comment%" %source% -o %dest%
TOC of the extracted CD
Track | Start | Length | Start sector | End sector --------------------------------------------------------- 1 | 0:00.00 | 3:06.65 | 0 | 14014 2 | 3:06.65 | 3:01.65 | 14015 | 27654 3 | 6:08.55 | 2:52.27 | 27655 | 40581 4 | 9:01.07 | 3:38.40 | 40582 | 56971 5 | 12:39.47 | 4:08.50 | 56972 | 75621 6 | 16:48.22 | 3:29.58 | 75622 | 91354 7 | 20:18.05 | 3:53.27 | 91355 | 108856 8 | 24:11.32 | 3:04.05 | 108857 | 122661 9 | 27:15.37 | 7:16.03 | 122662 | 155364 10 | 34:31.40 | 3:33.30 | 155365 | 171369 11 | 38:04.70 | 4:19.05 | 171370 | 190799 12 | 44:56.00 | 7:41.55 | 202200 | 236829
Track 1
Filename D:\Téléchargements\01 - Diane de Poitiers.wav
Pre-gap length 0:00:02.00
Peak level 97.7 % Extraction speed 0.8 X Track quality 99.9 % Test CRC BDEC300C Copy CRC BDEC300C Accurately ripped (confidence 4) [0EAE1F84] (AR v2) Copy OK
Track 2
Filename D:\Téléchargements\02 - Deux pieds.wav
Peak level 97.7 % Extraction speed 1.0 X Track quality 100.0 % Test CRC F012DB72 Copy CRC F012DB72 Accurately ripped (confidence 4) [B265C216] (AR v2) Copy OK
Track 3
Filename D:\Téléchargements\03 - Saint-Jean-du-doigt.wav
Peak level 97.7 % Extraction speed 1.1 X Track quality 100.0 % Test CRC B38C1494 Copy CRC B38C1494 Accurately ripped (confidence 4) [9F5727EC] (AR v2) Copy OK
Track 4
Filename D:\Téléchargements\04 - Le chat botté.wav
Pre-gap length 0:00:01.48
Peak level 98.8 % Extraction speed 1.2 X Track quality 100.0 % Test CRC 1F8E3588 Copy CRC 1F8E3588 Accurately ripped (confidence 4) [0F1D43C5] (AR v2) Copy OK
Track 5
Filename D:\Téléchargements\05 - Pièce montée des grands jours.wav
Peak level 97.7 % Extraction speed 1.2 X Track quality 99.9 % Test CRC 66C2BCA8 Copy CRC 66C2BCA8 Accurately ripped (confidence 4) [B597EAE6] (AR v2) Copy OK
Track 6
Filename D:\Téléchargements\06 - Borborygmes.wav
Peak level 96.6 % Extraction speed 1.4 X Track quality 100.0 % Test CRC 67E8929F Copy CRC 67E8929F Accurately ripped (confidence 4) [3928C18C] (AR v2) Copy OK
Track 7
Filename D:\Téléchargements\07 - Croque.wav
Peak level 98.8 % Extraction speed 1.3 X Track quality 99.9 % Test CRC B9F5DE30 Copy CRC B9F5DE30 Accurately ripped (confidence 4) [D2A1833F] (AR v2) Copy OK
Track 8
Filename D:\Téléchargements\08 - Les cravates.wav
Peak level 98.8 % Extraction speed 1.5 X Track quality 100.0 % Test CRC 172E2717 Copy CRC 172E2717 Accurately ripped (confidence 4) [B3B5D341] (AR v2) Copy OK
Track 9
Filename D:\Téléchargements\09 - Rititi Ratata (il paraît qu'elles aiment).wav
Pre-gap length 0:00:02.29
Peak level 98.8 % Extraction speed 1.8 X Track quality 100.0 % Test CRC 5B158FAC Copy CRC 5B158FAC Accurately ripped (confidence 4) [8E30ADAE] (AR v2) Copy OK
Track 10
Filename D:\Téléchargements\10 - Bambi.wav
Peak level 98.8 % Extraction speed 1.7 X Track quality 100.0 % Test CRC 311CCE21 Copy CRC 311CCE21 Accurately ripped (confidence 4) [B9703BE1] (AR v2) Copy OK
Track 11
Filename D:\Téléchargements\11 - Né dans une rose.wav
Peak level 98.8 % Extraction speed 1.9 X Track quality 100.0 % Test CRC 124B7F8E Copy CRC 124B7F8E Accurately ripped (confidence 4) [84E8B1AE] (AR v2) Copy OK
All tracks accurately ripped
No errors occurred
End of status report
==== Log checksum 01F5470C58036055D392B9A6D61846B4ACF8C6637BC2B7B22010785FE7FB9A36 ====

Лог проверки качества

AUDIOCHECKER v2.0 beta (build 457) - by Dester - opdester@freemail.hu~~~~~~~~~~~~~~~~~~~~~~~~~~~~~~~~~~-=== DO NOT EDIT THIS FILE! ===-
Path: ...\AC
01 -=- 01 - Diane de Poitiers.flac -=- CDDA (99%)02 -=- 02 - Deux pieds.flac -=- CDDA (100%)03 -=- 03 - Saint-Jean-du-doigt.flac -=- CDDA (99%)04 -=- 04 - Le chat botte.flac -=- CDDA (100%)05 -=- 05 - Piece montee des grands jours.flac -=- CDDA (100%)06 -=- 06 - Borborygmes.flac -=- CDDA (99%)07 -=- 07 - Croque.flac -=- CDDA (100%)08 -=- 08 - Les cravates.flac -=- CDDA (99%)09 -=- 09 - Rititi Ratata (il parait qu'elles aiment).flac -=- CDDA (100%)10 -=- 10 - Bambi.flac -=- CDDA (99%)11 -=- 11 - Ne dans une rose.flac -=- CDDA (100%)
Summary 99,55% CDDA
251119588

(.CUE)

REM GENRE "Chanson franзaise"
REM DATE 2003
REM DISCID 930C550C
REM COMMENT "ExactAudioCopy v1.0b3"
CATALOG 0825646086924
PERFORMER "Thomas Fersen"
TITLE "Piиce montйe des grands jours"
FILE "01 - Diane de Poitiers.wav" WAVE
TRACK 01 AUDIO
TITLE "Diane de Poitiers"
PERFORMER "Thomas Fersen"
ISRC FRZ040200050
INDEX 01 00:00:00
FILE "02 - Deux pieds.wav" WAVE
TRACK 02 AUDIO
TITLE "Deux pieds"
PERFORMER "Thomas Fersen"
ISRC FRZ040200040
INDEX 01 00:00:00
FILE "03 - Saint-Jean-du-doigt.wav" WAVE
TRACK 03 AUDIO
TITLE "Saint-Jean-du-doigt"
PERFORMER "Thomas Fersen"
ISRC FRZ040200110
INDEX 01 00:00:00
TRACK 04 AUDIO
TITLE "Le chat bottй"
PERFORMER "Thomas Fersen"
ISRC FRZ040200060
INDEX 00 02:50:66
FILE "04 - Le chat bottй.wav" WAVE
INDEX 01 00:00:00
FILE "05 - Piиce montйe des grands jours.wav" WAVE
TRACK 05 AUDIO
TITLE "Piиce montйe des grands jours"
PERFORMER "Thomas Fersen"
ISRC FRZ040200090
INDEX 01 00:00:00
FILE "06 - Borborygmes.wav" WAVE
TRACK 06 AUDIO
TITLE "Borborygmes"
PERFORMER "Thomas Fersen"
ISRC FRZ040200020
INDEX 01 00:00:00
FILE "07 - Croque.wav" WAVE
TRACK 07 AUDIO
TITLE "Croque"
PERFORMER "Thomas Fersen"
ISRC FRZ040200030
INDEX 01 00:00:00
FILE "08 - Les cravates.wav" WAVE
TRACK 08 AUDIO
TITLE "Les cravates"
PERFORMER "Thomas Fersen"
ISRC FRZ040200070
INDEX 01 00:00:00
TRACK 09 AUDIO
TITLE "Rititi Ratata (il paraоt qu'elles aiment)"
PERFORMER "Thomas Fersen"
ISRC FRZ040200100
INDEX 00 03:01:58
FILE "09 - Rititi Ratata (il paraоt qu'elles aiment).wav" WAVE
INDEX 01 00:00:00
FILE "10 - Bambi.wav" WAVE
TRACK 10 AUDIO
TITLE "Bambi"
PERFORMER "Thomas Fersen"
ISRC FRZ040200010
INDEX 01 00:00:00
FILE "11 - Nй dans une rose.wav" WAVE
TRACK 11 AUDIO
TITLE "Nй dans une rose"
PERFORMER "Thomas Fersen"
ISRC FRZ040200080
INDEX 01 00:00:00
TRACK 12 MODEx/2xxx
TITLE "DATA"
PERFORMER "Thomas Fersen"
INDEX 00 04:19:05

06 Thomas Fersen - Le pavillon des fous (2005) [FLAC] // 40:58

01 Hyacinthe
02 Zaza
03 Pégase
04 Mon iguanodon
05 Le Tournis
06 Je n'ai pas la gale
07 Mon macabre
08 Maudie
09 La Chapelle de la joie
10 Ma rêveuse
11 Cosmos

Лог создания рипа

Exact Audio Copy V0.99 prebeta 5 from 4. May 2009
EAC extraction logfile from 22. September 2010, 18:27
Thomas Fersen / Le pavillon des fous
Used drive : TSSTcorpCDDVDW SH-S223F Adapter: 1 ID: 1
Read mode : SecureUtilize accurate stream : YesDefeat audio cache : YesMake use of C2 pointers : No
Read offset correction : 6Overread into Lead-In and Lead-Out : NoFill up missing offset samples with silence : YesDelete leading and trailing silent blocks : NoNull samples used in CRC calculations : YesUsed interface : Native Win32 interface for Win NT & 2000Gap handling : Appended to previous track
Used output format : User Defined EncoderSelected bitrate : 1024 kBit/sQuality : HighAdd ID3 tag : NoCommand line compressor : C:\Program Files\Exact Audio Copy\Flac\flac.exeAdditional command line options : -V -8 -T "artist=%a" -T "title=%t" -T "album=%g" -T "date=%y" -T "tracknumber=%n" -T "genre=%m" %s
TOC of the extracted CD
Track | Start | Length | Start sector | End sector --------------------------------------------------------- 1 | 0:00.00 | 3:51.04 | 0 | 17328 2 | 3:51.04 | 2:52.66 | 17329 | 30294 3 | 6:43.70 | 3:36.10 | 30295 | 46504 4 | 10:20.05 | 3:29.60 | 46505 | 62239 5 | 13:49.65 | 4:34.32 | 62240 | 82821 6 | 18:24.22 | 3:12.59 | 82822 | 97280 7 | 21:37.06 | 4:23.51 | 97281 | 117056 8 | 26:00.57 | 3:20.18 | 117057 | 132074 9 | 29:21.00 | 4:09.51 | 132075 | 150800 10 | 33:30.51 | 2:48.05 | 150801 | 163405 11 | 36:18.56 | 4:39.56 | 163406 | 184386
Track 1
Filename C:\EAC\Thomas Fersen - Le pavillon des fous (2005) - FLAC\01 - Hyacinthe.wav
Pre-gap length 0:00:02.00
Peak level 100.0 % Track quality 100.0 % Test CRC B7603B1C Copy CRC B7603B1C Accurately ripped (confidence 10) [26ABA19B] Copy OK
Track 2
Filename C:\EAC\Thomas Fersen - Le pavillon des fous (2005) - FLAC\02 - Zaza.wav
Peak level 100.0 % Track quality 100.0 % Test CRC 58BA41F0 Copy CRC 58BA41F0 Accurately ripped (confidence 10) [9F56B7F5] Copy OK
Track 3
Filename C:\EAC\Thomas Fersen - Le pavillon des fous (2005) - FLAC\03 - Pйgase.wav
Peak level 100.0 % Track quality 100.0 % Test CRC A2FF4F1E Copy CRC A2FF4F1E Accurately ripped (confidence 10) [B78EDDC5] Copy OK
Track 4
Filename C:\EAC\Thomas Fersen - Le pavillon des fous (2005) - FLAC\04 - Mon iguanodon.wav
Peak level 100.0 % Track quality 100.0 % Test CRC F3374C4D Copy CRC F3374C4D Accurately ripped (confidence 10) [9FDE7F08] Copy OK
Track 5
Filename C:\EAC\Thomas Fersen - Le pavillon des fous (2005) - FLAC\05 - Le tournis.wav
Peak level 100.0 % Track quality 100.0 % Test CRC F8C5ADE4 Copy CRC F8C5ADE4 Accurately ripped (confidence 10) [3012D514] Copy OK
Track 6
Filename C:\EAC\Thomas Fersen - Le pavillon des fous (2005) - FLAC\06 - Je n'ai pas la gale.wav
Pre-gap length 0:00:02.40
Peak level 100.0 % Track quality 100.0 % Test CRC 473F20F2 Copy CRC 473F20F2 Accurately ripped (confidence 10) [71A7C0F2] Copy OK
Track 7
Filename C:\EAC\Thomas Fersen - Le pavillon des fous (2005) - FLAC\07 - Mon macabre.wav
Peak level 100.0 % Track quality 99.9 % Test CRC 50B6D333 Copy CRC 50B6D333 Accurately ripped (confidence 10) [A77AC308] Copy OK
Track 8
Filename C:\EAC\Thomas Fersen - Le pavillon des fous (2005) - FLAC\08 - Maudie.wav
Pre-gap length 0:00:01.33
Peak level 100.0 % Track quality 99.9 % Test CRC B5C8D7FD Copy CRC B5C8D7FD Accurately ripped (confidence 10) [DBAEEAA9] Copy OK
Track 9
Filename C:\EAC\Thomas Fersen - Le pavillon des fous (2005) - FLAC\09 - La chapelle de la joie.wav
Pre-gap length 0:00:01.24
Peak level 100.0 % Track quality 100.0 % Test CRC BED3DB14 Copy CRC BED3DB14 Accurately ripped (confidence 10) [518AC79F] Copy OK
Track 10
Filename C:\EAC\Thomas Fersen - Le pavillon des fous (2005) - FLAC\10 - Ma rкveuse.wav
Pre-gap length 0:00:02.30
Peak level 96.5 % Track quality 100.0 % Test CRC 6D2567D0 Copy CRC 6D2567D0 Accurately ripped (confidence 10) [C1C3E2A2] Copy OK
Track 11
Filename C:\EAC\Thomas Fersen - Le pavillon des fous (2005) - FLAC\11 - Cosmos.wav
Pre-gap length 0:00:04.12
Peak level 100.0 % Track quality 100.0 % Test CRC E882C86A Copy CRC E882C86A Accurately ripped (confidence 10) [93D7A2F0] Copy OK
All tracks accurately ripped
No errors occurred
End of status report

Лог проверки качества

AUDIOCHECKER v2.0 beta (build 457) - by Dester - opdester@freemail.hu~~~~~~~~~~~~~~~~~~~~~~~~~~~~~~~~~~-=== DO NOT EDIT THIS FILE! ===-
Path: ...\AC
01 -=- 01 - Hyacinthe.flac -=- MPEG (73%)02 -=- 02 - Zaza.flac -=- CDDA (100%)03 -=- 03 - Pegase.flac -=- CDDA (99%)04 -=- 04 - Mon iguanodon.flac -=- CDDA (100%)05 -=- 05 - Le tournis.flac -=- CDDA (100%)06 -=- 06 - Je n'ai pas la gale.flac -=- CDDA (100%)07 -=- 07 - Mon macabre.flac -=- MPEG (95%)08 -=- 08 - Maudie.flac -=- CDDA (100%)09 -=- 09 - La chapelle de la joie.flac -=- CDDA (100%)10 -=- 10 - Ma reveuse.flac -=- MPEG (95%)11 -=- 11 - Cosmos.flac -=- CDDA (100%)
Summary 76,00% CDDA
154181988
Track1

Track7

(.CUE)

REM GENRE Chanson
REM DATE 2005
REM DISCID 75099A0B
REM COMMENT "ExactAudioCopy v0.99pb5"
FILE "Thomas Fersen - Le pavillon des fous (2005) - FLAC\01 - Hyacinthe.wav" WAVE
TRACK 01 AUDIO
FLAGS DCP
INDEX 01 00:00:00
FILE "Thomas Fersen - Le pavillon des fous (2005) - FLAC\02 - Zaza.wav" WAVE
TRACK 02 AUDIO
FLAGS DCP
INDEX 01 00:00:00
FILE "Thomas Fersen - Le pavillon des fous (2005) - FLAC\03 - Pйgase.wav" WAVE
TRACK 03 AUDIO
FLAGS DCP
INDEX 01 00:00:00
FILE "Thomas Fersen - Le pavillon des fous (2005) - FLAC\04 - Mon iguanodon.wav" WAVE
TRACK 04 AUDIO
FLAGS DCP
INDEX 01 00:00:00
FILE "Thomas Fersen - Le pavillon des fous (2005) - FLAC\05 - Le tournis.wav" WAVE
TRACK 05 AUDIO
FLAGS DCP
INDEX 01 00:00:00
TRACK 06 AUDIO
FLAGS DCP
INDEX 00 04:32:02
FILE "Thomas Fersen - Le pavillon des fous (2005) - FLAC\06 - Je n'ai pas la gale.wav" WAVE
INDEX 01 00:00:00
FILE "Thomas Fersen - Le pavillon des fous (2005) - FLAC\07 - Mon macabre.wav" WAVE
TRACK 07 AUDIO
FLAGS DCP
INDEX 01 00:00:00
TRACK 08 AUDIO
FLAGS DCP
INDEX 00 04:22:26
FILE "Thomas Fersen - Le pavillon des fous (2005) - FLAC\08 - Maudie.wav" WAVE
INDEX 01 00:00:00
TRACK 09 AUDIO
INDEX 00 03:19:00
FILE "Thomas Fersen - Le pavillon des fous (2005) - FLAC\09 - La chapelle de la joie.wav" WAVE
INDEX 01 00:00:00
TRACK 10 AUDIO
FLAGS DCP
INDEX 00 04:07:28
FILE "Thomas Fersen - Le pavillon des fous (2005) - FLAC\10 - Ma rкveuse.wav" WAVE
INDEX 01 00:00:00
TRACK 11 AUDIO
FLAGS DCP
INDEX 00 02:43:71
FILE "Thomas Fersen - Le pavillon des fous (2005) - FLAC\11 - Cosmos.wav" WAVE
INDEX 01 00:00:00

07 best of de poche ; Thomas Fersen - Gratte moi la puce (2007) [FLAC] // 70:57

Cet album est constitué de reprises jouées au ukulélé (исполнено на укулеле)
01 Les Papillons
02 Monsieur
03 Croque
04 La Chauve-souris
05 Pégase
06 Diane-de-Poitiers
07 Hyacinthe
08 Je suis dev'nue la bonne
09 Le Chat botté
10 Zaza
11 Le Bal des oiseaux
12 Les Malheurs du lion
13 Pièce montée des grands jours
14 Mon macabre
15 Georges (Inedit)
16 Louise
17 Bella Ciao
18 Bijou
19 Saint-Jean-Du-Doigt
20 La Blatte

Лог создания рипа

Exact Audio Copy V0.99 prebeta 5 from 4. May 2009
EAC extraction logfile from 22. September 2010, 17:54
Thomas Fersen / Gratte la Puce
Used drive : TSSTcorpCDDVDW SH-S223F Adapter: 1 ID: 1
Read mode : SecureUtilize accurate stream : YesDefeat audio cache : YesMake use of C2 pointers : No
Read offset correction : 6Overread into Lead-In and Lead-Out : NoFill up missing offset samples with silence : YesDelete leading and trailing silent blocks : NoNull samples used in CRC calculations : YesUsed interface : Native Win32 interface for Win NT & 2000Gap handling : Appended to previous track
Used output format : User Defined EncoderSelected bitrate : 1024 kBit/sQuality : HighAdd ID3 tag : NoCommand line compressor : C:\Program Files\Exact Audio Copy\Flac\flac.exeAdditional command line options : -V -8 -T "artist=%a" -T "title=%t" -T "album=%g" -T "date=%y" -T "tracknumber=%n" -T "genre=%m" %s
TOC of the extracted CD
Track | Start | Length | Start sector | End sector --------------------------------------------------------- 1 | 0:00.00 | 4:47.26 | 0 | 21550 2 | 4:47.26 | 3:33.13 | 21551 | 37538 3 | 8:20.39 | 3:25.21 | 37539 | 52934 4 | 11:45.60 | 4:14.31 | 52935 | 72015 5 | 16:00.16 | 3:33.05 | 72016 | 87995 6 | 19:33.21 | 3:12.40 | 87996 | 102435 7 | 22:45.61 | 3:34.73 | 102436 | 118558 8 | 26:20.59 | 3:56.64 | 118559 | 136322 9 | 30:17.48 | 3:55.72 | 136323 | 154019 10 | 34:13.45 | 2:48.40 | 154020 | 166659 11 | 37:02.10 | 3:58.13 | 166660 | 184522 12 | 41:00.23 | 3:43.62 | 184523 | 201309 13 | 44:44.10 | 3:54.04 | 201310 | 218863 14 | 48:38.14 | 3:53.61 | 218864 | 236399 15 | 52:32.00 | 3:43.47 | 236400 | 253171 16 | 56:15.47 | 2:20.02 | 253172 | 263673 17 | 58:35.49 | 2:42.61 | 263674 | 275884 18 | 61:18.35 | 3:32.56 | 275885 | 291840 19 | 64:51.16 | 2:55.00 | 291841 | 304965 20 | 67:46.16 | 3:11.58 | 304966 | 319348
Track 1
Filename C:\EAC\Thomas Fersen - Gratte la Puce (2007) - FLAC\01 - Les papillons.wav
Pre-gap length 0:00:02.00
Peak level 100.0 % Track quality 100.0 % Test CRC 965E400A Copy CRC 965E400A Accurately ripped (confidence 7) [9617C89C] Copy OK
Track 2
Filename C:\EAC\Thomas Fersen - Gratte la Puce (2007) - FLAC\02 - Monsieur.wav
Pre-gap length 0:00:03.74
Peak level 100.0 % Track quality 99.9 % Test CRC D96AA69E Copy CRC D96AA69E Accurately ripped (confidence 7) [9A4AEAA2] Copy OK
Track 3
Filename C:\EAC\Thomas Fersen - Gratte la Puce (2007) - FLAC\03 - Croque.wav
Pre-gap length 0:00:03.74
Peak level 100.0 % Track quality 100.0 % Test CRC DC63E7CA Copy CRC DC63E7CA Accurately ripped (confidence 7) [BF9DBFBE] Copy OK
Track 4
Filename C:\EAC\Thomas Fersen - Gratte la Puce (2007) - FLAC\04 - La chauve-souris.wav
Pre-gap length 0:00:02.46
Peak level 99.3 % Track quality 100.0 % Test CRC 58A7C3DB Copy CRC 58A7C3DB Accurately ripped (confidence 7) [6AA36A9B] Copy OK
Track 5
Filename C:\EAC\Thomas Fersen - Gratte la Puce (2007) - FLAC\05 - Pegase.wav
Pre-gap length 0:00:03.74
Peak level 100.0 % Track quality 100.0 % Test CRC 89B11812 Copy CRC 89B11812 Accurately ripped (confidence 7) [8D0A79EE] Copy OK
Track 6
Filename C:\EAC\Thomas Fersen - Gratte la Puce (2007) - FLAC\06 - Diane-de-Poitiers.wav
Pre-gap length 0:00:03.74
Peak level 100.0 % Track quality 100.0 % Test CRC F83B6B29 Copy CRC F83B6B29 Accurately ripped (confidence 7) [B8849789] Copy OK
Track 7
Filename C:\EAC\Thomas Fersen - Gratte la Puce (2007) - FLAC\07 - Hyacinthe.wav
Pre-gap length 0:00:03.74
Peak level 100.0 % Track quality 100.0 % Test CRC 402A290A Copy CRC 402A290A Accurately ripped (confidence 7) [0D1217DB] Copy OK
Track 8
Filename C:\EAC\Thomas Fersen - Gratte la Puce (2007) - FLAC\08 - Je suis dev'nue la bonne.wav
Pre-gap length 0:00:03.74
Peak level 100.0 % Track quality 100.0 % Test CRC 6AC5CCA3 Copy CRC 6AC5CCA3 Accurately ripped (confidence 7) [917CBC31] Copy OK
Track 9
Filename C:\EAC\Thomas Fersen - Gratte la Puce (2007) - FLAC\09 - Le chat botte.wav
Pre-gap length 0:00:03.74
Peak level 100.0 % Track quality 100.0 % Test CRC 3AFD3919 Copy CRC 3AFD3919 Accurately ripped (confidence 7) [7BC1F3B9] Copy OK
Track 10
Filename C:\EAC\Thomas Fersen - Gratte la Puce (2007) - FLAC\10 - Zaza.wav
Pre-gap length 0:00:03.74
Peak level 100.0 % Track quality 100.0 % Test CRC 636AD032 Copy CRC 636AD032 Accurately ripped (confidence 7) [11A34B31] Copy OK
Track 11
Filename C:\EAC\Thomas Fersen - Gratte la Puce (2007) - FLAC\11 - Le bal des oiseaux.wav
Pre-gap length 0:00:03.74
Peak level 99.4 % Track quality 100.0 % Test CRC 69AE6D9E Copy CRC 69AE6D9E Accurately ripped (confidence 7) [B4D5CC04] Copy OK
Track 12
Filename C:\EAC\Thomas Fersen - Gratte la Puce (2007) - FLAC\12 - Les malheurs du lion.wav
Pre-gap length 0:00:03.74
Peak level 98.8 % Track quality 100.0 % Test CRC 0511B4AD Copy CRC 0511B4AD Accurately ripped (confidence 7) [8C408896] Copy OK
Track 13
Filename C:\EAC\Thomas Fersen - Gratte la Puce (2007) - FLAC\13 - Piece montee des grands jours.wav
Pre-gap length 0:00:03.74
Peak level 100.0 % Track quality 100.0 % Test CRC 182BD958 Copy CRC 182BD958 Accurately ripped (confidence 7) [DA6AA2C1] Copy OK
Track 14
Filename C:\EAC\Thomas Fersen - Gratte la Puce (2007) - FLAC\14 - Mon macabre.wav
Pre-gap length 0:00:03.00
Peak level 100.0 % Track quality 100.0 % Test CRC BB11C9D5 Copy CRC BB11C9D5 Accurately ripped (confidence 7) [670B874A] Copy OK
Track 15
Filename C:\EAC\Thomas Fersen - Gratte la Puce (2007) - FLAC\15 - Georges.wav
Pre-gap length 0:00:03.74
Peak level 99.1 % Track quality 100.0 % Test CRC 23C7045E Copy CRC 23C7045E Accurately ripped (confidence 7) [FCF7B490] Copy OK
Track 16
Filename C:\EAC\Thomas Fersen - Gratte la Puce (2007) - FLAC\16 - Louise.wav
Pre-gap length 0:00:03.74
Peak level 100.0 % Track quality 100.0 % Test CRC 4F00910A Copy CRC 4F00910A Accurately ripped (confidence 7) [45151E3E] Copy OK
Track 17
Filename C:\EAC\Thomas Fersen - Gratte la Puce (2007) - FLAC\17 - Bella ciao.wav
Pre-gap length 0:00:03.74
Peak level 97.8 % Track quality 100.0 % Test CRC 2A161A17 Copy CRC 2A161A17 Accurately ripped (confidence 7) [C91C5BC9] Copy OK
Track 18
Filename C:\EAC\Thomas Fersen - Gratte la Puce (2007) - FLAC\18 - Bijou.wav
Pre-gap length 0:00:03.74
Peak level 99.3 % Track quality 100.0 % Test CRC DBBC4C4B Copy CRC DBBC4C4B Accurately ripped (confidence 7) [D7F7F5E9] Copy OK
Track 19
Filename C:\EAC\Thomas Fersen - Gratte la Puce (2007) - FLAC\19 - Saint-Jean-Du-Doigt.wav
Pre-gap length 0:00:03.74
Peak level 96.3 % Track quality 99.9 % Test CRC 6ADA4025 Copy CRC 6ADA4025 Accurately ripped (confidence 7) [080C2F79] Copy OK
Track 20
Filename C:\EAC\Thomas Fersen - Gratte la Puce (2007) - FLAC\20 - La blatte.wav
Pre-gap length 0:00:03.74
Peak level 100.0 % Track quality 100.0 % Test CRC EA552642 Copy CRC EA552642 Accurately ripped (confidence 7) [4A4ABBB5] Copy OK
All tracks accurately ripped
No errors occurred
End of status report

Лог проверки качества

AUDIOCHECKER v2.0 beta (build 457) - by Dester - opdester@freemail.hu~~~~~~~~~~~~~~~~~~~~~~~~~~~~~~~~~~-=== DO NOT EDIT THIS FILE! ===-
Path: ...\AC
01 -=- 01 - Les papillons.flac -=- CDDA (100%)02 -=- 02 - Monsieur.flac -=- CDDA (100%)03 -=- 03 - Croque.flac -=- CDDA (100%)04 -=- 04 - La chauve-souris.flac -=- CDDA (100%)05 -=- 05 - Pegase.flac -=- CDDA (100%)06 -=- 06 - Diane-de-Poitiers.flac -=- CDDA (100%)07 -=- 07 - Hyacinthe.flac -=- CDDA (100%)08 -=- 08 - Je suis dev'nue la bonne.flac -=- MPEG (95%)09 -=- 09 - Le chat botte.flac -=- CDDA (100%)10 -=- 10 - Zaza.flac -=- CDDA (100%)11 -=- 11 - Le bal des oiseaux.flac -=- CDDA (100%)12 -=- 12 - Les malheurs du lion.flac -=- CDDA (100%)13 -=- 13 - Piece montee des grands jours.flac -=- CDDA (100%)14 -=- 14 - Mon macabre.flac -=- CDDA (100%)15 -=- 15 - Georges.flac -=- CDDA (100%)16 -=- 16 - Louise.flac -=- CDDA (100%)17 -=- 17 - Bella ciao.flac -=- CDDA (100%)18 -=- 18 - Bijou.flac -=- CDDA (100%)19 -=- 19 - Saint-Jean-Du-Doigt.flac -=- CDDA (100%)20 -=- 20 - La blatte.flac -=- CDDA (100%)
Summary 95,25% CDDA
260345140
08track

(.CUE)

REM GENRE Chanson
REM DATE 2007
REM DISCID 3010A114
REM COMMENT "ExactAudioCopy v0.99pb5"
FILE "Thomas Fersen - Gratte la Puce (2007) - FLAC\01 - Les papillons.wav" WAVE
TRACK 01 AUDIO
INDEX 01 00:00:00
TRACK 02 AUDIO
INDEX 00 04:43:45
FILE "Thomas Fersen - Gratte la Puce (2007) - FLAC\02 - Monsieur.wav" WAVE
INDEX 01 00:00:00
TRACK 03 AUDIO
INDEX 00 03:29:32
FILE "Thomas Fersen - Gratte la Puce (2007) - FLAC\03 - Croque.wav" WAVE
INDEX 01 00:00:00
TRACK 04 AUDIO
INDEX 00 03:22:61
FILE "Thomas Fersen - Gratte la Puce (2007) - FLAC\04 - La chauve-souris.wav" WAVE
INDEX 01 00:00:00
TRACK 05 AUDIO
INDEX 00 04:10:50
FILE "Thomas Fersen - Gratte la Puce (2007) - FLAC\05 - Pegase.wav" WAVE
INDEX 01 00:00:00
TRACK 06 AUDIO
INDEX 00 03:29:24
FILE "Thomas Fersen - Gratte la Puce (2007) - FLAC\06 - Diane-de-Poitiers.wav" WAVE
INDEX 01 00:00:00
TRACK 07 AUDIO
INDEX 00 03:08:59
FILE "Thomas Fersen - Gratte la Puce (2007) - FLAC\07 - Hyacinthe.wav" WAVE
INDEX 01 00:00:00
TRACK 08 AUDIO
INDEX 00 03:31:17
FILE "Thomas Fersen - Gratte la Puce (2007) - FLAC\08 - Je suis dev'nue la bonne.wav" WAVE
INDEX 01 00:00:00
TRACK 09 AUDIO
INDEX 00 03:53:08
FILE "Thomas Fersen - Gratte la Puce (2007) - FLAC\09 - Le chat botte.wav" WAVE
INDEX 01 00:00:00
TRACK 10 AUDIO
INDEX 00 03:52:16
FILE "Thomas Fersen - Gratte la Puce (2007) - FLAC\10 - Zaza.wav" WAVE
INDEX 01 00:00:00
TRACK 11 AUDIO
INDEX 00 02:44:59
FILE "Thomas Fersen - Gratte la Puce (2007) - FLAC\11 - Le bal des oiseaux.wav" WAVE
INDEX 01 00:00:00
TRACK 12 AUDIO
INDEX 00 03:54:32
FILE "Thomas Fersen - Gratte la Puce (2007) - FLAC\12 - Les malheurs du lion.wav" WAVE
INDEX 01 00:00:00
TRACK 13 AUDIO
INDEX 00 03:40:06
FILE "Thomas Fersen - Gratte la Puce (2007) - FLAC\13 - Piece montee des grands jours.wav" WAVE
INDEX 01 00:00:00
TRACK 14 AUDIO
INDEX 00 03:51:04
FILE "Thomas Fersen - Gratte la Puce (2007) - FLAC\14 - Mon macabre.wav" WAVE
INDEX 01 00:00:00
TRACK 15 AUDIO
INDEX 00 03:50:05
FILE "Thomas Fersen - Gratte la Puce (2007) - FLAC\15 - Georges.wav" WAVE
INDEX 01 00:00:00
TRACK 16 AUDIO
INDEX 00 03:39:66
FILE "Thomas Fersen - Gratte la Puce (2007) - FLAC\16 - Louise.wav" WAVE
INDEX 01 00:00:00
TRACK 17 AUDIO
INDEX 00 02:16:21
FILE "Thomas Fersen - Gratte la Puce (2007) - FLAC\17 - Bella ciao.wav" WAVE
INDEX 01 00:00:00
TRACK 18 AUDIO
INDEX 00 02:39:05
FILE "Thomas Fersen - Gratte la Puce (2007) - FLAC\18 - Bijou.wav" WAVE
INDEX 01 00:00:00
TRACK 19 AUDIO
INDEX 00 03:29:00
FILE "Thomas Fersen - Gratte la Puce (2007) - FLAC\19 - Saint-Jean-Du-Doigt.wav" WAVE
INDEX 01 00:00:00
TRACK 20 AUDIO
INDEX 00 02:51:19
FILE "Thomas Fersen - Gratte la Puce (2007) - FLAC\20 - La blatte.wav" WAVE
INDEX 01 00:00:00

08 Thomas Fersen - Trois Petits Tours (2008) [FLAC] // 40:09


01 Germaine
02 Ukulélé
03 Chocolat
04 Formol
05 Punaise
06 Les Mouches
07 Gratte-dos
08 Ce qu'il me dit
09 Concombre
10 Embarque dans ma valise
11 La Malle

Лог создания рипа

Exact Audio Copy V1.0 beta 3 from 29. August 2011
EAC extraction logfile from 14. March 2012, 18:01
Thomas Fersen / Trois Petits Tours
Used drive : TSSTcorpCDDVDW SN-S083F Adapter: 0 ID: 0
Read mode : SecureUtilize accurate stream : YesDefeat audio cache : YesMake use of C2 pointers : No
Read offset correction : 6Overread into Lead-In and Lead-Out : NoFill up missing offset samples with silence : YesDelete leading and trailing silent blocks : NoNull samples used in CRC calculations : YesUsed interface : Native Win32 interface for Win NT & 2000Gap handling : Appended to previous track
Used output format : User Defined EncoderSelected bitrate : 1024 kBit/sQuality : HighAdd ID3 tag : NoCommand line compressor : C:\Program Files (x86)\FLAC\flac.exeAdditional command line options : -8 -V -T "ARTIST=%artist%" -T "TITLE=%title%" -T "ALBUM=%albumtitle%" -T "DATE=%year%" -T "TRACKNUMBER=%tracknr%" -T "GENRE=%genre%" -T "PERFORMER=%albuminterpret%" -T "COMPOSER=%composer%" %haslyrics%--tag-from-file=LYRICS="%lyricsfile%"%haslyrics% -T "ALBUMARTIST=%albumartist%" -T "DISCNUMBER=%cdnumber%" -T "TOTALDISCS=%totalcds%" -T "TOTALTRACKS=%numtracks%" -T "COMMENT=%comment%" %source% -o %dest%
TOC of the extracted CD
Track | Start | Length | Start sector | End sector --------------------------------------------------------- 1 | 0:00.00 | 3:28.46 | 0 | 15645 2 | 3:28.46 | 3:07.38 | 15646 | 29708 3 | 6:36.09 | 2:54.67 | 29709 | 42825 4 | 9:31.01 | 4:35.18 | 42826 | 63468 5 | 14:06.19 | 3:33.41 | 63469 | 79484 6 | 17:39.60 | 3:24.09 | 79485 | 94793 7 | 21:03.69 | 2:22.11 | 94794 | 105454 8 | 23:26.05 | 3:10.45 | 105455 | 119749 9 | 26:36.50 | 4:07.02 | 119750 | 138276 10 | 30:43.52 | 4:01.13 | 138277 | 156364 11 | 34:44.65 | 5:24.15 | 156365 | 180679
Track 1
Filename D:\RIP\Thomas Fersen - Trois Petits Tours\01 Germaine.wav
Pre-gap length 0:00:02.00
Peak level 99.8 % Extraction speed 2.4 X Track quality 100.0 % Test CRC C7A78AA2 Copy CRC C7A78AA2 Accurately ripped (confidence 11) [5D5CC4D2] (AR v1) Copy OK
Track 2
Filename D:\RIP\Thomas Fersen - Trois Petits Tours\02 Ukulélé.wav
Peak level 99.8 % Extraction speed 2.6 X Track quality 100.0 % Test CRC A3F7D129 Copy CRC A3F7D129 Accurately ripped (confidence 11) [D8CBCAA4] (AR v1) Copy OK
Track 3
Filename D:\RIP\Thomas Fersen - Trois Petits Tours\03 Chocolat.wav
Peak level 99.8 % Extraction speed 2.7 X Track quality 100.0 % Test CRC 1DC9F0B0 Copy CRC 1DC9F0B0 Accurately ripped (confidence 11) [48DCDF3C] (AR v1) Copy OK
Track 4
Filename D:\RIP\Thomas Fersen - Trois Petits Tours\04 Formol.wav
Peak level 99.8 % Extraction speed 2.7 X Track quality 99.9 % Test CRC A97AE478 Copy CRC A97AE478 Accurately ripped (confidence 11) [11668877] (AR v1) Copy OK
Track 5
Filename D:\RIP\Thomas Fersen - Trois Petits Tours\05 Punaise.wav
Peak level 99.8 % Extraction speed 3.3 X Track quality 100.0 % Test CRC 50BBEBE6 Copy CRC 50BBEBE6 Accurately ripped (confidence 10) [1FB28002] (AR v1) Copy OK
Track 6
Filename D:\RIP\Thomas Fersen - Trois Petits Tours\06 Les mouches.wav
Peak level 99.8 % Extraction speed 3.4 X Track quality 100.0 % Test CRC 5A6E3721 Copy CRC 5A6E3721 Accurately ripped (confidence 10) [82002F1E] (AR v1) Copy OK
Track 7
Filename D:\RIP\Thomas Fersen - Trois Petits Tours\07 Gratte-dos.wav
Pre-gap length 0:00:01.86
Peak level 99.8 % Extraction speed 3.3 X Track quality 100.0 % Test CRC 0EA1820F Copy CRC 0EA1820F Accurately ripped (confidence 10) [6E078E74] (AR v1) Copy OK
Track 8
Filename D:\RIP\Thomas Fersen - Trois Petits Tours\08 Ce qu'il me dit.wav
Pre-gap length 0:00:01.46
Peak level 99.8 % Extraction speed 3.6 X Track quality 100.0 % Test CRC 2375CA63 Copy CRC 2375CA63 Accurately ripped (confidence 10) [DCCF65C9] (AR v1) Copy OK
Track 9
Filename D:\RIP\Thomas Fersen - Trois Petits Tours\09 Concombre.wav
Peak level 99.8 % Extraction speed 3.9 X Track quality 100.0 % Test CRC 3997993D Copy CRC 3997993D Accurately ripped (confidence 10) [727DC795] (AR v1) Copy OK
Track 10
Filename D:\RIP\Thomas Fersen - Trois Petits Tours\10 Embarque dans ma Valise.wav
Pre-gap length 0:00:01.74
Peak level 99.8 % Extraction speed 4.1 X Track quality 100.0 % Test CRC D162814A Copy CRC D162814A Accurately ripped (confidence 11) [E176DD56] (AR v1) Copy OK
Track 11
Filename D:\RIP\Thomas Fersen - Trois Petits Tours\11 La Malle.wav
Pre-gap length 0:00:01.37
Peak level 99.8 % Extraction speed 4.5 X Track quality 100.0 % Test CRC 083B4423 Copy CRC 083B4423 Accurately ripped (confidence 10) [351D95C5] (AR v1) Copy OK
All tracks accurately ripped
No errors occurred
End of status report
---- CUETools DB Plugin V2.1.3
[CTDB TOCID: x_JROiCQ.Ffi_Gde0az1bXIMYxc-] disk not present in database, Submit result: x_JROiCQ.Ffi_Gde0az1bXIMYxc- has been uploaded
==== Log checksum 85FEBFC5064A7D6F9F2367AC4D22FFF7308D21C192BA1133FCC726F436182B2D ====
------------------------------------------------------------
Exact Audio Copy V1.0 beta 3 from 29. August 2011
EAC extraction logfile from 14. March 2012, 18:01
Thomas Fersen / Trois Petits Tours
Used drive : TSSTcorpCDDVDW SN-S083F Adapter: 0 ID: 0
Read mode : SecureUtilize accurate stream : YesDefeat audio cache : YesMake use of C2 pointers : No
Read offset correction : 6Overread into Lead-In and Lead-Out : NoFill up missing offset samples with silence : YesDelete leading and trailing silent blocks : NoNull samples used in CRC calculations : YesUsed interface : Native Win32 interface for Win NT & 2000Gap handling : Appended to previous track
Used output format : User Defined EncoderSelected bitrate : 1024 kBit/sQuality : HighAdd ID3 tag : NoCommand line compressor : C:\Program Files (x86)\FLAC\flac.exeAdditional command line options : -8 -V -T "ARTIST=%artist%" -T "TITLE=%title%" -T "ALBUM=%albumtitle%" -T "DATE=%year%" -T "TRACKNUMBER=%tracknr%" -T "GENRE=%genre%" -T "PERFORMER=%albuminterpret%" -T "COMPOSER=%composer%" %haslyrics%--tag-from-file=LYRICS="%lyricsfile%"%haslyrics% -T "ALBUMARTIST=%albumartist%" -T "DISCNUMBER=%cdnumber%" -T "TOTALDISCS=%totalcds%" -T "TOTALTRACKS=%numtracks%" -T "COMMENT=%comment%" %source% -o %dest%
TOC of the extracted CD
Track | Start | Length | Start sector | End sector --------------------------------------------------------- 1 | 0:00.00 | 3:28.46 | 0 | 15645 2 | 3:28.46 | 3:07.38 | 15646 | 29708 3 | 6:36.09 | 2:54.67 | 29709 | 42825 4 | 9:31.01 | 4:35.18 | 42826 | 63468 5 | 14:06.19 | 3:33.41 | 63469 | 79484 6 | 17:39.60 | 3:24.09 | 79485 | 94793 7 | 21:03.69 | 2:22.11 | 94794 | 105454 8 | 23:26.05 | 3:10.45 | 105455 | 119749 9 | 26:36.50 | 4:07.02 | 119750 | 138276 10 | 30:43.52 | 4:01.13 | 138277 | 156364 11 | 34:44.65 | 5:24.15 | 156365 | 180679
Track 1
Filename D:\RIP\Thomas Fersen - Trois Petits Tours\01 Germaine.wav
Pre-gap length 0:00:02.00
Peak level 99.8 % Extraction speed 2.4 X Track quality 100.0 % Test CRC C7A78AA2 Copy CRC C7A78AA2 Accurately ripped (confidence 11) [5D5CC4D2] (AR v1) Copy OK
Track 2
Filename D:\RIP\Thomas Fersen - Trois Petits Tours\02 Ukulélé.wav
Peak level 99.8 % Extraction speed 2.6 X Track quality 100.0 % Test CRC A3F7D129 Copy CRC A3F7D129 Accurately ripped (confidence 11) [D8CBCAA4] (AR v1) Copy OK
Track 3
Filename D:\RIP\Thomas Fersen - Trois Petits Tours\03 Chocolat.wav
Peak level 99.8 % Extraction speed 2.7 X Track quality 100.0 % Test CRC 1DC9F0B0 Copy CRC 1DC9F0B0 Accurately ripped (confidence 11) [48DCDF3C] (AR v1) Copy OK
Track 4
Filename D:\RIP\Thomas Fersen - Trois Petits Tours\04 Formol.wav
Peak level 99.8 % Extraction speed 2.7 X Track quality 99.9 % Test CRC A97AE478 Copy CRC A97AE478 Accurately ripped (confidence 11) [11668877] (AR v1) Copy OK
Track 5
Filename D:\RIP\Thomas Fersen - Trois Petits Tours\05 Punaise.wav
Peak level 99.8 % Extraction speed 3.3 X Track quality 100.0 % Test CRC 50BBEBE6 Copy CRC 50BBEBE6 Accurately ripped (confidence 10) [1FB28002] (AR v1) Copy OK
Track 6
Filename D:\RIP\Thomas Fersen - Trois Petits Tours\06 Les mouches.wav
Peak level 99.8 % Extraction speed 3.4 X Track quality 100.0 % Test CRC 5A6E3721 Copy CRC 5A6E3721 Accurately ripped (confidence 10) [82002F1E] (AR v1) Copy OK
Track 7
Filename D:\RIP\Thomas Fersen - Trois Petits Tours\07 Gratte-dos.wav
Pre-gap length 0:00:01.86
Peak level 99.8 % Extraction speed 3.3 X Track quality 100.0 % Test CRC 0EA1820F Copy CRC 0EA1820F Accurately ripped (confidence 10) [6E078E74] (AR v1) Copy OK
Track 8
Filename D:\RIP\Thomas Fersen - Trois Petits Tours\08 Ce qu'il me dit.wav
Pre-gap length 0:00:01.46
Peak level 99.8 % Extraction speed 3.6 X Track quality 100.0 % Test CRC 2375CA63 Copy CRC 2375CA63 Accurately ripped (confidence 10) [DCCF65C9] (AR v1) Copy OK
Track 9
Filename D:\RIP\Thomas Fersen - Trois Petits Tours\09 Concombre.wav
Peak level 99.8 % Extraction speed 3.9 X Track quality 100.0 % Test CRC 3997993D Copy CRC 3997993D Accurately ripped (confidence 10) [727DC795] (AR v1) Copy OK
Track 10
Filename D:\RIP\Thomas Fersen - Trois Petits Tours\10 Embarque dans ma Valise.wav
Pre-gap length 0:00:01.74
Peak level 99.8 % Extraction speed 4.1 X Track quality 100.0 % Test CRC D162814A Copy CRC D162814A Accurately ripped (confidence 11) [E176DD56] (AR v1) Copy OK
Track 11
Filename D:\RIP\Thomas Fersen - Trois Petits Tours\11 La Malle.wav
Pre-gap length 0:00:01.37
Peak level 99.8 % Extraction speed 4.5 X Track quality 100.0 % Test CRC 083B4423 Copy CRC 083B4423 Accurately ripped (confidence 10) [351D95C5] (AR v1) Copy OK
All tracks accurately ripped
No errors occurred
End of status report
---- CUETools DB Plugin V2.1.3
[CTDB TOCID: x_JROiCQ.Ffi_Gde0az1bXIMYxc-] disk not present in database, Submit result: x_JROiCQ.Ffi_Gde0az1bXIMYxc- has been uploaded
==== Log checksum 85FEBFC5064A7D6F9F2367AC4D22FFF7308D21C192BA1133FCC726F436182B2D ====

Лог проверки качества

AUDIOCHECKER v2.0 beta (build 457) - by Dester - opdester@freemail.hu~~~~~~~~~~~~~~~~~~~~~~~~~~~~~~~~~~-=== DO NOT EDIT THIS FILE! ===-
Path: ...\AC
01 -=- 01 Germaine.flac -=- CDDA (100%)02 -=- 02 Ukulele.flac -=- CDDA (100%)03 -=- 03 Chocolat.flac -=- CDDA (99%)04 -=- 04 Formol.flac -=- CDDA (100%)05 -=- 05 Punaise.flac -=- CDDA (100%)06 -=- 06 Les mouches.flac -=- CDDA (99%)07 -=- 07 Gratte-dos.flac -=- CDDA (100%)08 -=- 08 Ce qu'il me dit.flac -=- CDDA (100%)09 -=- 09 Concombre.flac -=- CDDA (100%)10 -=- 10 Embarque dans ma Valise.flac -=- CDDA (100%)11 -=- 11 La Malle.flac -=- CDDA (100%)
Summary 99,82% CDDA
54185252

(.CUE)

REM GENRE "Chanson franзaise"
REM DATE 2008
REM DISCID 9809690B
REM COMMENT "ExactAudioCopy v1.0b3"
PERFORMER "Thomas Fersen"
TITLE "Trois Petits Tours"
FILE "01 Germaine.wav" WAVE
TRACK 01 AUDIO
TITLE "Germaine"
PERFORMER "Thomas Fersen"
ISRC FRZ040800123
INDEX 01 00:00:00
FILE "02 Ukulйlй.wav" WAVE
TRACK 02 AUDIO
TITLE "Ukulйlй"
PERFORMER "Thomas Fersen"
ISRC FRZ040800124
INDEX 01 00:00:00
FILE "03 Chocolat.wav" WAVE
TRACK 03 AUDIO
TITLE "Chocolat"
PERFORMER "Thomas Fersen"
ISRC FRZ040800125
INDEX 01 00:00:00
FILE "04 Formol.wav" WAVE
TRACK 04 AUDIO
TITLE "Formol"
PERFORMER "Thomas Fersen"
ISRC FRZ040800126
INDEX 01 00:00:00
FILE "05 Punaise.wav" WAVE
TRACK 05 AUDIO
TITLE "Punaise"
PERFORMER "Thomas Fersen"
ISRC FRZ040800127
INDEX 01 00:00:00
FILE "06 Les mouches.wav" WAVE
TRACK 06 AUDIO
TITLE "Les mouches"
PERFORMER "Thomas Fersen"
ISRC FRZ040800127
INDEX 01 00:00:00
TRACK 07 AUDIO
TITLE "Gratte-dos"
PERFORMER "Thomas Fersen"
ISRC FRZ040800129
INDEX 00 03:22:19
FILE "07 Gratte-dos.wav" WAVE
INDEX 01 00:00:00
TRACK 08 AUDIO
TITLE "Ce qu'il me dit"
PERFORMER "Thomas Fersen"
ISRC FRZ040800130
FLAGS DCP
INDEX 00 02:20:51
FILE "08 Ce qu'il me dit.wav" WAVE
INDEX 01 00:00:00
FILE "09 Concombre.wav" WAVE
TRACK 09 AUDIO
TITLE "Concombre"
PERFORMER "Thomas Fersen"
ISRC FRZ040800131
INDEX 01 00:00:00
TRACK 10 AUDIO
TITLE "Embarque dans ma Valise"
PERFORMER "Thomas Fersen"
ISRC FRZ040800132
INDEX 00 04:05:21
FILE "10 Embarque dans ma Valise.wav" WAVE
INDEX 01 00:00:00
TRACK 11 AUDIO
TITLE "La Malle"
PERFORMER "Thomas Fersen"
ISRC FRZ040800133
INDEX 00 03:59:60
FILE "11 La Malle.wav" WAVE
INDEX 01 00:00:00

09 Thomas Fersen - Je Suis au Paradis (2011) [FLAC] // 42:04

01 Dracula
02 La Barbe bleue
03 Félix
04 Sandra
05 J'suis mort
06 Le Balafré
07 Parfois au clair de Lune
08 Mathieu
09 L'Enfant-sorcière
10 Une autre femme
11 Brouillard
12 Les Loups-garous

Лог создания рипа

Exact Audio Copy V1.0 beta 3 from 29. August 2011
EAC extraction logfile from 13. March 2012, 18:01
Thomas Fersen / Je suis au paradis
Used drive : TSSTcorpCDDVDW SN-S083F Adapter: 0 ID: 0
Read mode : SecureUtilize accurate stream : YesDefeat audio cache : YesMake use of C2 pointers : No
Read offset correction : 6Overread into Lead-In and Lead-Out : NoFill up missing offset samples with silence : YesDelete leading and trailing silent blocks : NoNull samples used in CRC calculations : YesUsed interface : Native Win32 interface for Win NT & 2000Gap handling : Appended to previous track
Used output format : User Defined EncoderSelected bitrate : 1024 kBit/sQuality : HighAdd ID3 tag : NoCommand line compressor : C:\Program Files (x86)\FLAC\flac.exeAdditional command line options : -8 -V -T "ARTIST=%artist%" -T "TITLE=%title%" -T "ALBUM=%albumtitle%" -T "DATE=%year%" -T "TRACKNUMBER=%tracknr%" -T "GENRE=%genre%" -T "PERFORMER=%albuminterpret%" -T "COMPOSER=%composer%" %haslyrics%--tag-from-file=LYRICS="%lyricsfile%"%haslyrics% -T "ALBUMARTIST=%albumartist%" -T "DISCNUMBER=%cdnumber%" -T "TOTALDISCS=%totalcds%" -T "TOTALTRACKS=%numtracks%" -T "COMMENT=%comment%" %source% -o %dest%
TOC of the extracted CD
Track | Start | Length | Start sector | End sector --------------------------------------------------------- 1 | 0:00.00 | 3:56.55 | 0 | 17754 2 | 3:56.55 | 3:46.25 | 17755 | 34729 3 | 7:43.05 | 2:34.66 | 34730 | 46345 4 | 10:17.71 | 3:37.74 | 46346 | 62694 5 | 13:55.70 | 2:53.03 | 62695 | 75672 6 | 16:48.73 | 3:05.44 | 75673 | 89591 7 | 19:54.42 | 2:54.25 | 89592 | 102666 8 | 22:48.67 | 3:16.21 | 102667 | 117387 9 | 26:05.13 | 4:57.48 | 117388 | 139710 10 | 31:02.61 | 4:05.09 | 139711 | 158094 11 | 35:07.70 | 3:38.07 | 158095 | 174451 12 | 38:46.02 | 3:18.57 | 174452 | 189358
Track 1
Filename D:\RIP\Je Suis Au Paradis\01 Dracula.wav
Pre-gap length 0:00:02.00
Peak level 98.8 % Extraction speed 1.3 X Track quality 99.9 % Test CRC EA90DCEF Copy CRC EA90DCEF Accurately ripped (confidence 6) [98D8CC54] (AR v2) Copy OK
Track 2
Filename D:\RIP\Je Suis Au Paradis\02 La barbe bleue.wav
Pre-gap length 0:00:02.08
Peak level 98.8 % Extraction speed 1.9 X Track quality 100.0 % Test CRC 70AF7714 Copy CRC 70AF7714 Accurately ripped (confidence 6) [6E750546] (AR v2) Copy OK
Track 3
Filename D:\RIP\Je Suis Au Paradis\03 Félix.wav
Pre-gap length 0:00:02.00
Peak level 98.8 % Extraction speed 1.9 X Track quality 100.0 % Test CRC C5ECA8CB Copy CRC C5ECA8CB Accurately ripped (confidence 6) [5B472E1A] (AR v2) Copy OK
Track 4
Filename D:\RIP\Je Suis Au Paradis\04 Sandra.wav
Peak level 98.8 % Extraction speed 2.1 X Track quality 100.0 % Test CRC D01C25D2 Copy CRC D01C25D2 Accurately ripped (confidence 6) [EF9B1698] (AR v2) Copy OK
Track 5
Filename D:\RIP\Je Suis Au Paradis\05 J'suis mort.wav
Pre-gap length 0:00:03.13
Peak level 98.8 % Extraction speed 2.2 X Track quality 100.0 % Test CRC E8C3ABCF Copy CRC E8C3ABCF Accurately ripped (confidence 6) [E838470A] (AR v2) Copy OK
Track 6
Filename D:\RIP\Je Suis Au Paradis\06 Le balafré.wav
Pre-gap length 0:00:02.16
Peak level 100.0 % Extraction speed 1.7 X Track quality 99.9 % Test CRC 6BA962D0 Copy CRC 6BA962D0 Accurately ripped (confidence 6) [0572D1FE] (AR v2) Copy OK
Track 7
Filename D:\RIP\Je Suis Au Paradis\07 Parfois au clair de lune.wav
Pre-gap length 0:00:01.73
Peak level 98.8 % Extraction speed 2.4 X Track quality 100.0 % Test CRC 3368D813 Copy CRC 3368D813 Accurately ripped (confidence 6) [9F85903D] (AR v2) Copy OK
Track 8
Filename D:\RIP\Je Suis Au Paradis\08 Mathieu.wav
Peak level 98.8 % Extraction speed 2.5 X Track quality 100.0 % Test CRC B54A7DE5 Copy CRC B54A7DE5 Accurately ripped (confidence 6) [169BCC14] (AR v2) Copy OK
Track 9
Filename D:\RIP\Je Suis Au Paradis\09 L'enfant sorcière.wav
Pre-gap length 0:00:03.33
Peak level 98.8 % Extraction speed 2.8 X Track quality 100.0 % Test CRC 9AF8B0E3 Copy CRC 9AF8B0E3 Accurately ripped (confidence 6) [36060C22] (AR v2) Copy OK
Track 10
Filename D:\RIP\Je Suis Au Paradis\10 Une autre femme.wav
Pre-gap length 0:00:02.30
Peak level 98.8 % Extraction speed 2.9 X Track quality 100.0 % Test CRC D22C4C45 Copy CRC D22C4C45 Accurately ripped (confidence 6) [7DD9A19A] (AR v2) Copy OK
Track 11
Filename D:\RIP\Je Suis Au Paradis\11 Brouillard.wav
Pre-gap length 0:00:02.25
Peak level 98.8 % Extraction speed 2.2 X Track quality 99.9 % Test CRC 8CBE8372 Copy CRC 8CBE8372 Accurately ripped (confidence 6) [8592E7DB] (AR v2) Copy OK
Track 12
Filename D:\RIP\Je Suis Au Paradis\12 Les loups-garous.wav
Pre-gap length 0:00:02.24
Peak level 98.8 % Extraction speed 3.0 X Track quality 100.0 % Test CRC 3448F3F4 Copy CRC 3448F3F4 Accurately ripped (confidence 6) [6637E950] (AR v2) Copy OK
All tracks accurately ripped
No errors occurred
End of status report
---- CUETools DB Plugin V2.1.3
[CTDB TOCID: 7u.yMPDeSODITbRGBBW.hDZEKkc-] disk not present in database, Submit result: 7u.yMPDeSODITbRGBBW.hDZEKkc- has been uploaded
==== Log checksum A91CC6397C3F2AB695E1C689E6FC7778CF04940C3CB9A6C9C9062F19FEB57D8C ====
------------------------------------------------------------
Exact Audio Copy V1.0 beta 3 from 29. August 2011
EAC extraction logfile from 13. March 2012, 18:01
Thomas Fersen / Je suis au paradis
Used drive : TSSTcorpCDDVDW SN-S083F Adapter: 0 ID: 0
Read mode : SecureUtilize accurate stream : YesDefeat audio cache : YesMake use of C2 pointers : No
Read offset correction : 6Overread into Lead-In and Lead-Out : NoFill up missing offset samples with silence : YesDelete leading and trailing silent blocks : NoNull samples used in CRC calculations : YesUsed interface : Native Win32 interface for Win NT & 2000Gap handling : Appended to previous track
Used output format : User Defined EncoderSelected bitrate : 1024 kBit/sQuality : HighAdd ID3 tag : NoCommand line compressor : C:\Program Files (x86)\FLAC\flac.exeAdditional command line options : -8 -V -T "ARTIST=%artist%" -T "TITLE=%title%" -T "ALBUM=%albumtitle%" -T "DATE=%year%" -T "TRACKNUMBER=%tracknr%" -T "GENRE=%genre%" -T "PERFORMER=%albuminterpret%" -T "COMPOSER=%composer%" %haslyrics%--tag-from-file=LYRICS="%lyricsfile%"%haslyrics% -T "ALBUMARTIST=%albumartist%" -T "DISCNUMBER=%cdnumber%" -T "TOTALDISCS=%totalcds%" -T "TOTALTRACKS=%numtracks%" -T "COMMENT=%comment%" %source% -o %dest%
TOC of the extracted CD
Track | Start | Length | Start sector | End sector --------------------------------------------------------- 1 | 0:00.00 | 3:56.55 | 0 | 17754 2 | 3:56.55 | 3:46.25 | 17755 | 34729 3 | 7:43.05 | 2:34.66 | 34730 | 46345 4 | 10:17.71 | 3:37.74 | 46346 | 62694 5 | 13:55.70 | 2:53.03 | 62695 | 75672 6 | 16:48.73 | 3:05.44 | 75673 | 89591 7 | 19:54.42 | 2:54.25 | 89592 | 102666 8 | 22:48.67 | 3:16.21 | 102667 | 117387 9 | 26:05.13 | 4:57.48 | 117388 | 139710 10 | 31:02.61 | 4:05.09 | 139711 | 158094 11 | 35:07.70 | 3:38.07 | 158095 | 174451 12 | 38:46.02 | 3:18.57 | 174452 | 189358
Track 1
Filename D:\RIP\Je Suis Au Paradis\01 Dracula.wav
Pre-gap length 0:00:02.00
Peak level 98.8 % Extraction speed 1.3 X Track quality 99.9 % Test CRC EA90DCEF Copy CRC EA90DCEF Accurately ripped (confidence 6) [98D8CC54] (AR v2) Copy OK
Track 2
Filename D:\RIP\Je Suis Au Paradis\02 La barbe bleue.wav
Pre-gap length 0:00:02.08
Peak level 98.8 % Extraction speed 1.9 X Track quality 100.0 % Test CRC 70AF7714 Copy CRC 70AF7714 Accurately ripped (confidence 6) [6E750546] (AR v2) Copy OK
Track 3
Filename D:\RIP\Je Suis Au Paradis\03 Félix.wav
Pre-gap length 0:00:02.00
Peak level 98.8 % Extraction speed 1.9 X Track quality 100.0 % Test CRC C5ECA8CB Copy CRC C5ECA8CB Accurately ripped (confidence 6) [5B472E1A] (AR v2) Copy OK
Track 4
Filename D:\RIP\Je Suis Au Paradis\04 Sandra.wav
Peak level 98.8 % Extraction speed 2.1 X Track quality 100.0 % Test CRC D01C25D2 Copy CRC D01C25D2 Accurately ripped (confidence 6) [EF9B1698] (AR v2) Copy OK
Track 5
Filename D:\RIP\Je Suis Au Paradis\05 J'suis mort.wav
Pre-gap length 0:00:03.13
Peak level 98.8 % Extraction speed 2.2 X Track quality 100.0 % Test CRC E8C3ABCF Copy CRC E8C3ABCF Accurately ripped (confidence 6) [E838470A] (AR v2) Copy OK
Track 6
Filename D:\RIP\Je Suis Au Paradis\06 Le balafré.wav
Pre-gap length 0:00:02.16
Peak level 100.0 % Extraction speed 1.7 X Track quality 99.9 % Test CRC 6BA962D0 Copy CRC 6BA962D0 Accurately ripped (confidence 6) [0572D1FE] (AR v2) Copy OK
Track 7
Filename D:\RIP\Je Suis Au Paradis\07 Parfois au clair de lune.wav
Pre-gap length 0:00:01.73
Peak level 98.8 % Extraction speed 2.4 X Track quality 100.0 % Test CRC 3368D813 Copy CRC 3368D813 Accurately ripped (confidence 6) [9F85903D] (AR v2) Copy OK
Track 8
Filename D:\RIP\Je Suis Au Paradis\08 Mathieu.wav
Peak level 98.8 % Extraction speed 2.5 X Track quality 100.0 % Test CRC B54A7DE5 Copy CRC B54A7DE5 Accurately ripped (confidence 6) [169BCC14] (AR v2) Copy OK
Track 9
Filename D:\RIP\Je Suis Au Paradis\09 L'enfant sorcière.wav
Pre-gap length 0:00:03.33
Peak level 98.8 % Extraction speed 2.8 X Track quality 100.0 % Test CRC 9AF8B0E3 Copy CRC 9AF8B0E3 Accurately ripped (confidence 6) [36060C22] (AR v2) Copy OK
Track 10
Filename D:\RIP\Je Suis Au Paradis\10 Une autre femme.wav
Pre-gap length 0:00:02.30
Peak level 98.8 % Extraction speed 2.9 X Track quality 100.0 % Test CRC D22C4C45 Copy CRC D22C4C45 Accurately ripped (confidence 6) [7DD9A19A] (AR v2) Copy OK
Track 11
Filename D:\RIP\Je Suis Au Paradis\11 Brouillard.wav
Pre-gap length 0:00:02.25
Peak level 98.8 % Extraction speed 2.2 X Track quality 99.9 % Test CRC 8CBE8372 Copy CRC 8CBE8372 Accurately ripped (confidence 6) [8592E7DB] (AR v2) Copy OK
Track 12
Filename D:\RIP\Je Suis Au Paradis\12 Les loups-garous.wav
Pre-gap length 0:00:02.24
Peak level 98.8 % Extraction speed 3.0 X Track quality 100.0 % Test CRC 3448F3F4 Copy CRC 3448F3F4 Accurately ripped (confidence 6) [6637E950] (AR v2) Copy OK
All tracks accurately ripped
No errors occurred
End of status report
---- CUETools DB Plugin V2.1.3
[CTDB TOCID: 7u.yMPDeSODITbRGBBW.hDZEKkc-] disk not present in database, Submit result: 7u.yMPDeSODITbRGBBW.hDZEKkc- has been uploaded
==== Log checksum A91CC6397C3F2AB695E1C689E6FC7778CF04940C3CB9A6C9C9062F19FEB57D8C ====

Лог проверки качества

AUDIOCHECKER v2.0 beta (build 457) - by Dester - opdester@freemail.hu~~~~~~~~~~~~~~~~~~~~~~~~~~~~~~~~~~-=== DO NOT EDIT THIS FILE! ===-
Path: ...\AC
01 -=- 01 Dracula.flac -=- CDDA (100%)02 -=- 02 La barbe bleue.flac -=- CDDA (100%)03 -=- 03 Felix.flac -=- CDDA (100%)04 -=- 04 Sandra.flac -=- CDDA (99%)05 -=- 05 J'suis mort.flac -=- CDDA (100%)06 -=- 06 Le balafre.flac -=- MPEG (95%)07 -=- 07 Parfois au clair de lune.flac -=- CDDA (100%)08 -=- 08 Mathieu.flac -=- CDDA (100%)09 -=- 09 L'enfant sorciere.flac -=- CDDA (100%)10 -=- 10 Une autre femme.flac -=- CDDA (100%)11 -=- 11 Brouillard.flac -=- CDDA (100%)12 -=- 12 Les loups-garous.flac -=- CDDA (99%)
Summary 91,92% CDDA
200491428
06track

(.CUE)

REM GENRE Folk
REM DATE 2011
REM DISCID 9F09DC0C
REM COMMENT "ExactAudioCopy v1.0b3"
CATALOG 3596972371028
PERFORMER "Thomas Fersen"
TITLE "Je suis au paradis"
FILE "01 Dracula.wav" WAVE
TRACK 01 AUDIO
TITLE "Dracula"
PERFORMER "Thomas Fersen"
ISRC FR1K31000010
INDEX 01 00:00:00
TRACK 02 AUDIO
TITLE "La barbe bleue"
PERFORMER "Thomas Fersen"
ISRC FR1K31000020
INDEX 00 03:54:49
FILE "02 La barbe bleue.wav" WAVE
INDEX 01 00:00:00
TRACK 03 AUDIO
TITLE "Fйlix"
PERFORMER "Thomas Fersen"
ISRC FR1K31000030
INDEX 00 03:44:25
FILE "03 Fйlix.wav" WAVE
INDEX 01 00:00:00
FILE "04 Sandra.wav" WAVE
TRACK 04 AUDIO
TITLE "Sandra"
PERFORMER "Thomas Fersen"
ISRC FR1K31000040
INDEX 01 00:00:00
TRACK 05 AUDIO
TITLE "J'suis mort"
PERFORMER "Thomas Fersen"
ISRC FR1K31000050
INDEX 00 03:34:64
FILE "05 J'suis mort.wav" WAVE
INDEX 01 00:00:00
TRACK 06 AUDIO
TITLE "Le balafrй"
PERFORMER "Thomas Fersen"
ISRC FR1K31000060
INDEX 00 02:50:66
FILE "06 Le balafrй.wav" WAVE
INDEX 01 00:00:00
TRACK 07 AUDIO
TITLE "Parfois au clair de lune"
PERFORMER "Thomas Fersen"
ISRC FR1K31000070
INDEX 00 03:03:64
FILE "07 Parfois au clair de lune.wav" WAVE
INDEX 01 00:00:00
FILE "08 Mathieu.wav" WAVE
TRACK 08 AUDIO
TITLE "Mathieu"
PERFORMER "Thomas Fersen"
ISRC FR1K31000080
INDEX 01 00:00:00
TRACK 09 AUDIO
TITLE "L'enfant sorciиre"
PERFORMER "Thomas Fersen"
ISRC FR1K31000090
INDEX 00 03:12:71
FILE "09 L'enfant sorciиre.wav" WAVE
INDEX 01 00:00:00
TRACK 10 AUDIO
TITLE "Une autre femme"
PERFORMER "Thomas Fersen"
ISRC FR1K31000100
INDEX 00 04:55:25
FILE "10 Une autre femme.wav" WAVE
INDEX 01 00:00:00
TRACK 11 AUDIO
TITLE "Brouillard"
PERFORMER "Thomas Fersen"
ISRC FR1K31000110
INDEX 00 04:02:65
FILE "11 Brouillard.wav" WAVE
INDEX 01 00:00:00
TRACK 12 AUDIO
TITLE "Les loups-garous"
PERFORMER "Thomas Fersen"
ISRC FR1K31000120
INDEX 00 03:35:64
FILE "12 Les loups-garous.wav" WAVE
INDEX 01 00:00:00

Об исполнителе (группе)

http://fr.wikipedia.org/wiki/Thomas_Fersen

-

Раздачи (Iran / India / Algeria (Этник) \\ France & ... (Зарубежный шансон))

http://********.org/forum/search.php?uid=30821356

Турецкие раздачи

http://********.org/forum/search.php?uid=26748304

Для скачивания файла отключите блокировку рекламы и перезагрузите страницу.

disable adblock Как отключить блокировку рекламы?

Скачать по магнет ссылке 2,29 GB 

Войти с помощью:

Загрузка...
Загрузка...


   
Текущее время: 18-Июн 13:14 :: Часовой пояс: UTC ± 0