Various Artists - Les 100 Titres Cultes De La Chanson Française (1936-1963) 5CD
Жанр: Variété francaise
Год издания: 2013
Издатель (лейбл): Mfm
Аудиокодек: FLAC (*.flac)
Тип рипа: tracks+.cue
Битрейт аудио: lossless
Продолжительность: 04:33:10
Источник (релизер): THANKS TO A FRIEND !
Наличие сканов в содержимом раздачи: нет
Треклист:

CD 1

01. Edith Piaf – Non Je Ne Regrette Rien [1960]
02. Gilbert Bécaud – Et Maintenant [1961]
03. Charles Aznavour – Il Faut Savoir [1961]
04. Jacques Brel – Quand On n’A Que l’Amour [1956]
05. Barbara – Dis Quand Reviendras-Tu [1962]
06. Claude Nougaro – Une Petite Fille [1962]
07. Georges Brassens – Chanson Pour l’Auvergnat [1954]
08. Juliette Gréco – La Javanaise [1963]
09. Léo Ferré – Jolie Môme [1960]
10. Dalida – Les Enfants Du Pirée [1960]
11. Henri Salvador – Le Lion Est Mort Ce Soir [1962]
12. Jacques Brel – Bruxelles [1962]
13. Johnny Hallyday – l’Idole Des Jeunes [1962]
14. Petula Clark – Chariot [1962]
15. Richard Anthony – J’Entends Siffler Le Train [1962]
16. Sheila – On A Juste l’Âge [1962]
17. Les Chaussettes Noires & Eddy Mitchell & Maurice Chevalier – Le Twist Du Canotier [1962]
18. Lucky Blondo – Sheila [1962]
19. Dick Rivers & Les Chats Sauvages – Twist À Saint-Tropez [1961]
20. Salvatore Adamo – En Blue Jeans Et Blouson d’Cuir [1962]

Лог создания рипа

Exact Audio Copy V1.0 beta 3 from 29. August 2011
EAC extraction logfile from 28. September 2013, 18:00
Various Artists / Les 100 Titres Cultes De La Chanson Française (2013) CD1
Used drive : hp CDDVDW TS-L633N Adapter: 0 ID: 1
Read mode : SecureUtilize accurate stream : YesDefeat audio cache : YesMake use of C2 pointers : No
Read offset correction : 6Overread into Lead-In and Lead-Out : NoFill up missing offset samples with silence : YesDelete leading and trailing silent blocks : NoNull samples used in CRC calculations : YesUsed interface : Native Win32 interface for Win NT & 2000Gap handling : Appended to previous track
Used output format : User Defined EncoderSelected bitrate : 1024 kBit/sQuality : HighAdd ID3 tag : NoCommand line compressor : C:\Program Files (x86)\Exact Audio Copy\Flac\flac.exeAdditional command line options : -8 -V -T "ARTIST=%artist%" -T "TITLE=%title%" -T "ALBUM=%albumtitle%" -T "DATE=%year%" -T "TRACKNUMBER=%tracknr%" -T "GENRE=%genre%" -T "PERFORMER=%albuminterpret%" -T "COMPOSER=%composer%" %haslyrics%--tag-from-file=LYRICS="%lyricsfile%"%haslyrics% -T "ALBUMARTIST=%albumartist%" -T "DISCNUMBER=%cdnumber%" -T "TOTALDISCS=%totalcds%" -T "TOTALTRACKS=%numtracks%" -T "COMMENT=%comment%" %source% -o %dest%
TOC of the extracted CD
Track | Start | Length | Start sector | End sector --------------------------------------------------------- 1 | 0:00.00 | 2:23.47 | 0 | 10771 2 | 2:23.47 | 3:37.45 | 10772 | 27091 3 | 6:01.17 | 3:03.37 | 27092 | 40853 4 | 9:04.54 | 2:25.13 | 40854 | 51741 5 | 11:29.67 | 2:54.03 | 51742 | 64794 6 | 14:23.70 | 2:08.55 | 64795 | 74449 7 | 16:32.50 | 3:00.48 | 74450 | 87997 8 | 19:33.23 | 2:29.34 | 87998 | 99206 9 | 22:02.57 | 2:39.46 | 99207 | 111177 10 | 24:42.28 | 2:35.67 | 111178 | 122869 11 | 27:18.20 | 2:40.38 | 122870 | 134907 12 | 29:58.58 | 2:57.12 | 134908 | 148194 13 | 32:55.70 | 2:25.63 | 148195 | 159132 14 | 35:21.58 | 2:35.58 | 159133 | 170815 15 | 37:57.41 | 3:23.56 | 170816 | 186096 16 | 41:21.22 | 2:21.40 | 186097 | 196711 17 | 43:42.62 | 2:30.14 | 196712 | 207975 18 | 46:13.01 | 2:00.15 | 207976 | 216990 19 | 48:13.16 | 1:46.31 | 216991 | 224971 20 | 49:59.47 | 2:57.28 | 224972 | 238274
Track 1
Filename E:\CDRips\01 - Edith Piaf - Non Je Ne Regrette Rien [1960].wav
Pre-gap length 0:00:02.00
Peak level 87.1 % Extraction speed 1.5 X Track quality 100.0 % Test CRC 3DC6536F Copy CRC 3DC6536F Track not present in AccurateRip database Copy OK
Track 2
Filename E:\CDRips\02 - Gilbert Bécaud - Et Maintenant [1961].wav
Pre-gap length 0:00:01.98
Peak level 98.8 % Extraction speed 1.8 X Track quality 100.0 % Test CRC B6B96F74 Copy CRC B6B96F74 Track not present in AccurateRip database Copy OK
Track 3
Filename E:\CDRips\03 - Charles Aznavour - Il Faut Savoir [1961].wav
Pre-gap length 0:00:01.98
Peak level 97.7 % Extraction speed 1.8 X Track quality 100.0 % Test CRC 5B2A4790 Copy CRC 5B2A4790 Track not present in AccurateRip database Copy OK
Track 4
Filename E:\CDRips\04 - Jacques Brel - Quand On n'A Que l'Amour [1956].wav
Pre-gap length 0:00:01.98
Peak level 95.5 % Extraction speed 1.9 X Track quality 100.0 % Test CRC 650D54FB Copy CRC 650D54FB Track not present in AccurateRip database Copy OK
Track 5
Filename E:\CDRips\05 - Barbara - Dis Quand Reviendras-Tu [1962].wav
Pre-gap length 0:00:01.98
Peak level 97.7 % Extraction speed 2.0 X Track quality 100.0 % Test CRC C4048674 Copy CRC C4048674 Track not present in AccurateRip database Copy OK
Track 6
Filename E:\CDRips\06 - Claude Nougaro - Une Petite Fille [1962].wav
Pre-gap length 0:00:01.98
Peak level 90.0 % Extraction speed 1.9 X Track quality 100.0 % Test CRC 3FCE2F8E Copy CRC 3FCE2F8E Track not present in AccurateRip database Copy OK
Track 7
Filename E:\CDRips\07 - Georges Brassens - Chanson Pour l'Auvergnat [1954].wav
Pre-gap length 0:00:01.98
Peak level 98.8 % Extraction speed 2.2 X Track quality 100.0 % Test CRC 07D35DBF Copy CRC 07D35DBF Track not present in AccurateRip database Copy OK
Track 8
Filename E:\CDRips\08 - Juliette Gréco - La Javanaise [1963].wav
Pre-gap length 0:00:01.98
Peak level 97.7 % Extraction speed 2.2 X Track quality 100.0 % Test CRC 83788760 Copy CRC 83788760 Track not present in AccurateRip database Copy OK
Track 9
Filename E:\CDRips\09 - Léo Ferré - Jolie Môme [1960].wav
Pre-gap length 0:00:01.98
Peak level 97.7 % Extraction speed 2.3 X Track quality 100.0 % Test CRC 3A2E26A8 Copy CRC 3A2E26A8 Track not present in AccurateRip database Copy OK
Track 10
Filename E:\CDRips\10 - Dalida - Les Enfants Du Pirée [1960].wav
Pre-gap length 0:00:01.98
Peak level 97.7 % Extraction speed 2.3 X Track quality 100.0 % Test CRC 9E398DD1 Copy CRC 9E398DD1 Track not present in AccurateRip database Copy OK
Track 11
Filename E:\CDRips\11 - Henri Salvador - Le Lion Est Mort Ce Soir [1962].wav
Pre-gap length 0:00:01.98
Peak level 89.1 % Extraction speed 2.4 X Track quality 100.0 % Test CRC FCB9B571 Copy CRC FCB9B571 Track not present in AccurateRip database Copy OK
Track 12
Filename E:\CDRips\12 - Jacques Brel - Bruxelles [1962].wav
Pre-gap length 0:00:01.98
Peak level 89.0 % Extraction speed 2.5 X Track quality 100.0 % Test CRC 5FD9C0A4 Copy CRC 5FD9C0A4 Track not present in AccurateRip database Copy OK
Track 13
Filename E:\CDRips\13 - Johnny Hallyday - l'Idole Des Jeunes [1962].wav
Pre-gap length 0:00:01.98
Peak level 89.1 % Extraction speed 2.5 X Track quality 100.0 % Test CRC 6D3B0E5C Copy CRC 6D3B0E5C Track not present in AccurateRip database Copy OK
Track 14
Filename E:\CDRips\14 - Petula Clark - Chariot [1962].wav
Pre-gap length 0:00:01.98
Peak level 97.7 % Extraction speed 2.6 X Track quality 100.0 % Test CRC F4DA1A39 Copy CRC F4DA1A39 Track not present in AccurateRip database Copy OK
Track 15
Filename E:\CDRips\15 - Richard Anthony - J'Entends Siffler Le Train [1962].wav
Pre-gap length 0:00:01.98
Peak level 97.7 % Extraction speed 2.8 X Track quality 100.0 % Test CRC C905FFA4 Copy CRC C905FFA4 Track not present in AccurateRip database Copy OK
Track 16
Filename E:\CDRips\16 - Sheila - On A Juste l'Âge [1962].wav
Pre-gap length 0:00:01.98
Peak level 83.1 % Extraction speed 2.6 X Track quality 100.0 % Test CRC E1FB8862 Copy CRC E1FB8862 Track not present in AccurateRip database Copy OK
Track 17
Filename E:\CDRips\17 - Les Chaussettes Noires & Eddy Mitchell & Maurice Chevalier - Le Twist Du Canotier [1962].wav
Pre-gap length 0:00:01.98
Peak level 89.0 % Extraction speed 2.8 X Track quality 100.0 % Test CRC B4384898 Copy CRC B4384898 Track not present in AccurateRip database Copy OK
Track 18
Filename E:\CDRips\18 - Lucky Blondo - Sheila [1962].wav
Pre-gap length 0:00:01.98
Peak level 97.7 % Extraction speed 2.5 X Track quality 100.0 % Test CRC D079425F Copy CRC D079425F Track not present in AccurateRip database Copy OK
Track 19
Filename E:\CDRips\19 - Dick Rivers & Les Chats Sauvages - Twist À Saint-Tropez [1961].wav
Pre-gap length 0:00:01.98
Peak level 100.0 % Extraction speed 2.6 X Track quality 100.0 % Test CRC 2C6E3551 Copy CRC 2C6E3551 Track not present in AccurateRip database Copy OK
Track 20
Filename E:\CDRips\20 - Salvatore Adamo - En Blue Jeans Et Blouson d'Cuir [1962].wav
Pre-gap length 0:00:01.98
Peak level 90.0 % Extraction speed 3.0 X Track quality 100.0 % Test CRC 93981883 Copy CRC 93981883 Track not present in AccurateRip database Copy OK
None of the tracks are present in the AccurateRip database
No errors occurred
End of status report
---- CUETools DB Plugin V2.1.3
[CTDB TOCID: aEVS5vR_q0z2kec2Cc13KsaaiI8-] disk not present in database, Submit result: aEVS5vR_q0z2kec2Cc13KsaaiI8- has been uploaded
==== Log checksum 5C11276B98A292D8F648FA2FDB695C529787E25992A3BC52FC1920E05674CA11 ====

Содержание индексной карты (.CUE)

REM GENRE ChansonREM DATE 2013REM DISCID 220C6914REM COMMENT "ExactAudioCopy v1.0b3"PERFORMER "Various Artists"TITLE "Les 100 Titres Cultes De La Chanson Francaise (2013) CD1"FILE "01 - Edith Piaf - Non Je Ne Regrette Rien [1960].wav" WAVE TRACK 01 AUDIO TITLE "Non Je Ne Regrette Rien [1960]" PERFORMER "Edith Piaf" INDEX 01 00:00:00 TRACK 02 AUDIO TITLE "Et Maintenant [1961]" PERFORMER "Gilbert Becaud" INDEX 00 02:21:48FILE "02 – Gilbert Becaud – Et Maintenant [1961].wav" WAVE INDEX 01 00:00:00 TRACK 03 AUDIO TITLE "Il Faut Savoir [1961]" PERFORMER "Charles Aznavour" INDEX 00 03:35:46FILE "03 - Charles Aznavour - Il Faut Savoir [1961].wav" WAVE INDEX 01 00:00:00 TRACK 04 AUDIO TITLE "Quand On n'A Que l'Amour [1956]" PERFORMER "Jacques Brel" INDEX 00 03:01:38FILE "04 - Jacques Brel - Quand On n'A Que l'Amour [1956].wav" WAVE INDEX 01 00:00:00 TRACK 05 AUDIO TITLE "Dis Quand Reviendras-Tu [1962]" PERFORMER "Barbara" INDEX 00 02:23:14FILE "05 - Barbara - Dis Quand Reviendras-Tu [1962].wav" WAVE INDEX 01 00:00:00 TRACK 06 AUDIO TITLE "Une Petite Fille [1962]" PERFORMER "Claude Nougaro" INDEX 00 02:52:04FILE "06 - Claude Nougaro - Une Petite Fille [1962].wav" WAVE INDEX 01 00:00:00 TRACK 07 AUDIO TITLE "Chanson Pour l'Auvergnat [1954]" PERFORMER "Georges Brassens" INDEX 00 02:06:56FILE "07 - Georges Brassens - Chanson Pour l'Auvergnat [1954].wav" WAVE INDEX 01 00:00:00 TRACK 08 AUDIO TITLE "La Javanaise [1963]" PERFORMER "Juliette Greco" INDEX 00 02:58:49FILE "08 – Juliette Greco – La Javanaise [1963].wav" WAVE INDEX 01 00:00:00 TRACK 09 AUDIO TITLE "Jolie Mome [1960]" PERFORMER "Leo Ferre" INDEX 00 02:27:35FILE "09 – Leo Ferre – Jolie Mome [1960].wav" WAVE INDEX 01 00:00:00 TRACK 10 AUDIO TITLE "Les Enfants Du Piree [1960]" PERFORMER "Dalida" INDEX 00 02:37:47FILE "10 – Dalida – Les Enfants Du Piree [1960].wav" WAVE INDEX 01 00:00:00 TRACK 11 AUDIO TITLE "Le Lion Est Mort Ce Soir [1962]" PERFORMER "Henri Salvador" INDEX 00 02:33:68FILE "11 - Henri Salvador - Le Lion Est Mort Ce Soir [1962].wav" WAVE INDEX 01 00:00:00 TRACK 12 AUDIO TITLE "Bruxelles [1962]" PERFORMER "Jacques Brel" INDEX 00 02:38:39FILE "12 - Jacques Brel - Bruxelles [1962].wav" WAVE INDEX 01 00:00:00 TRACK 13 AUDIO TITLE "l'Idole Des Jeunes [1962]" PERFORMER "Johnny Hallyday" INDEX 00 02:55:13FILE "13 - Johnny Hallyday - l'Idole Des Jeunes [1962].wav" WAVE INDEX 01 00:00:00 TRACK 14 AUDIO TITLE "Chariot [1962]" PERFORMER "Petula Clark" INDEX 00 02:23:64FILE "14 - Petula Clark - Chariot [1962].wav" WAVE INDEX 01 00:00:00 TRACK 15 AUDIO TITLE "J'Entends Siffler Le Train [1962]" PERFORMER "Richard Anthony" INDEX 00 02:33:59FILE "15 - Richard Anthony - J'Entends Siffler Le Train [1962].wav" WAVE INDEX 01 00:00:00 TRACK 16 AUDIO TITLE "On A Juste l’Age [1962]" PERFORMER "Sheila" INDEX 00 03:21:57FILE "16 – Sheila – On A Juste l’Age [1962].wav" WAVE INDEX 01 00:00:00 TRACK 17 AUDIO TITLE "Le Twist Du Canotier [1962]" PERFORMER "Les Chaussettes Noires & Eddy Mitchell & Maurice Chevalier" INDEX 00 02:19:41FILE "17 - Les Chaussettes Noires & Eddy Mitchell & Maurice Chevalier - Le Twist Du Canotier [1962].wav" WAVE INDEX 01 00:00:00 TRACK 18 AUDIO TITLE "Sheila [1962]" PERFORMER "Lucky Blondo" INDEX 00 02:28:15FILE "18 - Lucky Blondo - Sheila [1962].wav" WAVE INDEX 01 00:00:00 TRACK 19 AUDIO TITLE "Twist A Saint-Tropez [1961]" PERFORMER "Dick Rivers & Les Chats Sauvages" INDEX 00 01:58:16FILE "19 – Dick Rivers & Les Chats Sauvages – Twist A Saint-Tropez [1961].wav" WAVE INDEX 01 00:00:00 TRACK 20 AUDIO TITLE "En Blue Jeans Et Blouson d'Cuir [1962]" PERFORMER "Salvatore Adamo" INDEX 00 01:44:32FILE "20 - Salvatore Adamo - En Blue Jeans Et Blouson d'Cuir [1962].wav" WAVE INDEX 01 00:00:00

Лог проверки качества

-----------------------
DON'T MODIFY THIS FILE
-----------------------
PERFORMER: auCDtect Task Manager, ver. 1.5.1RC6 build 1.5.1.7Copyright (c) 2008-2010 y-soft. All rights reservedhttp://y-soft.org
ANALYZER: auCDtect: CD records authenticity detector, version 0.8.2Copyright (c) 2004 Oleg Berngardt. All rights reserved.Copyright (c) 2004 Alexander Djourik. All rights reserved.
FILE: 02 – Gilbert Becaud – Et Maintenant [1961].flac Size: 20039046 Hash: E72EE0C9EAABC53B58378FBF9D693407 Accuracy: -m0 Conclusion: CDDA 58% Signature: A5535B10D046FB8AA17195860537C43CEBB9713AFILE: 01 - Edith Piaf - Non Je Ne Regrette Rien [1960].flac Size: 16990513 Hash: D7B9980A9ABAA0757009E5089CA76EA6 Accuracy: -m0 Conclusion: CDDA 100% Signature: 8FBE1F3AEA0F469265D6CFE4A59816EAFF1BC84EFILE: 20 - Salvatore Adamo - En Blue Jeans Et Blouson d'Cuir [1962].flac Size: 16799621 Hash: 00C31A34AF3F1F02999FCC00BC5CBECC Accuracy: -m0 Conclusion: CDDA 99% Signature: C6C5A01369DE97428AF254A27707072C25B38B96FILE: 19 – Dick Rivers & Les Chats Sauvages – Twist A Saint-Tropez [1961].flac Size: 13213951 Hash: 12A64B6C8131E76B6566463D5C5865B3 Accuracy: -m0 Conclusion: MPEG 95% Signature: FE8F42473B15EF8A817D2281D596AAD9675F6576FILE: 18 - Lucky Blondo - Sheila [1962].flac Size: 7761321 Hash: 02030E788BC4B6BBB1C0DEF61C468577 Accuracy: -m0 Conclusion: CDDA 100% Signature: C884388B598BF909E33C5091FFAE0BB6D5DD051AFILE: 17 - Les Chaussettes Noires & Eddy Mitchell & Maurice Chevalier - Le Twist Du Canotier [1962].flac Size: 15028999 Hash: CBD7C948F2D6C80EA2F0CC0381A08CE1 Accuracy: -m0 Conclusion: CDDA 100% Signature: D3C2A5014A25ECB330957354C6AE86CDB4C08337FILE: 16 – Sheila – On A Juste l’Age [1962].flac Size: 13043278 Hash: 0B23B8A0B68AFC1EF6595EBFAA6589EA Accuracy: -m0 Conclusion: CDDA 100% Signature: 3ECB56CBA5C0CC23EE46C0806F878D0D51360EB5FILE: 15 - Richard Anthony - J'Entends Siffler Le Train [1962].flac Size: 18025783 Hash: 20888CFD13E0430DA9204F33D581D209 Accuracy: -m0 Conclusion: CDDA 100% Signature: 9DA22502871B99AA7FE17E32BE9CC86B442D6142FILE: 14 - Petula Clark - Chariot [1962].flac Size: 14498295 Hash: 1DA1B32CA10C101ECE58E71D8E3107D9 Accuracy: -m0 Conclusion: CDDA 100% Signature: FF56FC558AD0E9B38ADE9E0D5C8EE9FEBECE6295FILE: 13 - Johnny Hallyday - l'Idole Des Jeunes [1962].flac Size: 12859737 Hash: 81508E1AC9786110FA6BDB5BC956A7C0 Accuracy: -m0 Conclusion: CDDA 100% Signature: D9B61DD688D14EB88E59037B50FEEE264C3FE0B0FILE: 12 - Jacques Brel - Bruxelles [1962].flac Size: 19303830 Hash: 1B2F489397D72C802386BE15F6640F67 Accuracy: -m0 Conclusion: CDDA 100% Signature: 43BB16EC195EA61EBD18307FA629D2C6C4ED9390FILE: 11 - Henri Salvador - Le Lion Est Mort Ce Soir [1962].flac Size: 15803675 Hash: 6CCB997DB1A66E6E0071EDA332FB1FD2 Accuracy: -m0 Conclusion: CDDA 100% Signature: F141F484E82903BBFD95B84267940F7B8F257D65FILE: 10 – Dalida – Les Enfants Du Piree [1960].flac Size: 14659001 Hash: 71C123DE8741CC2B82A42C2A438A3BF3 Accuracy: -m0 Conclusion: CDDA 100% Signature: B11EEF73D2E3D8C5748800E5F26291E779FF5977FILE: 09 – Leo Ferre – Jolie Mome [1960].flac Size: 19317620 Hash: FD80D02F4430F455001EC4029D28B42B Accuracy: -m0 Conclusion: CDDA 100% Signature: 44AB88F9554E40977D15C647361AB8A0182856ECFILE: 08 – Juliette Greco – La Javanaise [1963].flac Size: 14844738 Hash: F6A473F59815A54BD1FF3F3F8E96D99C Accuracy: -m0 Conclusion: CDDA 100% Signature: 2F2807E97BA44E95D76234EB181172C30D7C5E16FILE: 07 - Georges Brassens - Chanson Pour l'Auvergnat [1954].flac Size: 8743498 Hash: 8FD1315844998CC1C92B59D47CB8E107 Accuracy: -m0 Conclusion: CDDA 100% Signature: 33CA5A0566075F7B523978CF32FDCE787769A105FILE: 06 - Claude Nougaro - Une Petite Fille [1962].flac Size: 14343888 Hash: BBB0EBCD1760F7976413A4AED6D0D60D Accuracy: -m0 Conclusion: CDDA 100% Signature: B766F83093F7EAC5599AF678953614EF96805B2EFILE: 05 - Barbara - Dis Quand Reviendras-Tu [1962].flac Size: 13678197 Hash: 3C6DF306E1B89A7A7BCEE97D94712E92 Accuracy: -m0 Conclusion: CDDA 99% Signature: B39C43D2DABBC3AA0C42114454569990AB9C37BEFILE: 04 - Jacques Brel - Quand On n'A Que l'Amour [1956].flac Size: 10586606 Hash: 0A7B6CE121BB667F6575BDD5E39B96A0 Accuracy: -m0 Conclusion: CDDA 100% Signature: FE062377B2D950EA4D8752B2372A7E15D0E0EDA3FILE: 03 - Charles Aznavour - Il Faut Savoir [1961].flac Size: 16086018 Hash: 398C9A629144E59835F9D34A5549DD91 Accuracy: -m0 Conclusion: MPEG 99% Signature: B54A7249C60316CB226C898AD111A0CF622A37ED

CD 2

01. Claude François – Belles Belles Belles [1962]
02. Johnny Hallyday – Pas Cette Chanson [1962]
03. Les Chaussettes Noires – Daniela [1961]
04. Les Chats Sauvages Avec Dick Rivers – C’est Pas Sérieux [1962]
05. Danyel Gérard – Le Petit Gonzales [1962]
06. Orlando – Elle A Des Yeux d’Ange [1961]
07. Françoise Hardy – Le Temps De l’Amour [1962]
08. Hugues Aufray – Santiano [1961]
09. Leny Escudero – Ballade À Sylvie [1962]
10. Edith Piaf & Théo Sarapo – À Quoi Ça Sert l’Amour [1962]
11. Enrico Macias – Enfants De Tous Pays [1963]
12. Jacques Brel – Ne Me Quitte Pas [1959]
13. Sacha Distel – Ce Serait Dommage [1959]
14. Charles Aznavour – Je m’Voyais Déjà [1960]
15. Dalida – Bambino [1956]
16. Bourvil – C’était Bien (Le Petit Bal Perdu) [1961]
17. Charles Trenet – Que Reste-T-Il De Nos Amours [1943]
18. Guy Béart – l’Eau Vive [1958]
19. Georges Brassens – Il n’Y A Pas d’Amour Heureux [1953]
20. Edith Piaf – La Vie En Rose [1946]

Лог создания рипа

Exact Audio Copy V1.0 beta 3 from 29. August 2011
EAC extraction logfile from 28. September 2013, 19:05
Various Artists / Les 100 Titres Cultes De La Chanson Française (2013) CD2
Used drive : hp CDDVDW TS-L633N Adapter: 0 ID: 1
Read mode : SecureUtilize accurate stream : YesDefeat audio cache : YesMake use of C2 pointers : No
Read offset correction : 6Overread into Lead-In and Lead-Out : NoFill up missing offset samples with silence : YesDelete leading and trailing silent blocks : NoNull samples used in CRC calculations : YesUsed interface : Native Win32 interface for Win NT & 2000Gap handling : Appended to previous track
Used output format : User Defined EncoderSelected bitrate : 1024 kBit/sQuality : HighAdd ID3 tag : NoCommand line compressor : C:\Program Files (x86)\Exact Audio Copy\Flac\flac.exeAdditional command line options : -8 -V -T "ARTIST=%artist%" -T "TITLE=%title%" -T "ALBUM=%albumtitle%" -T "DATE=%year%" -T "TRACKNUMBER=%tracknr%" -T "GENRE=%genre%" -T "PERFORMER=%albuminterpret%" -T "COMPOSER=%composer%" %haslyrics%--tag-from-file=LYRICS="%lyricsfile%"%haslyrics% -T "ALBUMARTIST=%albumartist%" -T "DISCNUMBER=%cdnumber%" -T "TOTALDISCS=%totalcds%" -T "TOTALTRACKS=%numtracks%" -T "COMMENT=%comment%" %source% -o %dest%
TOC of the extracted CD
Track | Start | Length | Start sector | End sector --------------------------------------------------------- 1 | 0:00.00 | 2:13.05 | 0 | 9979 2 | 2:13.05 | 2:46.59 | 9980 | 22488 3 | 4:59.64 | 2:26.72 | 22489 | 33510 4 | 7:26.61 | 2:19.04 | 33511 | 43939 5 | 9:45.65 | 3:01.32 | 43940 | 57546 6 | 12:47.22 | 2:18.73 | 57547 | 67969 7 | 15:06.20 | 2:22.39 | 67970 | 78658 8 | 17:28.59 | 2:10.13 | 78659 | 88421 9 | 19:38.72 | 2:09.38 | 88422 | 98134 10 | 21:48.35 | 2:24.15 | 98135 | 108949 11 | 24:12.50 | 2:56.14 | 108950 | 122163 12 | 27:08.64 | 3:49.60 | 122164 | 139398 13 | 30:58.49 | 2:09.66 | 139399 | 149139 14 | 33:08.40 | 3:22.14 | 149140 | 164303 15 | 36:30.54 | 3:35.14 | 164304 | 180442 16 | 40:05.68 | 3:18.51 | 180443 | 195343 17 | 43:24.44 | 3:11.28 | 195344 | 209696 18 | 46:35.72 | 2:45.15 | 209697 | 222086 19 | 49:21.12 | 2:27.40 | 222087 | 233151 20 | 51:48.52 | 3:05.65 | 233152 | 247091
Track 1
Filename E:\CDRips\01 - Claude François - Belles Belles Belles [1962].wav
Pre-gap length 0:00:02.00
Peak level 97.7 % Extraction speed 1.5 X Track quality 100.0 % Test CRC 3B674976 Copy CRC 3B674976 Track not present in AccurateRip database Copy OK
Track 2
Filename E:\CDRips\02 - Johnny Hallyday - Pas Cette Chanson [1962].wav
Pre-gap length 0:00:01.98
Peak level 89.1 % Extraction speed 1.7 X Track quality 100.0 % Test CRC AADFC921 Copy CRC AADFC921 Track not present in AccurateRip database Copy OK
Track 3
Filename E:\CDRips\03 - Les Chaussettes Noires - Daniela [1961].wav
Pre-gap length 0:00:01.98
Peak level 97.7 % Extraction speed 1.7 X Track quality 100.0 % Test CRC 3345A907 Copy CRC 3345A907 Track not present in AccurateRip database Copy OK
Track 4
Filename E:\CDRips\04 - Les Chats Sauvages Avec Dick Rivers - C'est Pas Sérieux [1962].wav
Pre-gap length 0:00:01.98
Peak level 83.1 % Extraction speed 1.2 X Track quality 99.9 % Test CRC B01DB5DF Copy CRC B01DB5DF Track not present in AccurateRip database Copy OK
Track 5
Filename E:\CDRips\05 - Danyel Gérard - Le Petit Gonzales [1962].wav
Pre-gap length 0:00:01.98
Peak level 98.8 % Extraction speed 2.0 X Track quality 100.0 % Test CRC 0B49B86C Copy CRC 0B49B86C Track not present in AccurateRip database Copy OK
Track 6
Filename E:\CDRips\06 - Orlando - Elle A Des Yeux d'Ange [1961].wav
Pre-gap length 0:00:01.98
Peak level 89.1 % Extraction speed 2.0 X Track quality 100.0 % Test CRC 7C4EB181 Copy CRC 7C4EB181 Track not present in AccurateRip database Copy OK
Track 7
Filename E:\CDRips\07 - Françoise Hardy - Le Temps De l'Amour [1962].wav
Pre-gap length 0:00:01.98
Peak level 98.8 % Extraction speed 2.0 X Track quality 100.0 % Test CRC 99C86285 Copy CRC 99C86285 Track not present in AccurateRip database Copy OK
Track 8
Filename E:\CDRips\08 - Hugues Aufray - Santiano [1961].wav
Pre-gap length 0:00:01.98
Peak level 97.7 % Extraction speed 2.0 X Track quality 100.0 % Test CRC DDD8845C Copy CRC DDD8845C Track not present in AccurateRip database Copy OK
Track 9
Filename E:\CDRips\09 - Leny Escudero - Ballade À Sylvie [1962].wav
Pre-gap length 0:00:01.98
Peak level 89.0 % Extraction speed 2.1 X Track quality 100.0 % Test CRC 38AB88B9 Copy CRC 38AB88B9 Track not present in AccurateRip database Copy OK
Track 10
Filename E:\CDRips\10 - Edith Piaf & Théo Sarapo - À Quoi Ça Sert l'Amour [1962].wav
Pre-gap length 0:00:01.98
Peak level 89.1 % Extraction speed 2.2 X Track quality 100.0 % Test CRC EF0AF168 Copy CRC EF0AF168 Track not present in AccurateRip database Copy OK
Track 11
Filename E:\CDRips\11 - Enrico Macias - Enfants De Tous Pays [1963].wav
Pre-gap length 0:00:01.98
Peak level 90.3 % Extraction speed 2.4 X Track quality 100.0 % Test CRC D27A57E0 Copy CRC D27A57E0 Track not present in AccurateRip database Copy OK
Track 12
Filename E:\CDRips\12 - Jacques Brel - Ne Me Quitte Pas [1959].wav
Pre-gap length 0:00:01.98
Peak level 96.6 % Extraction speed 2.6 X Track quality 100.0 % Test CRC E7F573E8 Copy CRC E7F573E8 Track not present in AccurateRip database Copy OK
Track 13
Filename E:\CDRips\13 - Sacha Distel - Ce Serait Dommage [1959].wav
Pre-gap length 0:00:01.98
Peak level 96.6 % Extraction speed 2.4 X Track quality 100.0 % Test CRC C6ECFB03 Copy CRC C6ECFB03 Track not present in AccurateRip database Copy OK
Track 14
Filename E:\CDRips\14 - Charles Aznavour - Je m'Voyais Déjà [1960].wav
Pre-gap length 0:00:01.98
Peak level 97.7 % Extraction speed 2.0 X Track quality 99.9 % Test CRC F4E25CCA Copy CRC F4E25CCA Track not present in AccurateRip database Copy OK
Track 15
Filename E:\CDRips\15 - Dalida - Bambino [1956].wav
Pre-gap length 0:00:01.98
Peak level 98.8 % Extraction speed 2.8 X Track quality 100.0 % Test CRC 89FE8D64 Copy CRC 89FE8D64 Track not present in AccurateRip database Copy OK
Track 16
Filename E:\CDRips\16 - Bourvil - C'était Bien (Le Petit Bal Perdu) [1961].wav
Pre-gap length 0:00:01.98
Peak level 92.2 % Extraction speed 2.9 X Track quality 100.0 % Test CRC 4670B109 Copy CRC 4670B109 Track not present in AccurateRip database Copy OK
Track 17
Filename E:\CDRips\17 - Charles Trenet - Que Reste-T-Il De Nos Amours [1943].wav
Pre-gap length 0:00:01.98
Peak level 88.9 % Extraction speed 2.9 X Track quality 100.0 % Test CRC 0B67F4A5 Copy CRC 0B67F4A5 Track not present in AccurateRip database Copy OK
Track 18
Filename E:\CDRips\18 - Guy Béart - l'Eau Vive [1958].wav
Pre-gap length 0:00:01.98
Peak level 99.7 % Extraction speed 2.9 X Track quality 100.0 % Test CRC 0E644199 Copy CRC 0E644199 Track not present in AccurateRip database Copy OK
Track 19
Filename E:\CDRips\19 - Georges Brassens - Il n'Y A Pas d'Amour Heureux [1953].wav
Pre-gap length 0:00:01.98
Peak level 98.8 % Extraction speed 2.9 X Track quality 100.0 % Test CRC 479CA445 Copy CRC 479CA445 Track not present in AccurateRip database Copy OK
Track 20
Filename E:\CDRips\20 - Edith Piaf - La Vie En Rose [1946].wav
Pre-gap length 0:00:01.98
Peak level 98.8 % Extraction speed 3.0 X Track quality 100.0 % Test CRC 57E0C109 Copy CRC 57E0C109 Track not present in AccurateRip database Copy OK
None of the tracks are present in the AccurateRip database
No errors occurred
End of status report
---- CUETools DB Plugin V2.1.3
[CTDB TOCID: ap6FU.FGANCJ59Wm3cREHziCcWM-] disk not present in database, Submit result: ap6FU.FGANCJ59Wm3cREHziCcWM- has been uploaded
==== Log checksum 8A022C58546963C81B97F3AF092AE40B4C6516158882B5509DBD7CAA9B23BB61 ====

Содержание индексной карты (.CUE)

REM GENRE ChansonREM DATE 2013REM DISCID 050CDE14REM COMMENT "ExactAudioCopy v1.0b3"PERFORMER "Various Artists"TITLE "Les 100 Titres Cultes De La Chanson Francaise (2013) CD2"FILE "01 – Claude Francois – Belles Belles Belles [1962].wav" WAVE TRACK 01 AUDIO TITLE "Belles Belles Belles [1962]" PERFORMER "Claude Francois" INDEX 01 00:00:00 TRACK 02 AUDIO TITLE "Pas Cette Chanson [1962]" PERFORMER "Johnny Hallyday" INDEX 00 02:11:06FILE "02 - Johnny Hallyday - Pas Cette Chanson [1962].wav" WAVE INDEX 01 00:00:00 TRACK 03 AUDIO TITLE "Daniela [1961]" PERFORMER "Les Chaussettes Noires" INDEX 00 02:44:60FILE "03 - Les Chaussettes Noires - Daniela [1961].wav" WAVE INDEX 01 00:00:00 TRACK 04 AUDIO TITLE "C’est Pas Serieux [1962]" PERFORMER "Les Chats Sauvages Avec Dick Rivers" INDEX 00 02:24:73FILE "04 – Les Chats Sauvages Avec Dick Rivers – C’est Pas Serieux [1962].wav" WAVE INDEX 01 00:00:00 TRACK 05 AUDIO TITLE "Le Petit Gonzales [1962]" PERFORMER "Danyel Gerard" INDEX 00 02:17:05FILE "05 – Danyel Gerard – Le Petit Gonzales [1962].wav" WAVE INDEX 01 00:00:00 TRACK 06 AUDIO TITLE "Elle A Des Yeux d'Ange [1961]" PERFORMER "Orlando" INDEX 00 02:59:33FILE "06 - Orlando - Elle A Des Yeux d'Ange [1961].wav" WAVE INDEX 01 00:00:00 TRACK 07 AUDIO TITLE "Le Temps De l'Amour [1962]" PERFORMER "Francoise Hardy" INDEX 00 02:16:74FILE "07 – Francoise Hardy – Le Temps De l’Amour [1962].wav" WAVE INDEX 01 00:00:00 TRACK 08 AUDIO TITLE "Santiano [1961]" PERFORMER "Hugues Aufray" INDEX 00 02:20:40FILE "08 - Hugues Aufray - Santiano [1961].wav" WAVE INDEX 01 00:00:00 TRACK 09 AUDIO TITLE "Ballade A Sylvie [1962]" PERFORMER "Leny Escudero" INDEX 00 02:08:14FILE "09 – Leny Escudero – Ballade A Sylvie [1962].wav" WAVE INDEX 01 00:00:00 TRACK 10 AUDIO TITLE "A Quoi Ca Sert l’Amour [1962]" PERFORMER "Edith Piaf & Theo Sarapo" INDEX 00 02:07:39FILE "10 – Edith Piaf & Theo Sarapo – A Quoi Ca Sert l’Amour [1962].wav" WAVE INDEX 01 00:00:00 TRACK 11 AUDIO TITLE "Enfants De Tous Pays [1963]" PERFORMER "Enrico Macias" INDEX 00 02:22:16FILE "11 - Enrico Macias - Enfants De Tous Pays [1963].wav" WAVE INDEX 01 00:00:00 TRACK 12 AUDIO TITLE "Ne Me Quitte Pas [1959]" PERFORMER "Jacques Brel" INDEX 00 02:54:15FILE "12 - Jacques Brel - Ne Me Quitte Pas [1959].wav" WAVE INDEX 01 00:00:00 TRACK 13 AUDIO TITLE "Ce Serait Dommage [1959]" PERFORMER "Sacha Distel" INDEX 00 03:47:61FILE "13 - Sacha Distel - Ce Serait Dommage [1959].wav" WAVE INDEX 01 00:00:00 TRACK 14 AUDIO TITLE "Je m’Voyais Deja [1960]" PERFORMER "Charles Aznavour" INDEX 00 02:07:67FILE "14 – Charles Aznavour – Je m’Voyais Deja [1960].wav" WAVE INDEX 01 00:00:00 TRACK 15 AUDIO TITLE "Bambino [1956]" PERFORMER "Dalida" INDEX 00 03:20:15FILE "15 - Dalida - Bambino [1956].wav" WAVE INDEX 01 00:00:00 TRACK 16 AUDIO TITLE "C’etait Bien (Le Petit Bal Perdu) [1961]" PERFORMER "Bourvil" INDEX 00 03:33:15FILE "16 – Bourvil – C’etait Bien (Le Petit Bal Perdu) [1961].wav" WAVE INDEX 01 00:00:00 TRACK 17 AUDIO TITLE "Que Reste-T-Il De Nos Amours [1943]" PERFORMER "Charles Trenet" INDEX 00 03:16:52FILE "17 - Charles Trenet - Que Reste-T-Il De Nos Amours [1943].wav" WAVE INDEX 01 00:00:00 TRACK 18 AUDIO TITLE "l’Eau Vive [1958]" PERFORMER "Guy Beart" INDEX 00 03:09:29FILE "18 – Guy Beart – l’Eau Vive [1958].wav" WAVE INDEX 01 00:00:00 TRACK 19 AUDIO TITLE "Il n'Y A Pas d'Amour Heureux [1953]" PERFORMER "Georges Brassens" INDEX 00 02:43:16FILE "19 - Georges Brassens - Il n'Y A Pas d'Amour Heureux [1953].wav" WAVE INDEX 01 00:00:00 TRACK 20 AUDIO TITLE "La Vie En Rose [1946]" PERFORMER "Edith Piaf" INDEX 00 02:25:41FILE "20 - Edith Piaf - La Vie En Rose [1946].wav" WAVE INDEX 01 00:00:00

Лог проверки качества

-----------------------
DON'T MODIFY THIS FILE
-----------------------
PERFORMER: auCDtect Task Manager, ver. 1.5.1RC6 build 1.5.1.7Copyright (c) 2008-2010 y-soft. All rights reservedhttp://y-soft.org
ANALYZER: auCDtect: CD records authenticity detector, version 0.8.2Copyright (c) 2004 Oleg Berngardt. All rights reserved.Copyright (c) 2004 Alexander Djourik. All rights reserved.
FILE: 20 - Edith Piaf - La Vie En Rose [1946].flac Size: 9581473 Hash: 7579691B89F70FFBA4A533AE279ACDD5 Accuracy: -m0 Conclusion: MPEG 100% Signature: D98731C16DD459F27983A21E0F6E7641F3D60DCFFILE: 19 - Georges Brassens - Il n'Y A Pas d'Amour Heureux [1953].flac Size: 5271062 Hash: 6C50B8642AE66FCEEA7F43C2552C0714 Accuracy: -m0 Conclusion: MPEG 100% Signature: DC54F72A72A02AA0B0F92D5388288EC9FDDADD50FILE: 18 – Guy Beart – l’Eau Vive [1958].flac Size: 12057469 Hash: 3FFF2DE4804E54E90DCE63AD0182BDB9 Accuracy: -m0 Conclusion: CDDA 100% Signature: 565E568422BCD4B5473234727D2B28FD84670090FILE: 17 - Charles Trenet - Que Reste-T-Il De Nos Amours [1943].flac Size: 9856277 Hash: 59DD1716804E417F530D9DCDB20CD64A Accuracy: -m0 Conclusion: CDDA 76% Signature: E229D8C48CC6922F3C13F8630A946B7096FD1C9CFILE: 16 – Bourvil – C’etait Bien (Le Petit Bal Perdu) [1961].flac Size: 22673812 Hash: 4DD2A151E2A909BE4DD6A501CEBDD011 Accuracy: -m0 Conclusion: CDDA 100% Signature: 94A5F92071F7A2769B320F3C6A09EE7AF1D14819FILE: 15 - Dalida - Bambino [1956].flac Size: 17998026 Hash: 931FD42E4E926DE9BE646B113EF14638 Accuracy: -m0 Conclusion: CDDA 100% Signature: 0E560918EAA906679C3FB9369A6F087A47044463FILE: 14 – Charles Aznavour – Je m’Voyais Deja [1960].flac Size: 20039399 Hash: AA6D13E4406A05E9F8DB6BCE32C31323 Accuracy: -m0 Conclusion: CDDA 100% Signature: 2527AB7C57A01D07D9C4676A7487F712856E6150FILE: 13 - Sacha Distel - Ce Serait Dommage [1959].flac Size: 14644990 Hash: 9E26235291844193A11F02A43E780EB8 Accuracy: -m0 Conclusion: CDDA 100% Signature: FA7F023279923CC437261C2189F24602B8B8FC13FILE: 12 - Jacques Brel - Ne Me Quitte Pas [1959].flac Size: 22374181 Hash: 260C014A96CD019A7BCB06269EE7B41E Accuracy: -m0 Conclusion: CDDA 100% Signature: BF18E7B651CC5E70565467A2833109026A4223A1FILE: 11 - Enrico Macias - Enfants De Tous Pays [1963].flac Size: 19629421 Hash: F4D436C31888E524DAB1DBAE4082FC0C Accuracy: -m0 Conclusion: CDDA 100% Signature: 625AC3BBBAE0BBECBAA05ED2FE59FA85455A2A86FILE: 10 – Edith Piaf & Theo Sarapo – A Quoi Ca Sert l’Amour [1962].flac Size: 14352866 Hash: E54885E586FD0D6783972BE098F55818 Accuracy: -m0 Conclusion: CDDA 100% Signature: 28DB67F9CA334719508CC166E1EFBFFDE8FD4A31FILE: 09 – Leny Escudero – Ballade A Sylvie [1962].flac Size: 12541293 Hash: DFF843F8CDA27009BBBB34C81DA34C4D Accuracy: -m0 Conclusion: CDDA 100% Signature: 02A301B24D3BB262DE97FB84F9BABD2F04215004FILE: 08 - Hugues Aufray - Santiano [1961].flac Size: 11886494 Hash: E6779DEAFDF3766E05A5F9F3393C4417 Accuracy: -m0 Conclusion: MPEG 90% Signature: FC3733B39D730859F695E3AE356B2416E86514F2FILE: 07 – Francoise Hardy – Le Temps De l’Amour [1962].flac Size: 12252525 Hash: 6A42F4910814C557534CBB2BA65F2300 Accuracy: -m0 Conclusion: CDDA 87% Signature: 4CD2EA71378BA2A1CF653C7608014C559845007AFILE: 06 - Orlando - Elle A Des Yeux d'Ange [1961].flac Size: 12687057 Hash: F206B2ECC67D4BC4CD5E38F9196C5663 Accuracy: -m0 Conclusion: CDDA 99% Signature: 0040129F6FE3DBC00CD98AE3A9569C5AE64E536CFILE: 05 – Danyel Gerard – Le Petit Gonzales [1962].flac Size: 23026897 Hash: 90DFEB7F44E3EFC88097DF7173BF0B23 Accuracy: -m0 Conclusion: CDDA 99% Signature: C42C1AE39CA008A19ED02DF275DDB96EDF4D0E75FILE: 04 – Les Chats Sauvages Avec Dick Rivers – C’est Pas Serieux [1962].flac Size: 16069680 Hash: 60EB1877FE2F5752561EA0F76B169A0F Accuracy: -m0 Conclusion: CDDA 100% Signature: 364557F48A094932811233FFEBCCE938EBA255DBFILE: 03 - Les Chaussettes Noires - Daniela [1961].flac Size: 14102004 Hash: D72F19CEEB7A07CD1D09E4930AED830B Accuracy: -m0 Conclusion: MPEG 95% Signature: 3BA29378926A72AE7B545A537445562268B30334FILE: 02 - Johnny Hallyday - Pas Cette Chanson [1962].flac Size: 17153528 Hash: CFB0BDC1D9F59DE960BE3398BBBAA98C Accuracy: -m0 Conclusion: CDDA 99% Signature: BD848195F41E047487D757BD2E0F0F40A15805D7FILE: 01 – Claude Francois – Belles Belles Belles [1962].flac Size: 15728279 Hash: 83FDD4C0F8048865FF18530DEFAF7385 Accuracy: -m0 Conclusion: CDDA 100% Signature: 2BC7D47E34C487961E51FD6172493AD9A9FEC243

CD 3

01. Claude Nougaro – Le Jazz Et La Java [1962]
02. Georges Brassens – Dans l’Eau De La Claire Fontaine [1961]
03. Henri Salvador – Le Loup La Biche Et Le Chevalier (Une Chanson Douce) [1950]
04. Gilbert Bécaud – Je t’Appartiens [1955]
05. Yves Montand – C’est Si Bon [1948]
06. Jean Constantin – Mon Manège À Moi [1958]
07. Jacques Brel – La Valse À Mille Temps [1959]
08. Luis Mariano – Rossignol [1955]
09. Dario Moreno – Si Tu Vas À Rio (Madureira Chorou) [1956]
10. Edith Piaf – Milord [1959]
11. Jean-Claude Pascal – Nous Les Amoureux [1961]
12. Jeanne Moreau – Le Tourbillon [1961]
13. Eddie Constantine & Tania – l’Homme Et l’Enfant [1955]
14. Léo Ferré – Paname [1960]
15. Juliette Gréco – Si Tu t’Imagines [1959]
16. Georges Brassens – Le Temps Ne Fait Rien À l’Affaire [1961]
17. Pierre Perret – Moi j’Attends Adèle [1958]
18. Les Pingouins – Oh Les Filles [1962]
19. Sylvie Vartan – Est-Ce Que Tu Le Sais [1962]
20. Les Chats Sauvages & Mike Shannon – Derniers Baisers [1962]

Лог создания рипа

Exact Audio Copy V1.0 beta 3 from 29. August 2011
EAC extraction logfile from 28. September 2013, 20:44
Various Artists / Les 100 Titres Cultes De La Chanson Française (2013) CD3
Used drive : hp CDDVDW TS-L633N Adapter: 0 ID: 1
Read mode : SecureUtilize accurate stream : YesDefeat audio cache : YesMake use of C2 pointers : No
Read offset correction : 6Overread into Lead-In and Lead-Out : NoFill up missing offset samples with silence : YesDelete leading and trailing silent blocks : NoNull samples used in CRC calculations : YesUsed interface : Native Win32 interface for Win NT & 2000Gap handling : Appended to previous track
Used output format : User Defined EncoderSelected bitrate : 1024 kBit/sQuality : HighAdd ID3 tag : NoCommand line compressor : C:\Program Files (x86)\Exact Audio Copy\Flac\flac.exeAdditional command line options : -8 -V -T "ARTIST=%artist%" -T "TITLE=%title%" -T "ALBUM=%albumtitle%" -T "DATE=%year%" -T "TRACKNUMBER=%tracknr%" -T "GENRE=%genre%" -T "PERFORMER=%albuminterpret%" -T "COMPOSER=%composer%" %haslyrics%--tag-from-file=LYRICS="%lyricsfile%"%haslyrics% -T "ALBUMARTIST=%albumartist%" -T "DISCNUMBER=%cdnumber%" -T "TOTALDISCS=%totalcds%" -T "TOTALTRACKS=%numtracks%" -T "COMMENT=%comment%" %source% -o %dest%
TOC of the extracted CD
Track | Start | Length | Start sector | End sector --------------------------------------------------------- 1 | 0:00.00 | 2:26.39 | 0 | 10988 2 | 2:26.39 | 2:14.25 | 10989 | 21063 3 | 4:40.64 | 2:28.05 | 21064 | 32168 4 | 7:08.69 | 2:50.00 | 32169 | 44918 5 | 9:58.69 | 3:07.52 | 44919 | 58995 6 | 13:06.46 | 3:16.13 | 58996 | 73708 7 | 16:22.59 | 3:50.56 | 73709 | 91014 8 | 20:13.40 | 3:21.44 | 91015 | 106133 9 | 23:35.09 | 2:27.53 | 106134 | 117211 10 | 26:02.62 | 4:30.21 | 117212 | 137482 11 | 30:33.08 | 3:10.08 | 137483 | 151740 12 | 33:43.16 | 2:01.23 | 151741 | 160838 13 | 35:44.39 | 3:18.52 | 160839 | 175740 14 | 39:03.16 | 4:32.54 | 175741 | 196194 15 | 43:35.70 | 2:43.10 | 196195 | 208429 16 | 46:19.05 | 2:06.71 | 208430 | 217950 17 | 48:26.01 | 1:37.68 | 217951 | 225293 18 | 50:03.69 | 2:10.37 | 225294 | 235080 19 | 52:14.31 | 3:03.10 | 235081 | 248815 20 | 55:17.41 | 2:24.72 | 248816 | 259687
Track 1
Filename E:\CDRips\01 - Claude Nougaro - Le Jazz Et La Java [1962].wav
Pre-gap length 0:00:02.00
Peak level 90.0 % Extraction speed 1.5 X Track quality 100.0 % Test CRC 59274FF0 Copy CRC 59274FF0 Track not present in AccurateRip database Copy OK
Track 2
Filename E:\CDRips\02 - Georges Brassens - Dans l'Eau De La Claire Fontaine [1961].wav
Pre-gap length 0:00:01.98
Peak level 100.0 % Extraction speed 1.6 X Track quality 100.0 % Test CRC 884F69A3 Copy CRC 884F69A3 Track not present in AccurateRip database Copy OK
Track 3
Filename E:\CDRips\03 - Henri Salvador - Le Loup La Biche Et Le Chevalier (Une Chanson Douce) [1950].wav
Pre-gap length 0:00:01.98
Peak level 99.8 % Extraction speed 1.2 X Track quality 99.9 % Test CRC C3710F32 Copy CRC C3710F32 Track not present in AccurateRip database Copy OK
Track 4
Filename E:\CDRips\04 - Gilbert Bécaud - Je t'Appartiens [1955].wav
Pre-gap length 0:00:01.98
Peak level 89.9 % Extraction speed 1.3 X Track quality 99.9 % Test CRC AF197E6B Copy CRC AF197E6B Track not present in AccurateRip database Copy OK
Track 5
Filename E:\CDRips\05 - Yves Montand - C'est Si Bon [1948].wav
Pre-gap length 0:00:01.98
Peak level 98.8 % Extraction speed 2.0 X Track quality 100.0 % Test CRC 63A30066 Copy CRC 63A30066 Track not present in AccurateRip database Copy OK
Track 6
Filename E:\CDRips\06 - Jean Constantin - Mon Manège À Moi [1958].wav
Pre-gap length 0:00:01.98
Peak level 98.8 % Extraction speed 1.6 X Track quality 99.9 % Test CRC 715A9430 Copy CRC 715A9430 Track not present in AccurateRip database Copy OK
Track 7
Filename E:\CDRips\07 - Jacques Brel - La Valse À Mille Temps [1959].wav
Pre-gap length 0:00:01.98
Peak level 96.6 % Extraction speed 1.7 X Track quality 99.9 % Test CRC 327DA4FC Copy CRC 327DA4FC Track not present in AccurateRip database Copy OK
Track 8
Filename E:\CDRips\08 - Luis Mariano - Rossignol [1955].wav
Pre-gap length 0:00:01.98
Peak level 99.8 % Extraction speed 2.3 X Track quality 100.0 % Test CRC 69EC1261 Copy CRC 69EC1261 Track not present in AccurateRip database Copy OK
Track 9
Filename E:\CDRips\09 - Dario Moreno - Si Tu Vas À Rio (Madureira Chorou) [1956].wav
Pre-gap length 0:00:01.98
Peak level 100.0 % Extraction speed 1.6 X Track quality 99.9 % Test CRC 3FFF4B0D Copy CRC 3FFF4B0D Track not present in AccurateRip database Copy OK
Track 10
Filename E:\CDRips\10 - Edith Piaf - Milord [1959].wav
Pre-gap length 0:00:01.98
Peak level 96.6 % Extraction speed 2.6 X Track quality 100.0 % Test CRC 537A3441 Copy CRC 537A3441 Track not present in AccurateRip database Copy OK
Track 11
Filename E:\CDRips\11 - Jean-Claude Pascal - Nous Les Amoureux [1961].wav
Pre-gap length 0:00:01.98
Peak level 98.8 % Extraction speed 2.6 X Track quality 100.0 % Test CRC E0B7239C Copy CRC E0B7239C Track not present in AccurateRip database Copy OK
Track 12
Filename E:\CDRips\12 - Jeanne Moreau - Le Tourbillon [1961].wav
Pre-gap length 0:00:01.98
Peak level 90.9 % Extraction speed 2.4 X Track quality 100.0 % Test CRC FE08F5D1 Copy CRC FE08F5D1 Track not present in AccurateRip database Copy OK
Track 13
Filename E:\CDRips\13 - Eddie Constantine & Tania - l'Homme Et l'Enfant [1955].wav
Pre-gap length 0:00:01.98
Peak level 97.0 % Extraction speed 2.7 X Track quality 100.0 % Test CRC 63B1CDA3 Copy CRC 63B1CDA3 Track not present in AccurateRip database Copy OK
Track 14
Filename E:\CDRips\14 - Léo Ferré - Paname [1960].wav
Pre-gap length 0:00:01.98
Peak level 97.7 % Extraction speed 2.9 X Track quality 100.0 % Test CRC EFF3C3B3 Copy CRC EFF3C3B3 Track not present in AccurateRip database Copy OK
Track 15
Filename E:\CDRips\15 - Juliette Gréco - Si Tu t'Imagines [1959].wav
Pre-gap length 0:00:01.98
Peak level 98.8 % Extraction speed 2.8 X Track quality 100.0 % Test CRC 7DB6B7F3 Copy CRC 7DB6B7F3 Track not present in AccurateRip database Copy OK
Track 16
Filename E:\CDRips\16 - Georges Brassens - Le Temps Ne Fait Rien À l'Affaire [1961].wav
Pre-gap length 0:00:01.98
Peak level 89.1 % Extraction speed 2.7 X Track quality 100.0 % Test CRC C95905DD Copy CRC C95905DD Track not present in AccurateRip database Copy OK
Track 17
Filename E:\CDRips\17 - Pierre Perret - Moi j'Attends Adèle [1958].wav
Pre-gap length 0:00:01.98
Peak level 98.8 % Extraction speed 1.5 X Track quality 99.8 % Test CRC 72C17857 Copy CRC 72C17857 Track not present in AccurateRip database Copy OK
Track 18
Filename E:\CDRips\18 - Les Pingouins - Oh Les Filles [1962].wav
Pre-gap length 0:00:01.98
Peak level 100.0 % Extraction speed 1.8 X Track quality 99.9 % Test CRC 6E821B71 Copy CRC 6E821B71 Track not present in AccurateRip database Copy OK
Track 19
Filename E:\CDRips\19 - Sylvie Vartan - Est-Ce Que Tu Le Sais [1962].wav
Pre-gap length 0:00:01.98
Peak level 81.5 % Extraction speed 3.1 X Track quality 100.0 % Test CRC 65937F67 Copy CRC 65937F67 Track not present in AccurateRip database Copy OK
Track 20
Filename E:\CDRips\20 - Les Chats Sauvages & Mike Shannon - Derniers Baisers [1962].wav
Pre-gap length 0:00:01.98
Peak level 90.0 % Extraction speed 3.0 X Track quality 100.0 % Test CRC 0B235D85 Copy CRC 0B235D85 Track not present in AccurateRip database Copy OK
None of the tracks are present in the AccurateRip database
No errors occurred
End of status report
---- CUETools DB Plugin V2.1.3
[CTDB TOCID: _TJsfco0Jgx6u1j43veqb4Q42xM-] disk not present in database, Submit result: _TJsfco0Jgx6u1j43veqb4Q42xM- has been uploaded
==== Log checksum 7EC76077556C28DA5D27D1F0ED4AA7CDBF8A28F792EA44B3E76CD83B071DF7FA ====

Содержание индексной карты (.CUE)

REM GENRE ChansonREM DATE 2013REM DISCID 0A0D8614REM COMMENT "ExactAudioCopy v1.0b3"PERFORMER "Various Artists"TITLE "Les 100 Titres Cultes De La Chanson Francaise (2013) CD3"FILE "01 - Claude Nougaro - Le Jazz Et La Java [1962].wav" WAVE TRACK 01 AUDIO TITLE "Le Jazz Et La Java [1962]" PERFORMER "Claude Nougaro" INDEX 01 00:00:00 TRACK 02 AUDIO TITLE "Dans l'Eau De La Claire Fontaine [1961]" PERFORMER "Georges Brassens" INDEX 00 02:24:40FILE "02 - Georges Brassens - Dans l'Eau De La Claire Fontaine [1961].wav" WAVE INDEX 01 00:00:00 TRACK 03 AUDIO TITLE "Le Loup La Biche Et Le Chevalier (Une Chanson Douce) [1950]" PERFORMER "Henri Salvador" INDEX 00 02:12:26FILE "03 - Henri Salvador - Le Loup La Biche Et Le Chevalier (Une Chanson Douce) [1950].wav" WAVE INDEX 01 00:00:00 TRACK 04 AUDIO TITLE "Je t’Appartiens [1955]" PERFORMER "Gilbert Becaud" INDEX 00 02:26:06FILE "04 – Gilbert Becaud – Je t’Appartiens [1955].wav" WAVE INDEX 01 00:00:00 TRACK 05 AUDIO TITLE "C'est Si Bon [1948]" PERFORMER "Yves Montand" INDEX 00 02:48:01FILE "05 - Yves Montand - C'est Si Bon [1948].wav" WAVE INDEX 01 00:00:00 TRACK 06 AUDIO TITLE "Mon Manege A Moi [1958]" PERFORMER "Jean Constantin" INDEX 00 03:05:53FILE "06 – Jean Constantin – Mon Manege A Moi [1958].wav" WAVE INDEX 01 00:00:00 TRACK 07 AUDIO TITLE "La Valse A Mille Temps [1959]" PERFORMER "Jacques Brel" INDEX 00 03:14:14FILE "07 – Jacques Brel – La Valse A Mille Temps [1959].wav" WAVE INDEX 01 00:00:00 TRACK 08 AUDIO TITLE "Rossignol [1955]" PERFORMER "Luis Mariano" INDEX 00 03:48:57FILE "08 - Luis Mariano - Rossignol [1955].wav" WAVE INDEX 01 00:00:00 TRACK 09 AUDIO TITLE "Si Tu Vas A Rio (Madureira Chorou) [1956]" PERFORMER "Dario Moreno" INDEX 00 03:19:45FILE "09 – Dario Moreno – Si Tu Vas A Rio (Madureira Chorou) [1956].wav" WAVE INDEX 01 00:00:00 TRACK 10 AUDIO TITLE "Milord [1959]" PERFORMER "Edith Piaf" INDEX 00 02:25:54FILE "10 - Edith Piaf - Milord [1959].wav" WAVE INDEX 01 00:00:00 TRACK 11 AUDIO TITLE "Nous Les Amoureux [1961]" PERFORMER "Jean-Claude Pascal" INDEX 00 04:28:22FILE "11 - Jean-Claude Pascal - Nous Les Amoureux [1961].wav" WAVE INDEX 01 00:00:00 TRACK 12 AUDIO TITLE "Le Tourbillon [1961]" PERFORMER "Jeanne Moreau" INDEX 00 03:08:09FILE "12 - Jeanne Moreau - Le Tourbillon [1961].wav" WAVE INDEX 01 00:00:00 TRACK 13 AUDIO TITLE "l'Homme Et l'Enfant [1955]" PERFORMER "Eddie Constantine & Tania" INDEX 00 01:59:24FILE "13 - Eddie Constantine & Tania - l'Homme Et l'Enfant [1955].wav" WAVE INDEX 01 00:00:00 TRACK 14 AUDIO TITLE "Paname [1960]" PERFORMER "Leo Ferre" INDEX 00 03:16:53FILE "14 – Leo Ferre – Paname [1960].wav" WAVE INDEX 01 00:00:00 TRACK 15 AUDIO TITLE "Si Tu t’Imagines [1959]" PERFORMER "Juliette Greco" INDEX 00 04:30:55FILE "15 – Juliette Greco – Si Tu t’Imagines [1959].wav" WAVE INDEX 01 00:00:00 TRACK 16 AUDIO TITLE "Le Temps Ne Fait Rien A l'Affaire [1961]" PERFORMER "Georges Brassens" INDEX 00 02:41:11FILE "16 – Georges Brassens – Le Temps Ne Fait Rien A l’Affaire [1961].wav" WAVE INDEX 01 00:00:00 TRACK 17 AUDIO TITLE "Moi j’Attends Adele [1958]" PERFORMER "Pierre Perret" INDEX 00 02:04:72FILE "17 – Pierre Perret – Moi j’Attends Adele [1958].wav" WAVE INDEX 01 00:00:00 TRACK 18 AUDIO TITLE "Oh Les Filles [1962]" PERFORMER "Les Pingouins" INDEX 00 01:35:69FILE "18 - Les Pingouins - Oh Les Filles [1962].wav" WAVE INDEX 01 00:00:00 TRACK 19 AUDIO TITLE "Est-Ce Que Tu Le Sais [1962]" PERFORMER "Sylvie Vartan" INDEX 00 02:08:38FILE "19 - Sylvie Vartan - Est-Ce Que Tu Le Sais [1962].wav" WAVE INDEX 01 00:00:00 TRACK 20 AUDIO TITLE "Derniers Baisers [1962]" PERFORMER "Les Chats Sauvages & Mike Shannon" INDEX 00 03:01:11FILE "20 - Les Chats Sauvages & Mike Shannon - Derniers Baisers [1962].wav" WAVE INDEX 01 00:00:00

Лог проверки качества

-----------------------
DON'T MODIFY THIS FILE
-----------------------
PERFORMER: auCDtect Task Manager, ver. 1.5.1RC6 build 1.5.1.7Copyright (c) 2008-2010 y-soft. All rights reservedhttp://y-soft.org
ANALYZER: auCDtect: CD records authenticity detector, version 0.8.2Copyright (c) 2004 Oleg Berngardt. All rights reserved.Copyright (c) 2004 Alexander Djourik. All rights reserved.
FILE: 03 - Henri Salvador - Le Loup La Biche Et Le Chevalier (Une Chanson Douce) [1950].flac Size: 11257037 Hash: 45C87B606F32C7693298C33209B26801 Accuracy: -m0 Conclusion: MPEG 95% Signature: 2FA3E7DD0E0D55D2A3E6795F36DB95B02A054050FILE: 02 - Georges Brassens - Dans l'Eau De La Claire Fontaine [1961].flac Size: 14983758 Hash: 613D9E82ED348A2FC723854F00969E2D Accuracy: -m0 Conclusion: CDDA 99% Signature: 5CDF47856A8340365D6A5A8FF2C0CA843DCB65ECFILE: 01 - Claude Nougaro - Le Jazz Et La Java [1962].flac Size: 15169949 Hash: 2F686AE4B068099584C3FEDD3D654E72 Accuracy: -m0 Conclusion: CDDA 100% Signature: 00CA39984DE0F5FCD203AB746E8F4D6E35966827FILE: 20 - Les Chats Sauvages & Mike Shannon - Derniers Baisers [1962].flac Size: 14925972 Hash: 82D69A5BFED6CA78768EC010A28277E6 Accuracy: -m0 Conclusion: CDDA 99% Signature: A01CBED73182A4553F9ADCEC31134EEADA090681FILE: 19 - Sylvie Vartan - Est-Ce Que Tu Le Sais [1962].flac Size: 19463626 Hash: 9B55EE2D8D811A36973853641B289748 Accuracy: -m0 Conclusion: CDDA 100% Signature: 40F92E6C5806305B475D72A2B2B669B849C4CF8BFILE: 18 - Les Pingouins - Oh Les Filles [1962].flac Size: 12115315 Hash: 674E24025E13C190199551FD7690AA0B Accuracy: -m0 Conclusion: CDDA 100% Signature: B9F0385CEAEBBCA77422E19D91585B7F0E7E6380FILE: 17 – Pierre Perret – Moi j’Attends Adele [1958].flac Size: 10196699 Hash: E7DA77A135B36C1922C689F18BBFFB07 Accuracy: -m0 Conclusion: CDDA 100% Signature: BAFF68FC9CE25C1F95D2743EC64BC9A70E1151AAFILE: 16 – Georges Brassens – Le Temps Ne Fait Rien A l’Affaire [1961].flac Size: 10115048 Hash: 9B8B827A2413E81F72CFD2B52BD7F835 Accuracy: -m0 Conclusion: CDDA 100% Signature: 31A8AC4A6A5C58877678BFA145FCAFEFB950AD9FFILE: 15 – Juliette Greco – Si Tu t’Imagines [1959].flac Size: 10937870 Hash: 5A4C45C8BEF2E93FC5F77879A5975D7C Accuracy: -m0 Conclusion: CDDA 100% Signature: 938A13B9E38BC1604D3EABFD04472404425B620DFILE: 14 – Leo Ferre – Paname [1960].flac Size: 29696765 Hash: 99701C3DB21537F8CD095A793027B463 Accuracy: -m0 Conclusion: CDDA 100% Signature: FD42ED65000FE434C60AB2475C74C92C51290685FILE: 13 - Eddie Constantine & Tania - l'Homme Et l'Enfant [1955].flac Size: 16739435 Hash: DF63D87C66812FD173BDD43958D39E7F Accuracy: -m0 Conclusion: MPEG 95% Signature: A3C66185160DE5E8CC9D1E0680433F0F7FC21AA4FILE: 12 - Jeanne Moreau - Le Tourbillon [1961].flac Size: 8587243 Hash: 901BFBFBD156C47A8BA97088FFAEB721 Accuracy: -m0 Conclusion: CDDA 92% Signature: 0BD37BE6182EFBC801A75EAADBED39D0233248AAFILE: 11 - Jean-Claude Pascal - Nous Les Amoureux [1961].flac Size: 19837717 Hash: D0CDC31E7506CD5DEDAB2F7A83AE4BF4 Accuracy: -m0 Conclusion: CDDA 100% Signature: CC7F548726340AD60C3C507E969C77B41560B1C8FILE: 10 - Edith Piaf - Milord [1959].flac Size: 26365951 Hash: 8B9663DA68E2D52D9D49723C3A7AF64B Accuracy: -m0 Conclusion: CDDA 100% Signature: 02EF17E50CDEE67C65B08B33033BBB254B477CABFILE: 09 – Dario Moreno – Si Tu Vas A Rio (Madureira Chorou) [1956].flac Size: 10164699 Hash: 466194151FF643E697A3F0BA66089128 Accuracy: -m0 Conclusion: CDDA 100% Signature: 73E735BDA36D7C7AFB689C5DEAEA4434277FFD3AFILE: 08 - Luis Mariano - Rossignol [1955].flac Size: 18987720 Hash: DCC7D6CECD2351DA77F1824F2FE764AD Accuracy: -m0 Conclusion: CDDA 100% Signature: B6A7D7AC1F538B7267355F1AFD6E2CD028D55D0BFILE: 07 – Jacques Brel – La Valse A Mille Temps [1959].flac Size: 25599480 Hash: CB47F2BE6BB231DD03E91908C89F46F6 Accuracy: -m0 Conclusion: CDDA 100% Signature: 3C08EFA31FFDDA8D303F3EC71F7D1A6F064597C9FILE: 06 – Jean Constantin – Mon Manege A Moi [1958].flac Size: 18958805 Hash: 05E76B78B7039701CCF3E08C4A887C23 Accuracy: -m0 Conclusion: CDDA 100% Signature: 1ACC423CD92E71E5C634C492BD6DC60B10BF4882FILE: 05 - Yves Montand - C'est Si Bon [1948].flac Size: 6627066 Hash: 7FE5E2A2C641F93B2F43573378830DB9 Accuracy: -m0 Conclusion: MPEG 97% Signature: C530801EDBC2C28002C029F1C4744A09E6BF794BFILE: 04 – Gilbert Becaud – Je t’Appartiens [1955].flac Size: 12829413 Hash: 1A280578C61FE8A63E3C4C8A3671239B Accuracy: -m0 Conclusion: CDDA 100% Signature: 5BA5B627A923233FEBC5024D3314C73B6D7BB539

CD 4

01. Serge Gainsbourg – Le Poinçonneur Des Lilas [1958]
02. Jacques Brel – Les Bourgeois [1962]
03. Marcel Amont – Bleu Blanc Blond [1960]
04. Edith Piaf – l’Hymne À l’Amour [1961]
05. Charles Trenet – Y’a d’La Joie [1938]
06. Georges Brassens – Les Amoureux Des Bancs Publics [1953]
07. Jean Sablon – Vous Qui Passez Sans Me Voir [1936]
08. Les Compagnons De La Chanson – Qu’Il Fait Bon Vivre [1960]
09. Nana Mouskouri – Crois-Moi Ça Durera [1962]
10. Bourvil – La Ballade Irlandaise [1957]
11. Colette Renard – Ah Dis Donc Dis Donc [1956]
12. François Deguelt – Que Sera Sera [1957]
13. Josephine Baker – J’ai Deux Amours [1930]
14. Sacha Distel – Scoubidou (Des Pommes Des Poires) [1959]
15. René Louis Lafforgue – Julie La Rousse [1957]
16. Line Renaud – Ma P’tite Folie [1959]
17. Claude François – Moi Je Pense Encore À Toi [1962]
18. Françoise Hardy – Tous Les Garçons Et Les Filles [1962]
19. Frankie Jordan & Sylvie Vartan – Panne d’Essence [1961]
20. Richard Anthony – J’irai Pleurer Sous La Pluie [1962]

Лог создания рипа

Exact Audio Copy V1.0 beta 3 from 29. August 2011
EAC extraction logfile from 28. September 2013, 22:00
Various Artists / Les 100 Titres Cultes De La Chanson Française (2013) CD4
Used drive : hp CDDVDW TS-L633N Adapter: 0 ID: 1
Read mode : SecureUtilize accurate stream : YesDefeat audio cache : YesMake use of C2 pointers : No
Read offset correction : 6Overread into Lead-In and Lead-Out : NoFill up missing offset samples with silence : YesDelete leading and trailing silent blocks : NoNull samples used in CRC calculations : YesUsed interface : Native Win32 interface for Win NT & 2000Gap handling : Appended to previous track
Used output format : User Defined EncoderSelected bitrate : 1024 kBit/sQuality : HighAdd ID3 tag : NoCommand line compressor : C:\Program Files (x86)\Exact Audio Copy\Flac\flac.exeAdditional command line options : -8 -V -T "ARTIST=%artist%" -T "TITLE=%title%" -T "ALBUM=%albumtitle%" -T "DATE=%year%" -T "TRACKNUMBER=%tracknr%" -T "GENRE=%genre%" -T "PERFORMER=%albuminterpret%" -T "COMPOSER=%composer%" %haslyrics%--tag-from-file=LYRICS="%lyricsfile%"%haslyrics% -T "ALBUMARTIST=%albumartist%" -T "DISCNUMBER=%cdnumber%" -T "TOTALDISCS=%totalcds%" -T "TOTALTRACKS=%numtracks%" -T "COMMENT=%comment%" %source% -o %dest%
TOC of the extracted CD
Track | Start | Length | Start sector | End sector --------------------------------------------------------- 1 | 0:00.00 | 2:43.59 | 0 | 12283 2 | 2:43.59 | 2:50.55 | 12284 | 25088 3 | 5:34.39 | 2:37.59 | 25089 | 36922 4 | 8:12.23 | 3:27.73 | 36923 | 52520 5 | 11:40.21 | 2:30.24 | 52521 | 63794 6 | 14:10.45 | 3:05.02 | 63795 | 77671 7 | 17:15.47 | 3:04.55 | 77672 | 91526 8 | 20:20.27 | 2:09.15 | 91527 | 101216 9 | 22:29.42 | 2:34.26 | 101217 | 112792 10 | 25:03.68 | 2:57.49 | 112793 | 126116 11 | 28:01.42 | 2:01.53 | 126117 | 135244 12 | 30:03.20 | 2:41.29 | 135245 | 147348 13 | 32:44.49 | 3:11.00 | 147349 | 161673 14 | 35:55.49 | 3:01.27 | 161674 | 175275 15 | 38:57.01 | 2:14.55 | 175276 | 185380 16 | 41:11.56 | 2:45.48 | 185381 | 197803 17 | 43:57.29 | 2:15.50 | 197804 | 207978 18 | 46:13.04 | 3:07.55 | 207979 | 222058 19 | 49:20.59 | 2:15.01 | 222059 | 232184 20 | 51:35.60 | 2:02.21 | 232185 | 241355
Track 1
Filename E:\CDRips\01 - Serge Gainsbourg - Le Poinçonneur Des Lilas [1958].wav
Pre-gap length 0:00:02.00
Peak level 98.6 % Extraction speed 1.6 X Track quality 100.0 % Test CRC 06E53E45 Copy CRC 06E53E45 Track not present in AccurateRip database Copy OK
Track 2
Filename E:\CDRips\02 - Jacques Brel - Les Bourgeois [1962].wav
Pre-gap length 0:00:01.98
Peak level 89.1 % Extraction speed 1.7 X Track quality 100.0 % Test CRC 277D6F85 Copy CRC 277D6F85 Track not present in AccurateRip database Copy OK
Track 3
Filename E:\CDRips\03 - Marcel Amont - Bleu Blanc Blond [1960].wav
Pre-gap length 0:00:01.98
Peak level 96.4 % Extraction speed 1.8 X Track quality 100.0 % Test CRC D1DBC5BA Copy CRC D1DBC5BA Track not present in AccurateRip database Copy OK
Track 4
Filename E:\CDRips\04 - Edith Piaf - l'Hymne À l'Amour [1961].wav
Pre-gap length 0:00:01.98
Peak level 93.3 % Extraction speed 2.0 X Track quality 100.0 % Test CRC E5D454E9 Copy CRC E5D454E9 Track not present in AccurateRip database Copy OK
Track 5
Filename E:\CDRips\05 - Charles Trenet - Y'a d'La Joie [1938].wav
Pre-gap length 0:00:01.98
Peak level 99.8 % Extraction speed 2.0 X Track quality 100.0 % Test CRC D7FE570A Copy CRC D7FE570A Track not present in AccurateRip database Copy OK
Track 6
Filename E:\CDRips\06 - Georges Brassens - Les Amoureux Des Bancs Publics [1953].wav
Pre-gap length 0:00:01.98
Peak level 99.9 % Extraction speed 2.2 X Track quality 100.0 % Test CRC C85A6016 Copy CRC C85A6016 Track not present in AccurateRip database Copy OK
Track 7
Filename E:\CDRips\07 - Jean Sablon - Vous Qui Passez Sans Me Voir [1936].wav
Pre-gap length 0:00:01.98
Peak level 99.8 % Extraction speed 2.3 X Track quality 100.0 % Test CRC D00226D0 Copy CRC D00226D0 Track not present in AccurateRip database Copy OK
Track 8
Filename E:\CDRips\08 - Les Compagnons De La Chanson - Qu'Il Fait Bon Vivre [1960].wav
Pre-gap length 0:00:01.98
Peak level 97.7 % Extraction speed 2.2 X Track quality 100.0 % Test CRC 78404ED2 Copy CRC 78404ED2 Track not present in AccurateRip database Copy OK
Track 9
Filename E:\CDRips\09 - Nana Mouskouri - Crois-Moi Ça Durera [1962].wav
Pre-gap length 0:00:01.98
Peak level 97.7 % Extraction speed 1.6 X Track quality 99.9 % Test CRC 86628AA7 Copy CRC 86628AA7 Track not present in AccurateRip database Copy OK
Track 10
Filename E:\CDRips\10 - Bourvil - La Ballade Irlandaise [1957].wav
Pre-gap length 0:00:01.98
Peak level 99.7 % Extraction speed 2.4 X Track quality 100.0 % Test CRC 8E1913B1 Copy CRC 8E1913B1 Track not present in AccurateRip database Copy OK
Track 11
Filename E:\CDRips\11 - Colette Renard - Ah Dis Donc Dis Donc [1956].wav
Pre-gap length 0:00:01.98
Peak level 98.8 % Extraction speed 2.3 X Track quality 100.0 % Test CRC 8E5DDE76 Copy CRC 8E5DDE76 Track not present in AccurateRip database Copy OK
Track 12
Filename E:\CDRips\12 - François Deguelt - Que Sera Sera [1957].wav
Pre-gap length 0:00:01.98
Peak level 91.2 % Extraction speed 2.5 X Track quality 100.0 % Test CRC D1D04DAC Copy CRC D1D04DAC Track not present in AccurateRip database Copy OK
Track 13
Filename E:\CDRips\13 - Josephine Baker - J'ai Deux Amours [1930].wav
Pre-gap length 0:00:01.98
Peak level 98.8 % Extraction speed 2.6 X Track quality 100.0 % Test CRC 69787F7A Copy CRC 69787F7A Track not present in AccurateRip database Copy OK
Track 14
Filename E:\CDRips\14 - Sacha Distel - Scoubidou (Des Pommes Des Poires) [1959].wav
Pre-gap length 0:00:01.98
Peak level 97.8 % Extraction speed 2.7 X Track quality 100.0 % Test CRC BFF75533 Copy CRC BFF75533 Track not present in AccurateRip database Copy OK
Track 15
Filename E:\CDRips\15 - René Louis Lafforgue - Julie La Rousse [1957].wav
Pre-gap length 0:00:01.98
Peak level 100.0 % Extraction speed 2.6 X Track quality 100.0 % Test CRC EE728977 Copy CRC EE728977 Track not present in AccurateRip database Copy OK
Track 16
Filename E:\CDRips\16 - Line Renaud - Ma P'tite Folie [1959].wav
Pre-gap length 0:00:01.98
Peak level 98.8 % Extraction speed 1.9 X Track quality 99.9 % Test CRC 9D605EB1 Copy CRC 9D605EB1 Track not present in AccurateRip database Copy OK
Track 17
Filename E:\CDRips\17 - Claude François - Moi Je Pense Encore À Toi [1962].wav
Pre-gap length 0:00:01.98
Peak level 97.7 % Extraction speed 2.7 X Track quality 100.0 % Test CRC ADCD82C1 Copy CRC ADCD82C1 Track not present in AccurateRip database Copy OK
Track 18
Filename E:\CDRips\18 - Françoise Hardy - Tous Les Garçons Et Les Filles [1962].wav
Pre-gap length 0:00:01.98
Peak level 98.8 % Extraction speed 2.9 X Track quality 100.0 % Test CRC 351746F8 Copy CRC 351746F8 Track not present in AccurateRip database Copy OK
Track 19
Filename E:\CDRips\19 - Frankie Jordan & Sylvie Vartan - Panne d'Essence [1961].wav
Pre-gap length 0:00:01.98
Peak level 97.7 % Extraction speed 2.8 X Track quality 100.0 % Test CRC 3D39AE86 Copy CRC 3D39AE86 Track not present in AccurateRip database Copy OK
Track 20
Filename E:\CDRips\20 - Richard Anthony - J'irai Pleurer Sous La Pluie [1962].wav
Pre-gap length 0:00:01.98
Peak level 97.7 % Extraction speed 2.8 X Track quality 100.0 % Test CRC 33EBB3A8 Copy CRC 33EBB3A8 Track not present in AccurateRip database Copy OK
None of the tracks are present in the AccurateRip database
No errors occurred
End of status report
---- CUETools DB Plugin V2.1.3
[CTDB TOCID: 0KmDTTd_IrOpsDHklVWzj0AKmJE-] disk not present in database, Submit result: 0KmDTTd_IrOpsDHklVWzj0AKmJE- has been uploaded
==== Log checksum F63AC7B4DA2ED26EA5DA4E642892B91D22DF659ECC3C78A036B597CF5ADEDF43 ====

Содержание индексной карты (.CUE)

REM GENRE ChansonREM DATE 2013REM DISCID 200C9214REM COMMENT "ExactAudioCopy v1.0b3"PERFORMER "Various Artists"TITLE "Les 100 Titres Cultes De La Chanson Francaise (2013) CD4"FILE "01 – Serge Gainsbourg – Le Poinconneur Des Lilas [1958].wav" WAVE TRACK 01 AUDIO TITLE "Le Poinconneur Des Lilas [1958]" PERFORMER "Serge Gainsbourg" INDEX 01 00:00:00 TRACK 02 AUDIO TITLE "Les Bourgeois [1962]" PERFORMER "Jacques Brel" INDEX 00 02:41:60FILE "02 - Jacques Brel - Les Bourgeois [1962].wav" WAVE INDEX 01 00:00:00 TRACK 03 AUDIO TITLE "Bleu Blanc Blond [1960]" PERFORMER "Marcel Amont" INDEX 00 02:48:56FILE "03 - Marcel Amont - Bleu Blanc Blond [1960].wav" WAVE INDEX 01 00:00:00 TRACK 04 AUDIO TITLE "l’Hymne A l’Amour [1961]" PERFORMER "Edith Piaf" INDEX 00 02:35:60FILE "04 – Edith Piaf – l’Hymne A l’Amour [1961].wav" WAVE INDEX 01 00:00:00 TRACK 05 AUDIO TITLE "Y'a d'La Joie [1938]" PERFORMER "Charles Trenet" INDEX 00 03:25:74FILE "05 - Charles Trenet - Y'a d'La Joie [1938].wav" WAVE INDEX 01 00:00:00 TRACK 06 AUDIO TITLE "Les Amoureux Des Bancs Publics [1953]" PERFORMER "Georges Brassens" INDEX 00 02:28:25FILE "06 - Georges Brassens - Les Amoureux Des Bancs Publics [1953].wav" WAVE INDEX 01 00:00:00 TRACK 07 AUDIO TITLE "Vous Qui Passez Sans Me Voir [1936]" PERFORMER "Jean Sablon" INDEX 00 03:03:03FILE "07 - Jean Sablon - Vous Qui Passez Sans Me Voir [1936].wav" WAVE INDEX 01 00:00:00 TRACK 08 AUDIO TITLE "Qu'Il Fait Bon Vivre [1960]" PERFORMER "Les Compagnons De La Chanson" INDEX 00 03:02:56FILE "08 - Les Compagnons De La Chanson - Qu'Il Fait Bon Vivre [1960].wav" WAVE INDEX 01 00:00:00 TRACK 09 AUDIO TITLE "Crois-Moi Ca Durera [1962]" PERFORMER "Nana Mouskouri" INDEX 00 02:07:16FILE "09 – Nana Mouskouri – Crois-Moi Ca Durera [1962].wav" WAVE INDEX 01 00:00:00 TRACK 10 AUDIO TITLE "La Ballade Irlandaise [1957]" PERFORMER "Bourvil" INDEX 00 02:32:27FILE "10 - Bourvil - La Ballade Irlandaise [1957].wav" WAVE INDEX 01 00:00:00 TRACK 11 AUDIO TITLE "Ah Dis Donc Dis Donc [1956]" PERFORMER "Colette Renard" INDEX 00 02:55:50FILE "11 - Colette Renard - Ah Dis Donc Dis Donc [1956].wav" WAVE INDEX 01 00:00:00 TRACK 12 AUDIO TITLE "Que Sera Sera [1957]" PERFORMER "Francois Deguelt" INDEX 00 01:59:54FILE "12 – Francois Deguelt – Que Sera Sera [1957].wav" WAVE INDEX 01 00:00:00 TRACK 13 AUDIO TITLE "J'ai Deux Amours [1930]" PERFORMER "Josephine Baker" INDEX 00 02:39:30FILE "13 - Josephine Baker - J'ai Deux Amours [1930].wav" WAVE INDEX 01 00:00:00 TRACK 14 AUDIO TITLE "Scoubidou (Des Pommes Des Poires) [1959]" PERFORMER "Sacha Distel" INDEX 00 03:09:01FILE "14 - Sacha Distel - Scoubidou (Des Pommes Des Poires) [1959].wav" WAVE INDEX 01 00:00:00 TRACK 15 AUDIO TITLE "Julie La Rousse [1957]" PERFORMER "Rene Louis Lafforgue" INDEX 00 02:59:28FILE "15 – Rene Louis Lafforgue – Julie La Rousse [1957].wav" WAVE INDEX 01 00:00:00 TRACK 16 AUDIO TITLE "Ma P'tite Folie [1959]" PERFORMER "Line Renaud" INDEX 00 02:12:56FILE "16 - Line Renaud - Ma P'tite Folie [1959].wav" WAVE INDEX 01 00:00:00 TRACK 17 AUDIO TITLE "Moi Je Pense Encore A Toi [1962]" PERFORMER "Claude Francois" INDEX 00 02:43:49FILE "17 – Claude Francois – Moi Je Pense Encore A Toi [1962].wav" WAVE INDEX 01 00:00:00 TRACK 18 AUDIO TITLE "Tous Les Garcons Et Les Filles [1962]" PERFORMER "Francoise Hardy" INDEX 00 02:13:51FILE "18 – Francoise Hardy – Tous Les Garcons Et Les Filles [1962].wav" WAVE INDEX 01 00:00:00 TRACK 19 AUDIO TITLE "Panne d'Essence [1961]" PERFORMER "Frankie Jordan & Sylvie Vartan" INDEX 00 03:05:56FILE "19 - Frankie Jordan & Sylvie Vartan - Panne d'Essence [1961].wav" WAVE INDEX 01 00:00:00 TRACK 20 AUDIO TITLE "J'irai Pleurer Sous La Pluie [1962]" PERFORMER "Richard Anthony" INDEX 00 02:13:02FILE "20 - Richard Anthony - J'irai Pleurer Sous La Pluie [1962].wav" WAVE INDEX 01 00:00:00

Лог проверки качества

-----------------------
DON'T MODIFY THIS FILE
-----------------------
PERFORMER: auCDtect Task Manager, ver. 1.5.1RC6 build 1.5.1.7Copyright (c) 2008-2010 y-soft. All rights reservedhttp://y-soft.org
ANALYZER: auCDtect: CD records authenticity detector, version 0.8.2Copyright (c) 2004 Oleg Berngardt. All rights reserved.Copyright (c) 2004 Alexander Djourik. All rights reserved.
FILE: 20 - Richard Anthony - J'irai Pleurer Sous La Pluie [1962].flac Size: 11544001 Hash: ADE0762971C4A6D28FF14AC06B65BA45 Accuracy: -m0 Conclusion: CDDA 100% Signature: 39E3E7E7859BFBE6E5BD3CA65C12385E59641F10FILE: 19 - Frankie Jordan & Sylvie Vartan - Panne d'Essence [1961].flac Size: 7563674 Hash: 87380B12F7CDBCC21DF6B3FA7E4CF641 Accuracy: -m0 Conclusion: MPEG 80% Signature: 7505593639601A154A27F14CE4F16C3E94D55C75FILE: 18 – Francoise Hardy – Tous Les Garcons Et Les Filles [1962].flac Size: 16440299 Hash: FF820ADAE78E2B496DE48D51AE970EF9 Accuracy: -m0 Conclusion: CDDA 99% Signature: 330084D5FBE8B16B42D1DA578E47DE6A3CDE3C1CFILE: 17 – Claude Francois – Moi Je Pense Encore A Toi [1962].flac Size: 15972662 Hash: C249BAB6ADB9107F33A267E6675A869B Accuracy: -m0 Conclusion: CDDA 100% Signature: 1F7BE0B4D229F9BB505BA070C19EFF49715AB99FFILE: 16 - Line Renaud - Ma P'tite Folie [1959].flac Size: 15803495 Hash: EE3ED2B7D34EC0E25616A8FC7B058AE3 Accuracy: -m0 Conclusion: CDDA 100% Signature: C4575272D00630FD07C286FE3A0A93CAECAE631DFILE: 15 – Rene Louis Lafforgue – Julie La Rousse [1957].flac Size: 10695541 Hash: 397ABE04461687DA66EF1719800EC35F Accuracy: -m0 Conclusion: CDDA 100% Signature: 8812CED091C188D4443200F985EA04280F15F357FILE: 14 - Sacha Distel - Scoubidou (Des Pommes Des Poires) [1959].flac Size: 20637925 Hash: C8CEBC0C37F1FBF5A1FF6998A83E8B77 Accuracy: -m0 Conclusion: CDDA 100% Signature: 52E832BF4029ACBD96BE079150981C8C7C142005FILE: 13 - Josephine Baker - J'ai Deux Amours [1930].flac Size: 8986831 Hash: DD3353D74E932ED35B9653EB59149043 Accuracy: -m0 Conclusion: CDDA 100% Signature: 209B3BC1998D050BDBB6B2594B0FDBAF55872B8DFILE: 12 – Francois Deguelt – Que Sera Sera [1957].flac Size: 17424464 Hash: E47F6F606470E6959CBFFA656360C8B5 Accuracy: -m0 Conclusion: CDDA 99% Signature: 99A3434F27E1058338B1049371CA81E6F0454109FILE: 11 - Colette Renard - Ah Dis Donc Dis Donc [1956].flac Size: 13265311 Hash: 89C0FE455184E8700C1CD693381EFE80 Accuracy: -m0 Conclusion: CDDA 100% Signature: 4A33200F48EC4836820A0082088316A5F1069A47FILE: 10 - Bourvil - La Ballade Irlandaise [1957].flac Size: 13111435 Hash: 38880A2A1EA8F976E3BD8AE854017D1B Accuracy: -m0 Conclusion: CDDA 100% Signature: 362E80CA1C8A5475698FF93B1A9DF88ED1692EE5FILE: 09 – Nana Mouskouri – Crois-Moi Ca Durera [1962].flac Size: 18476884 Hash: 705098CDC0C777EC45C8F89E3C4AE080 Accuracy: -m0 Conclusion: CDDA 100% Signature: 7DB96256AF14DAC976B5D5C331477B8450653033FILE: 08 - Les Compagnons De La Chanson - Qu'Il Fait Bon Vivre [1960].flac Size: 13583070 Hash: A7E6FD4216086A3FA445910EF722B648 Accuracy: -m0 Conclusion: CDDA 100% Signature: 89641D6756A499ADA7E7A050D4AAA979192C7E4EFILE: 07 - Jean Sablon - Vous Qui Passez Sans Me Voir [1936].flac Size: 10634958 Hash: A4E8AB78F9FF3C2F0602467277024C35 Accuracy: -m0 Conclusion: MPEG 100% Signature: 651571EBB8244048B4D8511C0272433BA16607DDFILE: 06 - Georges Brassens - Les Amoureux Des Bancs Publics [1953].flac Size: 11803321 Hash: 0F18F5CE67B28B2D9FFDAAD5FCB368FB Accuracy: -m0 Conclusion: MPEG 80% Signature: 56063A41229F7760562E0ACB40613EA245BD55DFFILE: 05 - Charles Trenet - Y'a d'La Joie [1938].flac Size: 10512319 Hash: F9263C18D3F8EA5A21D536E06329CC23 Accuracy: -m0 Conclusion: MPEG 99% Signature: CF254899E526D1E6591956D023B198A7E2617849FILE: 04 – Edith Piaf – l’Hymne A l’Amour [1961].flac Size: 19092362 Hash: F67E2AEF2861C3407A2B1BFE6F9A6993 Accuracy: -m0 Conclusion: CDDA 100% Signature: 9B56A09067A1EAD8615C679642F83B00B009030EFILE: 03 - Marcel Amont - Bleu Blanc Blond [1960].flac Size: 13612500 Hash: 8C2D2E6931FFAED09AD37601DCBC6FA0 Accuracy: -m0 Conclusion: CDDA 76% Signature: A1AD145DEB29ADE1023FAD5D5B0059C7F712A24AFILE: 02 - Jacques Brel - Les Bourgeois [1962].flac Size: 15881176 Hash: A2168F8A4CE8C83762591ADC0CB5FE8D Accuracy: -m0 Conclusion: CDDA 100% Signature: F4C30B13BACAC9ACE657D1B62D6300941F3BB749FILE: 01 – Serge Gainsbourg – Le Poinconneur Des Lilas [1958].flac Size: 10822647 Hash: 1E2A6A1A258FBF5FEC85551269000A1C Accuracy: -m0 Conclusion: CDDA 100% Signature: 46E4184374BEF688F7A9814C7630C3708601ABB0

CD 5

01. Charles Aznavour – Les Comédiens [1962]
02. Johnny Hallyday – Retiens La Nuit [1961]
03. Serge Gainsbourg – l’Eau À La Bouche [1959]
04. Yves Montand – Les Feuilles Mortes [1949]
05. Alain Barrière – Cathy [1961]
06. Jean Ferrat – Ma Môme [1960]
07. Isabelle Aubret – Deux Enfants Au Soleil [1962]
08. Boris Vian – J’suis Snob [1956]
09. Fernandel – Félicie Aussi [1939]
10. Francis Lemarque – Marjolaine [1957]
11. Edith Piaf – Padam Padam [1951]
12. Henri Salvador – Maladie d’Amour [1947]
13. Les Frères Jacques – La Queue Du Chat [1955]
14. Michèle Arnaud – La Chanson De Prèvert [1961]
15. Patachou – Le Bricoleur [1953]
16. Dario Moreno – Brigitte Bardot [1961]
17. Claude Nougaro – Le Cinéma [1962]
18. Georges Brassens – Le Gorille [1952]
19. Petula Clark – Dans Le Train De Nuit [1962]
20. Leny Escudero – Pour Une Amourette [1962]

Лог создания рипа

Exact Audio Copy V1.0 beta 3 from 29. August 2011
EAC extraction logfile from 28. September 2013, 23:34
Various Artists / Les 100 Titres Cultes De La Chanson Française (2013) CD5
Used drive : hp CDDVDW TS-L633N Adapter: 0 ID: 1
Read mode : SecureUtilize accurate stream : YesDefeat audio cache : YesMake use of C2 pointers : No
Read offset correction : 6Overread into Lead-In and Lead-Out : NoFill up missing offset samples with silence : YesDelete leading and trailing silent blocks : NoNull samples used in CRC calculations : YesUsed interface : Native Win32 interface for Win NT & 2000Gap handling : Appended to previous track
Used output format : User Defined EncoderSelected bitrate : 1024 kBit/sQuality : HighAdd ID3 tag : NoCommand line compressor : C:\Program Files (x86)\Exact Audio Copy\Flac\flac.exeAdditional command line options : -8 -V -T "ARTIST=%artist%" -T "TITLE=%title%" -T "ALBUM=%albumtitle%" -T "DATE=%year%" -T "TRACKNUMBER=%tracknr%" -T "GENRE=%genre%" -T "PERFORMER=%albuminterpret%" -T "COMPOSER=%composer%" %haslyrics%--tag-from-file=LYRICS="%lyricsfile%"%haslyrics% -T "ALBUMARTIST=%albumartist%" -T "DISCNUMBER=%cdnumber%" -T "TOTALDISCS=%totalcds%" -T "TOTALTRACKS=%numtracks%" -T "COMMENT=%comment%" %source% -o %dest%
TOC of the extracted CD
Track | Start | Length | Start sector | End sector --------------------------------------------------------- 1 | 0:00.00 | 2:23.31 | 0 | 10755 2 | 2:23.31 | 2:52.45 | 10756 | 23700 3 | 5:16.01 | 2:28.08 | 23701 | 34808 4 | 7:44.09 | 3:20.28 | 34809 | 49836 5 | 11:04.37 | 2:24.57 | 49837 | 60693 6 | 13:29.19 | 2:00.07 | 60694 | 69700 7 | 15:29.26 | 2:38.74 | 69701 | 81624 8 | 18:08.25 | 2:51.56 | 81625 | 94505 9 | 21:00.06 | 2:38.47 | 94506 | 106402 10 | 23:38.53 | 2:32.33 | 106403 | 117835 11 | 26:11.11 | 3:17.46 | 117836 | 132656 12 | 29:28.57 | 1:50.38 | 132657 | 140944 13 | 31:19.20 | 3:38.17 | 140945 | 157311 14 | 34:57.37 | 3:08.33 | 157312 | 171444 15 | 38:05.70 | 2:17.69 | 171445 | 181788 16 | 40:23.64 | 2:46.39 | 181789 | 194277 17 | 43:10.28 | 2:58.60 | 194278 | 207687 18 | 46:09.13 | 3:16.33 | 207688 | 222420 19 | 49:25.46 | 2:24.68 | 222421 | 233288 20 | 51:50.39 | 2:09.02 | 233289 | 242965
Track 1
Filename E:\CDRips\01 - Charles Aznavour - Les Comédiens [1962].wav
Pre-gap length 0:00:02.00
Peak level 97.7 % Extraction speed 1.0 X Track quality 99.9 % Test CRC 83EC49F2 Copy CRC 83EC49F2 Track not present in AccurateRip database Copy OK
Track 2
Filename E:\CDRips\02 - Johnny Hallyday - Retiens La Nuit [1961].wav
Pre-gap length 0:00:01.98
Peak level 99.3 % Extraction speed 1.7 X Track quality 100.0 % Test CRC E24A85A8 Copy CRC E24A85A8 Track not present in AccurateRip database Copy OK
Track 3
Filename E:\CDRips\03 - Serge Gainsbourg - l'Eau À La Bouche [1959].wav
Pre-gap length 0:00:01.98
Peak level 96.6 % Extraction speed 1.7 X Track quality 100.0 % Test CRC ECBFE8D1 Copy CRC ECBFE8D1 Track not present in AccurateRip database Copy OK
Track 4
Filename E:\CDRips\04 - Yves Montand - Les Feuilles Mortes [1949].wav
Pre-gap length 0:00:01.98
Peak level 100.0 % Extraction speed 1.9 X Track quality 100.0 % Test CRC 9581C6B8 Copy CRC 9581C6B8 Track not present in AccurateRip database Copy OK
Track 5
Filename E:\CDRips\05 - Alain Barrière - Cathy [1961].wav
Pre-gap length 0:00:01.98
Peak level 93.2 % Extraction speed 1.3 X Track quality 99.9 % Test CRC BBCB6424 Copy CRC BBCB6424 Track not present in AccurateRip database Copy OK
Track 6
Filename E:\CDRips\06 - Jean Ferrat - Ma Môme [1960].wav
Pre-gap length 0:00:01.98
Peak level 98.8 % Extraction speed 1.9 X Track quality 100.0 % Test CRC 1AC53168 Copy CRC 1AC53168 Track not present in AccurateRip database Copy OK
Track 7
Filename E:\CDRips\07 - Isabelle Aubret - Deux Enfants Au Soleil [1962].wav
Pre-gap length 0:00:01.98
Peak level 90.4 % Extraction speed 2.1 X Track quality 100.0 % Test CRC A24DB206 Copy CRC A24DB206 Track not present in AccurateRip database Copy OK
Track 8
Filename E:\CDRips\08 - Boris Vian - J'suis Snob [1956].wav
Pre-gap length 0:00:01.98
Peak level 93.9 % Extraction speed 2.2 X Track quality 100.0 % Test CRC BBF8EECE Copy CRC BBF8EECE Track not present in AccurateRip database Copy OK
Track 9
Filename E:\CDRips\09 - Fernandel - Félicie Aussi [1939].wav
Pre-gap length 0:00:01.98
Peak level 99.8 % Extraction speed 1.6 X Track quality 99.9 % Test CRC 432B3DB9 Copy CRC 432B3DB9 Track not present in AccurateRip database Copy OK
Track 10
Filename E:\CDRips\10 - Francis Lemarque - Marjolaine [1957].wav
Pre-gap length 0:00:01.98
Peak level 99.8 % Extraction speed 2.3 X Track quality 100.0 % Test CRC 55F2849F Copy CRC 55F2849F Track not present in AccurateRip database Copy OK
Track 11
Filename E:\CDRips\11 - Edith Piaf - Padam Padam [1951].wav
Pre-gap length 0:00:01.98
Peak level 100.0 % Extraction speed 2.5 X Track quality 100.0 % Test CRC FD3D2851 Copy CRC FD3D2851 Track not present in AccurateRip database Copy OK
Track 12
Filename E:\CDRips\12 - Henri Salvador - Maladie d'Amour [1947].wav
Pre-gap length 0:00:01.98
Peak level 98.8 % Extraction speed 2.3 X Track quality 100.0 % Test CRC F1298E63 Copy CRC F1298E63 Track not present in AccurateRip database Copy OK
Track 13
Filename E:\CDRips\13 - Les Frères Jacques - La Queue Du Chat [1955].wav
Pre-gap length 0:00:01.98
Peak level 99.8 % Extraction speed 2.7 X Track quality 100.0 % Test CRC BDD014C1 Copy CRC BDD014C1 Track not present in AccurateRip database Copy OK
Track 14
Filename E:\CDRips\14 - Michèle Arnaud - La Chanson De Prèvert [1961].wav
Pre-gap length 0:00:01.98
Peak level 97.7 % Extraction speed 2.7 X Track quality 100.0 % Test CRC 75E68FC6 Copy CRC 75E68FC6 Track not present in AccurateRip database Copy OK
Track 15
Filename E:\CDRips\15 - Patachou - Le Bricoleur [1953].wav
Pre-gap length 0:00:01.98
Peak level 99.8 % Extraction speed 2.6 X Track quality 100.0 % Test CRC EFEF0228 Copy CRC EFEF0228 Track not present in AccurateRip database Copy OK
Track 16
Filename E:\CDRips\16 - Dario Moreno - Brigitte Bardot [1961].wav
Pre-gap length 0:00:01.98
Peak level 90.9 % Extraction speed 2.7 X Track quality 100.0 % Test CRC F92E2B8D Copy CRC F92E2B8D Track not present in AccurateRip database Copy OK
Track 17
Filename E:\CDRips\17 - Claude Nougaro - Le Cinéma [1962].wav
Pre-gap length 0:00:01.98
Peak level 90.0 % Extraction speed 2.8 X Track quality 100.0 % Test CRC A612988C Copy CRC A612988C Track not present in AccurateRip database Copy OK
Track 18
Filename E:\CDRips\18 - Georges Brassens - Le Gorille [1952].wav
Pre-gap length 0:00:01.98
Peak level 100.0 % Extraction speed 2.9 X Track quality 100.0 % Test CRC 3CEDD1E7 Copy CRC 3CEDD1E7 Track not present in AccurateRip database Copy OK
Track 19
Filename E:\CDRips\19 - Petula Clark - Dans Le Train De Nuit [1962].wav
Pre-gap length 0:00:01.98
Peak level 97.7 % Extraction speed 2.8 X Track quality 100.0 % Test CRC 3519EB7B Copy CRC 3519EB7B Track not present in AccurateRip database Copy OK
Track 20
Filename E:\CDRips\20 - Leny Escudero - Pour Une Amourette [1962].wav
Pre-gap length 0:00:01.98
Peak level 89.1 % Extraction speed 2.7 X Track quality 100.0 % Test CRC B4623DBF Copy CRC B4623DBF Track not present in AccurateRip database Copy OK
None of the tracks are present in the AccurateRip database
No errors occurred
End of status report
---- CUETools DB Plugin V2.1.3
[CTDB TOCID: _Mvic.b_abVhtemaUulPuNCIYdE-] disk not present in database, Submit result: _Mvic.b_abVhtemaUulPuNCIYdE- has been uploaded
==== Log checksum CCFA579C75684271E124BB63516B805ED7C88E28B6B543F37C0ADF8BAB84E209 ====

Содержание индексной карты (.CUE)

REM GENRE ChansonREM DATE 2013REM DISCID 150CA714REM COMMENT "ExactAudioCopy v1.0b3"PERFORMER "Various Artists"TITLE "Les 100 Titres Cultes De La Chanson Francaise (2013) CD5"FILE "01 – Charles Aznavour – Les Comediens [1962].wav" WAVE TRACK 01 AUDIO TITLE "Les Comediens [1962]" PERFORMER "Charles Aznavour" INDEX 01 00:00:00 TRACK 02 AUDIO TITLE "Retiens La Nuit [1961]" PERFORMER "Johnny Hallyday" INDEX 00 02:21:32FILE "02 - Johnny Hallyday - Retiens La Nuit [1961].wav" WAVE INDEX 01 00:00:00 TRACK 03 AUDIO TITLE "l’Eau A La Bouche [1959]" PERFORMER "Serge Gainsbourg" INDEX 00 02:50:46FILE "03 – Serge Gainsbourg – l’Eau A La Bouche [1959].wav" WAVE INDEX 01 00:00:00 TRACK 04 AUDIO TITLE "Les Feuilles Mortes [1949]" PERFORMER "Yves Montand" INDEX 00 02:26:09FILE "04 - Yves Montand - Les Feuilles Mortes [1949].wav" WAVE INDEX 01 00:00:00 TRACK 05 AUDIO TITLE "Cathy [1961]" PERFORMER "Alain Barriere" INDEX 00 03:18:29FILE "05 – Alain Barriere – Cathy [1961].wav" WAVE INDEX 01 00:00:00 TRACK 06 AUDIO TITLE "Ma Mome [1960]" PERFORMER "Jean Ferrat" INDEX 00 02:22:58FILE "06 – Jean Ferrat – Ma Mome [1960].wav" WAVE INDEX 01 00:00:00 TRACK 07 AUDIO TITLE "Deux Enfants Au Soleil [1962]" PERFORMER "Isabelle Aubret" INDEX 00 01:58:08FILE "07 - Isabelle Aubret - Deux Enfants Au Soleil [1962].wav" WAVE INDEX 01 00:00:00 TRACK 08 AUDIO TITLE "J'suis Snob [1956]" PERFORMER "Boris Vian" INDEX 00 02:37:00FILE "08 - Boris Vian - J'suis Snob [1956].wav" WAVE INDEX 01 00:00:00 TRACK 09 AUDIO TITLE "Felicie Aussi [1939]" PERFORMER "Fernandel" INDEX 00 02:49:57FILE "09 – Fernandel – Felicie Aussi [1939].wav" WAVE INDEX 01 00:00:00 TRACK 10 AUDIO TITLE "Marjolaine [1957]" PERFORMER "Francis Lemarque" INDEX 00 02:36:48FILE "10 - Francis Lemarque - Marjolaine [1957].wav" WAVE INDEX 01 00:00:00 TRACK 11 AUDIO TITLE "Padam Padam [1951]" PERFORMER "Edith Piaf" INDEX 00 02:30:34FILE "11 - Edith Piaf - Padam Padam [1951].wav" WAVE INDEX 01 00:00:00 TRACK 12 AUDIO TITLE "Maladie d'Amour [1947]" PERFORMER "Henri Salvador" INDEX 00 03:15:47FILE "12 - Henri Salvador - Maladie d'Amour [1947].wav" WAVE INDEX 01 00:00:00 TRACK 13 AUDIO TITLE "La Queue Du Chat [1955]" PERFORMER "Les Freres Jacques" INDEX 00 01:48:39FILE "13 – Les Freres Jacques – La Queue Du Chat [1955].wav" WAVE INDEX 01 00:00:00 TRACK 14 AUDIO TITLE "La Chanson De Prevert [1961]" PERFORMER "Michele Arnaud" INDEX 00 03:36:18FILE "14 – Michele Arnaud – La Chanson De Prevert [1961].wav" WAVE INDEX 01 00:00:00 TRACK 15 AUDIO TITLE "Le Bricoleur [1953]" PERFORMER "Patachou" INDEX 00 03:06:34FILE "15 - Patachou - Le Bricoleur [1953].wav" WAVE INDEX 01 00:00:00 TRACK 16 AUDIO TITLE "Brigitte Bardot [1961]" PERFORMER "Dario Moreno" INDEX 00 02:15:70FILE "16 - Dario Moreno - Brigitte Bardot [1961].wav" WAVE INDEX 01 00:00:00 TRACK 17 AUDIO TITLE "Le Cinema [1962]" PERFORMER "Claude Nougaro" INDEX 00 02:44:40FILE "17 – Claude Nougaro – Le Cinema [1962].wav" WAVE INDEX 01 00:00:00 TRACK 18 AUDIO TITLE "Le Gorille [1952]" PERFORMER "Georges Brassens" INDEX 00 02:56:61FILE "18 – Georges Brassens – Le Gorille [1952].wav" WAVE INDEX 01 00:00:00 TRACK 19 AUDIO TITLE "Dans Le Train De Nuit [1962]" PERFORMER "Petula Clark" INDEX 00 03:14:34FILE "19 - Petula Clark - Dans Le Train De Nuit [1962].wav" WAVE INDEX 01 00:00:00 TRACK 20 AUDIO TITLE "Pour Une Amourette [1962]" PERFORMER "Leny Escudero" INDEX 00 02:22:69FILE "20 - Leny Escudero - Pour Une Amourette [1962].wav" WAVE INDEX 01 00:00:00

Лог проверки качества

-----------------------
DON'T MODIFY THIS FILE
-----------------------
PERFORMER: auCDtect Task Manager, ver. 1.5.1RC6 build 1.5.1.7Copyright (c) 2008-2010 y-soft. All rights reservedhttp://y-soft.org
ANALYZER: auCDtect: CD records authenticity detector, version 0.8.2Copyright (c) 2004 Oleg Berngardt. All rights reserved.Copyright (c) 2004 Alexander Djourik. All rights reserved.
FILE: 20 - Leny Escudero - Pour Une Amourette [1962].flac Size: 12395369 Hash: 74F295D7F7426259226F112156F58546 Accuracy: -m0 Conclusion: CDDA 100% Signature: D1022BC0D1EC53E84A18152CF271D6DD59DB5095FILE: 19 - Petula Clark - Dans Le Train De Nuit [1962].flac Size: 13710905 Hash: 67744D64A981900BFB8DE7FBDBA64D10 Accuracy: -m0 Conclusion: CDDA 100% Signature: B3A2C94E0AF8E743E6B1B154BEF5A9B776837000FILE: 18 – Georges Brassens – Le Gorille [1952].flac Size: 10075401 Hash: AEDBBA326D8AECCF17F8D0E3784F137C Accuracy: -m0 Conclusion: CDDA 100% Signature: 0AF8103571E98DA2A0C2CD273FA858582BAE0662FILE: 17 – Claude Nougaro – Le Cinema [1962].flac Size: 18656803 Hash: 74D46A4B688252ABA4F4A2B2B6D591C1 Accuracy: -m0 Conclusion: CDDA 100% Signature: F9F7E9F4A344B85B961EC63E67FD239DF018A9C4FILE: 16 - Dario Moreno - Brigitte Bardot [1961].flac Size: 11365937 Hash: 8313D9C1C970200113B8B3CF3487A29A Accuracy: -m0 Conclusion: CDDA 100% Signature: F4A15DD6D884E7D498FCFF5AB0BAA838A602515DFILE: 15 - Patachou - Le Bricoleur [1953].flac Size: 10439143 Hash: 5005679040BCB0CC854EBEB619D95F46 Accuracy: -m0 Conclusion: CDDA 100% Signature: ADE402ACB14079F3FB207476F716A73BF359CC09FILE: 14 – Michele Arnaud – La Chanson De Prevert [1961].flac Size: 19418276 Hash: CAD4579A840061855B0BE020D6A67E3E Accuracy: -m0 Conclusion: CDDA 100% Signature: 5BF6C7A53781FF1A79A50B214A77FB06DDB36154FILE: 13 – Les Freres Jacques – La Queue Du Chat [1955].flac Size: 17931756 Hash: 7E78179A5E4892B4DF2057FA9183ABFC Accuracy: -m0 Conclusion: CDDA 100% Signature: 291DD873904AEC9C63F200C3ED59F7EDE5BD7C70FILE: 12 - Henri Salvador - Maladie d'Amour [1947].flac Size: 7807758 Hash: 922281FD6CCB6DBE15E2CDC684B77E34 Accuracy: -m0 Conclusion: MPEG 100% Signature: 636DC866E0B675C823332870695F8EF2DB1FE8B9FILE: 11 - Edith Piaf - Padam Padam [1951].flac Size: 19157184 Hash: 957CC6C032FBAA58D11E1608F24B6312 Accuracy: -m0 Conclusion: CDDA 100% Signature: 4DF405E04F1B47BF0004B8CC35444F2A42C61519FILE: 10 - Francis Lemarque - Marjolaine [1957].flac Size: 13424381 Hash: A876552811748F4E0111230FE85FFC7F Accuracy: -m0 Conclusion: CDDA 100% Signature: 4A12EB75D77EEFBD6F537551AA3E73200867AA07FILE: 09 – Fernandel – Felicie Aussi [1939].flac Size: 12020775 Hash: 1BD25458594640A03A5A30A5B063906C Accuracy: -m0 Conclusion: CDDA 100% Signature: F79A9226F645A3592B603E38498DC7FB1E0A1C2DFILE: 08 - Boris Vian - J'suis Snob [1956].flac Size: 11578735 Hash: CEBE8FCD9235F7E7C3052BD6215A9DC3 Accuracy: -m0 Conclusion: CDDA 100% Signature: E2E0CB426EB8FE6546A86F7B3C70FE512B257C4DFILE: 07 - Isabelle Aubret - Deux Enfants Au Soleil [1962].flac Size: 15323203 Hash: B5F38FA36491BE19020BF09FD1099E1C Accuracy: -m0 Conclusion: CDDA 100% Signature: 9E2EA679E128455DF067423CC1193F2B27EA2618FILE: 06 – Jean Ferrat – Ma Mome [1960].flac Size: 12975219 Hash: C4062B95EF46F7A6E702144502212881 Accuracy: -m0 Conclusion: CDDA 100% Signature: B5ECA2E1681E0A778961C9216E3E590A27D8DC5EFILE: 05 – Alain Barriere – Cathy [1961].flac Size: 6764919 Hash: ADF67D5B085E45A7E84B775BD8B2C250 Accuracy: -m0 Conclusion: CDDA 100% Signature: 7C9797595BA199367AB5A78E9AAF3F7439BBA6C0FILE: 04 - Yves Montand - Les Feuilles Mortes [1949].flac Size: 11057120 Hash: 3BBF380EA3109A5BE8FA73271C004F43 Accuracy: -m0 Conclusion: MPEG 100% Signature: 0580FABBDC0026384FF1A020AC7279C8C76E6043FILE: 03 – Serge Gainsbourg – l’Eau A La Bouche [1959].flac Size: 16351746 Hash: 75EB39D83815B0B12131BC8D30F68759 Accuracy: -m0 Conclusion: CDDA 99% Signature: EDC5870C5C74D10129D0B76BF27D72634459F328FILE: 02 - Johnny Hallyday - Retiens La Nuit [1961].flac Size: 10637983 Hash: 4E51F2499022B2D2A919952F78733292 Accuracy: -m0 Conclusion: MPEG 100% Signature: C64A7036E680BE0A53F63A64846E031D90AD92B3FILE: 01 – Charles Aznavour – Les Comediens [1962].flac Size: 13498743 Hash: E831DF775D90A87A7EF8059B1F9397FD Accuracy: -m0 Conclusion: CDDA 100% Signature: 0077E8F4119F9B3CC6FEAF0D67117D47525F5232

Скриншоты проверки

Лицензия | Предпрослушивание

To download the file disable ad blocking, and reload the page.

disable adblock How to disable ad blocking?

Download by magnet link 1.36 GB Download Torrent

Login using:

Similar topics

(French Pop,Chanson) Catherine Durand - Vingt - 2018, MP3, 320 kbps
 113 MB   0 | 0   08-Oct-18 21:45   0
(French Chanson) Jean-Louis Murat - Il Francese - 2018, MP3, 320 kbps
 95 MB   3 | 0   29-Sep-18 12:10   3


   
Current time is: 18-Oct 06:01 :: All times are UTC ± 0