Jacques Brel / C'Est Comme Ça
Жанр: Chanson
Страна-производитель диска: E.U.
Год издания: 2008
Издатель (лейбл): Not Now Music
Номер по каталогу: NOT2CD276
Страна: France
Аудиокодек: FLAC (*.flac)
Тип рипа: image+.cue
Битрейт аудио: lossless
Продолжительность: 93:25
Источник (релизер): собственный рип
Наличие сканов в содержимом раздачи: да
Треклист:
Jacques Brel Et Ses Chansons

скрытый текст

1-1 La Haine
1-2 Grand Jacques (C'Est Trop Facile)
1-3 Il Pleut (Les Carreaux)
1-4 Le Diable (Ca Va)
1-5 Il Peut Pleuvoir
1-6 Il Nous Faut Regarder
1-7 Le Fou Du Roi
1-8 C'Est Comme Ça
1-9 Sur La Place
Quand On N'A Que L'Amour

скрытый текст

1-10 Quand On N'A Que L'Amour
1-11 Qu'Avons-Nous Fait, Bonne Gens
1-12 Les Pieds Dans Le Ruisseau
1-13 Pardons
1-14 La Bourée Du Célibataire
1-15 L'Air De La Bêtise
1-16 Saint-Pierre
1-17 J'En Apelle
1-18 Heureux
1-19 Les Blés
Au Printemps

скрытый текст

2-1 Demain I'On Se Marie (Le Chanson Des Fiancés)
2-2 Au Printemps
2-3 Je Ne Sais Pas
2-4 Le Colonel
2-5 Dors Ma Mie, Bonsoir
2-6 La Lumière Jaillira
2-7 Dites, Si C'Était Vrai (Poème)
2-8 L'Homme Dans La Cité
2-9 Litanies Pour Un Retour
2-10 Voici
Bonus Tracks

скрытый текст

2-11 La Foire
2-12 Il Y A
2-13 S'Il Te Faut
2-14 La Bastille
2-15 Prière Païenne
2-16 Voir
2-17 L'Aventure
2-18 Dites, Si C'Était Vrai (Poème) (Alt. Version)

Лог создания рипа

Exact Audio Copy V1.0 beta 3 from 29. August 2011
Отчёт EAC об извлечении, выполненном 18. сентября 2013, 12:41
Jacques Brel / c'est comme ça (CD 1)
Дисковод: TSSTcorpCDDVDW SH-S223B Adapter: 0 ID: 0
Режим чтения : ДостоверностьИспользование точного потока : ДаОтключение кэша аудио : ДаИспользование указателей C2 : Нет
Коррекция смещения при чтении : 6Способность читать области Lead-in и Lead-out : НетЗаполнение пропущенных сэмплов тишиной : ДаУдаление блоков с тишиной в начале и конце : НетПри вычислениях CRC использовались нулевые сэмплы : ДаИнтерфейс : Встроенный Win32-интерфейс для Win NT/2000
Выходной формат : Пользовательский кодировщикВыбранный битрейт : 768 kBit/sКачество : ВысокийДобавление ID3-тега : НетУтилита сжатия : C:\Program Files (x86)\FLAC\flac.exeДополнительные параметры : -V -8 -T "Date=%year%" -T "Genre=%genre%" %source%
TOC извлечённого CD
Трек | Старт | Длительность | Начальный сектор | Конечный сектор --------------------------------------------------------------------- 1 | 0:00.00 | 1:56.35 | 0 | 8734 2 | 1:56.35 | 1:49.48 | 8735 | 16957 3 | 3:46.08 | 2:35.74 | 16958 | 28656 4 | 6:22.07 | 2:26.47 | 28657 | 39653 5 | 8:48.54 | 1:44.30 | 39654 | 47483 6 | 10:33.09 | 2:23.72 | 47484 | 58280 7 | 12:57.06 | 1:57.14 | 58281 | 67069 8 | 14:54.20 | 2:08.10 | 67070 | 76679 9 | 17:02.30 | 2:50.33 | 76680 | 89462 10 | 19:52.63 | 2:25.72 | 89463 | 100409 11 | 22:18.60 | 1:48.67 | 100410 | 108576 12 | 24:07.52 | 2:54.09 | 108577 | 121635 13 | 27:01.61 | 2:20.32 | 121636 | 132167 14 | 29:22.18 | 2:26.65 | 132168 | 143182 15 | 31:49.08 | 4:25.67 | 143183 | 163124 16 | 36:15.00 | 2:20.25 | 163125 | 173649 17 | 38:35.25 | 2:46.09 | 173650 | 186108 18 | 41:21.34 | 2:53.10 | 186109 | 199093 19 | 44:14.44 | 1:49.49 | 199094 | 207317
Характеристики диапазона извлечения и сообщения об ошибках
Выбранный диапазон
Имя файла E:\Temp\02_jazz\Jacques Brel - c'est comme ça (CD 1).wav
Пиковый уровень 98.6 % Скорость извлечения 7.4 X Качество диапазона 99.9 % CRC теста CBED4146 CRC копии CBED4146 Копирование... OK
Ошибок не произошло
AccurateRip: сводка
Трек 1 : извлечено точно (доверие 3) [35F8E8CB] (AR v2)Трек 2 : извлечено точно (доверие 3) [ED8FD6DE] (AR v2)Трек 3 : извлечено точно (доверие 3) [AC612159] (AR v2)Трек 4 : извлечено точно (доверие 3) [70364587] (AR v2)Трек 5 : извлечено точно (доверие 3) [D9D98154] (AR v2)Трек 6 : извлечено точно (доверие 3) [52B421C7] (AR v2)Трек 7 : извлечено точно (доверие 3) [DD6ACF39] (AR v2)Трек 8 : извлечено точно (доверие 3) [490BA311] (AR v2)Трек 9 : извлечено точно (доверие 3) [024E4FA7] (AR v2)Трек 10 : извлечено точно (доверие 3) [6378FC68] (AR v2)Трек 11 : извлечено точно (доверие 3) [16E51932] (AR v2)Трек 12 : извлечено точно (доверие 3) [7E4DBCE8] (AR v2)Трек 13 : извлечено точно (доверие 3) [0E8C645E] (AR v2)Трек 14 : извлечено точно (доверие 3) [793B8C09] (AR v2)Трек 15 : извлечено точно (доверие 3) [F82FDFED] (AR v2)Трек 16 : извлечено точно (доверие 3) [AAB24B35] (AR v2)Трек 17 : извлечено точно (доверие 3) [D616FD4B] (AR v2)Трек 18 : извлечено точно (доверие 3) [796FCD67] (AR v2)Трек 19 : извлечено точно (доверие 3) [FCC0482D] (AR v2)
Все треки извлечены точно
Конец отчёта
==== Контрольная сумма отчёта FF086B9E78BE2CDA683595C0DF7CAF0D0A7427599E6D7533C47213F25979527B ====
Exact Audio Copy V1.0 beta 3 from 29. August 2011
Отчёт EAC об извлечении, выполненном 18. сентября 2013, 13:00
Jacques Brel / c'est comme ça (CD 2)
Дисковод: TSSTcorpCDDVDW SH-S223B Adapter: 0 ID: 0
Режим чтения : ДостоверностьИспользование точного потока : ДаОтключение кэша аудио : ДаИспользование указателей C2 : Нет
Коррекция смещения при чтении : 6Способность читать области Lead-in и Lead-out : НетЗаполнение пропущенных сэмплов тишиной : ДаУдаление блоков с тишиной в начале и конце : НетПри вычислениях CRC использовались нулевые сэмплы : ДаИнтерфейс : Встроенный Win32-интерфейс для Win NT/2000
Выходной формат : Пользовательский кодировщикВыбранный битрейт : 768 kBit/sКачество : ВысокийДобавление ID3-тега : НетУтилита сжатия : C:\Program Files (x86)\FLAC\flac.exeДополнительные параметры : -V -8 -T "Date=%year%" -T "Genre=%genre%" %source%
TOC извлечённого CD
Трек | Старт | Длительность | Начальный сектор | Конечный сектор --------------------------------------------------------------------- 1 | 0:00.00 | 2:35.11 | 0 | 11635 2 | 2:35.11 | 2:42.03 | 11636 | 23788 3 | 5:17.14 | 3:09.63 | 23789 | 38026 4 | 8:27.02 | 3:13.20 | 38027 | 52521 5 | 11:40.22 | 3:45.34 | 52522 | 69430 6 | 15:25.56 | 2:59.13 | 69431 | 82868 7 | 18:24.69 | 1:36.11 | 82869 | 90079 8 | 20:01.05 | 2:25.00 | 90080 | 100954 9 | 22:26.05 | 2:11.33 | 100955 | 110812 10 | 24:37.38 | 2:46.11 | 110813 | 123273 11 | 27:23.49 | 3:23.66 | 123274 | 138564 12 | 30:47.40 | 2:21.57 | 138565 | 149196 13 | 33:09.22 | 2:07.12 | 149197 | 158733 14 | 35:16.34 | 2:58.60 | 158734 | 172143 15 | 38:15.19 | 2:35.43 | 172144 | 183811 16 | 40:50.62 | 2:22.24 | 183812 | 194485 17 | 43:13.11 | 2:38.02 | 194486 | 206337 18 | 45:51.13 | 1:30.48 | 206338 | 213135
Характеристики диапазона извлечения и сообщения об ошибках
Выбранный диапазон
Имя файла E:\Temp\rock\Jacques Brel - c'est comme ca\Jacques Brel - c'est comme ça (CD 2).wav
Пиковый уровень 98.5 % Скорость извлечения 7.3 X Качество диапазона 100.0 % CRC теста 3A4A3C9C CRC копии 3A4A3C9C Копирование... OK
Ошибок не произошло
AccurateRip: сводка
Трек 1 : извлечено точно (доверие 3) [4263AA49] (AR v2)Трек 2 : извлечено точно (доверие 3) [BF1BA37A] (AR v2)Трек 3 : извлечено точно (доверие 3) [96A532CB] (AR v2)Трек 4 : извлечено точно (доверие 3) [EEB952F7] (AR v2)Трек 5 : извлечено точно (доверие 3) [56371B88] (AR v2)Трек 6 : извлечено точно (доверие 3) [0413DA72] (AR v2)Трек 7 : извлечено точно (доверие 3) [4CDD062E] (AR v2)Трек 8 : извлечено точно (доверие 3) [CFC7AEB1] (AR v2)Трек 9 : извлечено точно (доверие 3) [03C3577F] (AR v2)Трек 10 : извлечено точно (доверие 3) [BF84A855] (AR v2)Трек 11 : извлечено точно (доверие 3) [FCAB9233] (AR v2)Трек 12 : извлечено точно (доверие 3) [250625D3] (AR v2)Трек 13 : извлечено точно (доверие 3) [5FA79733] (AR v2)Трек 14 : извлечено точно (доверие 3) [ECDED70C] (AR v2)Трек 15 : извлечено точно (доверие 3) [78741F43] (AR v2)Трек 16 : извлечено точно (доверие 2) [676082EF] (AR v2)Трек 17 : извлечено точно (доверие 2) [D136B4F4] (AR v2)Трек 18 : извлечено точно (доверие 2) [38BA6214] (AR v2)
Все треки извлечены точно
Конец отчёта
==== Контрольная сумма отчёта AD397AFB6E78CCD04D3D3AB1572AD80B409D15D2469E67713D3B7F5A64A59687 ====

Для скачивания файла отключите блокировку рекламы и перезагрузите страницу.

disable adblock Как отключить блокировку рекламы?

Скачать по магнет ссылке 336 MB 

Войти с помощью:

Похожие раздачи

Внимание! Контент 18+ если вы младше данного возраста, НЕ переходите по ссылке!!!


   
Текущее время: 15-Авг 12:50 :: Часовой пояс: UTC ± 0