Jane Birkin - Amours des Feintes
Жанр: French Pop
Страна-производитель диска: France
Год издания: 1990
Издатель (лейбл): Philips
Номер по каталогу: 846 521-2
Страна: France
Аудиокодек: FLAC (*.flac)
Тип рипа: tracks+.cue
Битрейт аудио: lossless
Продолжительность: 35:27
Источник (релизер): what.cd (maattt34)
Наличие сканов в содержимом раздачи: нет
1 Et Quand Bien Même
2 Des Ils et des Elles
3 Litanie en Lituanie
4 L'Impression du Déjà Vu
5 Asphalte
6 Tombée des Nues
7 Un Amour Peut en Cacher un Autre
8 32 Fahrenheit
9 Love Fifteen
10 Amours des Feintes

Лог создания рипа

X Lossless Decoder version 20120226 (139.1)
XLD extraction logfile from 2012-05-28 13:39:32 +0000
Jane Birkin / Amours des feintes
Used drive : HL-DT-ST DVDRW GA32N (revision KC09)
Ripper mode : XLD Secure RipperDisable audio cache : OK for the drive with a cache less than 1375KiBMake use of C2 pointers : NORead offset correction : 103Max retry count : 100Gap status : Analyzed, Appended (except HTOA)
TOC of the extracted CD Track | Start | Length | Start sector | End sector --------------------------------------------------------- 1 | 00:00:00 | 04:15:71 | 0 | 19195 2 | 04:15:71 | 02:48:11 | 19196 | 31806 3 | 07:04:07 | 03:20:67 | 31807 | 46873 4 | 10:24:74 | 03:55:03 | 46874 | 64501 5 | 14:20:02 | 03:44:02 | 64502 | 81303 6 | 18:04:04 | 03:06:28 | 81304 | 95281 7 | 21:10:32 | 03:17:68 | 95282 | 110124 8 | 24:28:25 | 03:23:43 | 110125 | 125392 9 | 27:51:68 | 03:10:19 | 125393 | 139661 10 | 31:02:12 | 04:29:13 | 139662 | 159849
AccurateRip Summary Disc not found in AccurateRip DB.
All Tracks Album gain : -0.91 dB Peak : 0.999939 Statistics Read error : 0 Jitter error (maybe fixed) : 0 Retry sector count : 0 Damaged sector count : 0
Track 01 Filename : /Users/Mattt/Desktop/Jane Birkin - Amours des feintes (1990) [FLAC]/01 Et Quand Bien Meme.flac Pre-gap length : 00:02:00
Track gain : 0.04 dB Peak : 0.774658 CRC32 hash (test run) : 1EE3DB4C CRC32 hash : 1EE3DB4C CRC32 hash (skip zero) : B5B9553E AccurateRip signature : 7B84D4D0 ->Track not present in AccurateRip database. Statistics Read error : 0 Jitter error (maybe fixed) : 0 Retry sector count : 0 Damaged sector count : 0
Track 02 Filename : /Users/Mattt/Desktop/Jane Birkin - Amours des feintes (1990) [FLAC]/02 Des ils et des elles.flac
Track gain : 0.34 dB Peak : 0.772522 CRC32 hash (test run) : 8E2478AC CRC32 hash : 8E2478AC CRC32 hash (skip zero) : C4712E6A AccurateRip signature : 862AAB59 ->Track not present in AccurateRip database. Statistics Read error : 0 Jitter error (maybe fixed) : 0 Retry sector count : 0 Damaged sector count : 0
Track 03 Filename : /Users/Mattt/Desktop/Jane Birkin - Amours des feintes (1990) [FLAC]/03 Litanie en Lituanie.flac
Track gain : -1.43 dB Peak : 0.999939 CRC32 hash (test run) : 7449558F CRC32 hash : 7449558F CRC32 hash (skip zero) : AA9DECF9 AccurateRip signature : 96CE22CF ->Track not present in AccurateRip database. Statistics Read error : 0 Jitter error (maybe fixed) : 0 Retry sector count : 0 Damaged sector count : 0
Track 04 Filename : /Users/Mattt/Desktop/Jane Birkin - Amours des feintes (1990) [FLAC]/04 L'impression du déjà vu.flac
Track gain : 0.70 dB Peak : 0.999939 CRC32 hash (test run) : 25036671 CRC32 hash : 25036671 CRC32 hash (skip zero) : 89C301AB AccurateRip signature : F760EFB7 ->Track not present in AccurateRip database. Statistics Read error : 0 Jitter error (maybe fixed) : 0 Retry sector count : 0 Damaged sector count : 0
Track 05 Filename : /Users/Mattt/Desktop/Jane Birkin - Amours des feintes (1990) [FLAC]/05 Asphalte.flac
Track gain : 0.45 dB Peak : 0.855225 CRC32 hash (test run) : B59A80CD CRC32 hash : B59A80CD CRC32 hash (skip zero) : 6853109B AccurateRip signature : DD62F1EF ->Track not present in AccurateRip database. Statistics Read error : 0 Jitter error (maybe fixed) : 0 Retry sector count : 0 Damaged sector count : 0
Track 06 Filename : /Users/Mattt/Desktop/Jane Birkin - Amours des feintes (1990) [FLAC]/06 Tombée des nues.flac
Track gain : -0.57 dB Peak : 0.856995 CRC32 hash (test run) : EAA5CF80 CRC32 hash : EAA5CF80 CRC32 hash (skip zero) : 011DDB6E AccurateRip signature : D89DC216 ->Track not present in AccurateRip database. Statistics Read error : 0 Jitter error (maybe fixed) : 0 Retry sector count : 0 Damaged sector count : 0
Track 07 Filename : /Users/Mattt/Desktop/Jane Birkin - Amours des feintes (1990) [FLAC]/07 Un amour peut en cacher un autre.flac
Track gain : 0.17 dB Peak : 0.999939 CRC32 hash (test run) : 540B0B35 CRC32 hash : 540B0B35 CRC32 hash (skip zero) : E23BFAF7 AccurateRip signature : 8F096F87 ->Track not present in AccurateRip database. Statistics Read error : 0 Jitter error (maybe fixed) : 0 Retry sector count : 0 Damaged sector count : 0
Track 08 Filename : /Users/Mattt/Desktop/Jane Birkin - Amours des feintes (1990) [FLAC]/08 32 farenheit.flac
Track gain : -2.76 dB Peak : 0.999939 CRC32 hash (test run) : F0E91C4C CRC32 hash : F0E91C4C CRC32 hash (skip zero) : DA4E5097 AccurateRip signature : CEC8CE90 ->Track not present in AccurateRip database. Statistics Read error : 0 Jitter error (maybe fixed) : 0 Retry sector count : 0 Damaged sector count : 0
Track 09 Filename : /Users/Mattt/Desktop/Jane Birkin - Amours des feintes (1990) [FLAC]/09 Love fifteen.flac
Track gain : -0.56 dB Peak : 0.978058 CRC32 hash (test run) : DDB46743 CRC32 hash : DDB46743 CRC32 hash (skip zero) : 6EECFBF4 AccurateRip signature : C73E9621 ->Track not present in AccurateRip database. Statistics Read error : 0 Jitter error (maybe fixed) : 0 Retry sector count : 0 Damaged sector count : 0
Track 10 Filename : /Users/Mattt/Desktop/Jane Birkin - Amours des feintes (1990) [FLAC]/10 Amours des feintes.flac
Track gain : -2.31 dB Peak : 0.991913 CRC32 hash (test run) : 3CF35613 CRC32 hash : 3CF35613 CRC32 hash (skip zero) : 69F079C0 AccurateRip signature : 7CAB0499 ->Track not present in AccurateRip database. Statistics Read error : 0 Jitter error (maybe fixed) : 0 Retry sector count : 0 Damaged sector count : 0
No errors occurred
End of status report

Содержание индексной карты (.CUE)

TITLE "Amours des feintes"PERFORMER "Jane Birkin"REM GENRE "Pop"REM DATE "1990"REM DISCID 8508530AREM REPLAYGAIN_ALBUM_GAIN -0.91 dBREM REPLAYGAIN_ALBUM_PEAK 0.999939FILE "01 Et Quand Bien Meme.flac" WAVE TRACK 01 AUDIO TITLE "Et Quand Bien Meme" SONGWRITER "Serge Gainsbourg" ISRC FRZ039000720 REM REPLAYGAIN_TRACK_GAIN 0.04 dB REM REPLAYGAIN_TRACK_PEAK 0.774658 INDEX 01 00:00:00FILE "02 Des ils et des elles.flac" WAVE TRACK 02 AUDIO TITLE "Des ils et des elles" SONGWRITER "Serge Gainsbourg" ISRC FRZ039000730 REM REPLAYGAIN_TRACK_GAIN 0.34 dB REM REPLAYGAIN_TRACK_PEAK 0.772522 INDEX 01 00:00:00FILE "03 Litanie en Lituanie.flac" WAVE TRACK 03 AUDIO TITLE "Litanie en Lituanie" SONGWRITER "Serge Gainsbourg" ISRC FRZ039000740 REM REPLAYGAIN_TRACK_GAIN -1.43 dB REM REPLAYGAIN_TRACK_PEAK 0.999939 INDEX 01 00:00:00FILE "04 L'impression du dГ©jГ vu.flac" WAVE TRACK 04 AUDIO TITLE "L'impression du dГ©jГ vu" SONGWRITER "Serge Gainsbourg" ISRC FRZ039000750 REM REPLAYGAIN_TRACK_GAIN 0.70 dB REM REPLAYGAIN_TRACK_PEAK 0.999939 INDEX 01 00:00:00FILE "05 Asphalte.flac" WAVE TRACK 05 AUDIO TITLE "Asphalte" SONGWRITER "Serge Gainsbourg" ISRC FRZ039000760 REM REPLAYGAIN_TRACK_GAIN 0.45 dB REM REPLAYGAIN_TRACK_PEAK 0.855225 INDEX 01 00:00:00FILE "06 TombГ©e des nues.flac" WAVE TRACK 06 AUDIO TITLE "TombГ©e des nues" SONGWRITER "Serge Gainsbourg" ISRC FRZ039000770 REM REPLAYGAIN_TRACK_GAIN -0.57 dB REM REPLAYGAIN_TRACK_PEAK 0.856995 INDEX 01 00:00:00FILE "07 Un amour peut en cacher un autre.flac" WAVE TRACK 07 AUDIO TITLE "Un amour peut en cacher un autre" SONGWRITER "Serge Gainsbourg" ISRC FRZ039000780 REM REPLAYGAIN_TRACK_GAIN 0.17 dB REM REPLAYGAIN_TRACK_PEAK 0.999939 INDEX 01 00:00:00FILE "08 32 farenheit.flac" WAVE TRACK 08 AUDIO TITLE "32 farenheit" SONGWRITER "Serge Gainsbourg" ISRC FRZ039000790 REM REPLAYGAIN_TRACK_GAIN -2.76 dB REM REPLAYGAIN_TRACK_PEAK 0.999939 INDEX 01 00:00:00FILE "09 Love fifteen.flac" WAVE TRACK 09 AUDIO TITLE "Love fifteen" SONGWRITER "Serge Gainsbourg" ISRC FRZ039003960 REM REPLAYGAIN_TRACK_GAIN -0.56 dB REM REPLAYGAIN_TRACK_PEAK 0.978058 INDEX 01 00:00:00FILE "10 Amours des feintes.flac" WAVE TRACK 10 AUDIO TITLE "Amours des feintes" SONGWRITER "Serge Gainsbourg" ISRC FRZ039000810 REM REPLAYGAIN_TRACK_GAIN -2.31 dB REM REPLAYGAIN_TRACK_PEAK 0.991913 INDEX 01 00:00:00

To download the file disable ad blocking, and reload the page.

disable adblock How to disable ad blocking?

Download by magnet link 200 MB Download Torrent

Login using:

Загрузка...

Similar topics



   
Current time is: 19-Dec 18:57 :: All times are UTC + 3