Milva - Von Tag Zu Tag (Songs of Mikis Theodorakis)
Жанр: Folk, World Music, Chanson, Ballad
Страна-производитель диска: Germany
Год выхода альбома: 1978
Год издания диска: 2000
Издатель (лейбл): Metronome
Номер по каталогу: 813 493-2
Страна: Italy
Аудиокодек: FLAC (*.flac)
Тип рипа: tracks+.cue
Битрейт аудио: lossless
Продолжительность: 38:37
Источник (релизер): собственный диск
Наличие сканов в содержимом раздачи: да
1 Zu Hause
2 Zusammenleben
3 Ist Er Den Kummer Denn Auch Wert
4 Sowas Hilft
5 Wir Fliegen Durch Die Wolken
6 Vater
7 Die Macht Der Gewohnheit
8 Von Tag Zu Tag
9 Du Bist So Klein
10 Ich Hab Mich Spät Von Dir Befreit
11 Freiheit, Gleicheit Und So Weiter

Лог создания рипа

Exact Audio Copy V1.0 beta 3 from 29. August 2011
EAC extraction logfile from 8. September 2013, 20:38
Milva / Von Tag Zu Tag
Used drive : SlimtypeDVD A DS8A5SH Adapter: 0 ID: 1
Read mode : SecureUtilize accurate stream : YesDefeat audio cache : YesMake use of C2 pointers : No
Read offset correction : 6Overread into Lead-In and Lead-Out : NoFill up missing offset samples with silence : YesDelete leading and trailing silent blocks : NoNull samples used in CRC calculations : YesUsed interface : Native Win32 interface for Win NT & 2000Gap handling : Appended to previous track
Used output format : User Defined EncoderSelected bitrate : 128 kBit/sQuality : HighAdd ID3 tag : NoCommand line compressor : C:\Program Files (x86)\Exact Audio Copy\flac.exeAdditional command line options : -V -8 -T "Genre=%genre%" -T "Artist=%artist%" -T "Title=%title%" -T "Album=%albumtitle%" -T "Date=%year%" -T "Tracknumber=%tracknr%" -T "Comment=%comment%" %source%
TOC of the extracted CD
Track | Start | Length | Start sector | End sector --------------------------------------------------------- 1 | 0:00.32 | 3:14.50 | 32 | 14631 2 | 3:15.07 | 3:46.23 | 14632 | 31604 3 | 7:01.30 | 5:31.32 | 31605 | 56461 4 | 12:32.62 | 2:28.20 | 56462 | 67581 5 | 15:01.07 | 3:20.18 | 67582 | 82599 6 | 18:21.25 | 2:44.35 | 82600 | 94934 7 | 21:05.60 | 3:27.65 | 94935 | 110524 8 | 24:33.50 | 4:21.10 | 110525 | 130109 9 | 28:54.60 | 2:34.20 | 130110 | 141679 10 | 31:29.05 | 3:10.57 | 141680 | 155986 11 | 34:39.62 | 4:02.73 | 155987 | 174209
Track 1
Filename D:\Von Tag Zu Tag\01 - Zu Hause (O Ayeras Leei Mia Proseflhi).wav
Pre-gap length 0:00:02.32
Peak level 86.1 % Extraction speed 1.7 X Track quality 100.0 % Test CRC 7962ADAF Copy CRC 7962ADAF Cannot be verified as accurate (confidence 3) [BC3F86A8], AccurateRip returned [57D8EAA1] (AR v2) Copy OK
Track 2
Filename D:\Von Tag Zu Tag\02 - Zusammenleben (To Perigali).wav
Pre-gap length 0:00:03.00
Peak level 85.0 % Extraction speed 1.9 X Track quality 100.0 % Test CRC 060FB776 Copy CRC 060FB776 Cannot be verified as accurate (confidence 3) [F3FFF080], AccurateRip returned [1A8633A2] (AR v2) Copy OK
Track 3
Filename D:\Von Tag Zu Tag\03 - Ist Er Den Kummer Denn Auch Wert (Afti Pou Thartoun).wav
Pre-gap length 0:00:03.00
Peak level 87.6 % Extraction speed 2.2 X Track quality 100.0 % Test CRC CF42AA60 Copy CRC CF42AA60 Cannot be verified as accurate (confidence 3) [5E41F96C], AccurateRip returned [36524F5F] (AR v2) Copy OK
Track 4
Filename D:\Von Tag Zu Tag\04 - Sowas Hilft (Se Dromous Makry Nous).wav
Pre-gap length 0:00:04.00
Peak level 89.2 % Extraction speed 2.0 X Track quality 100.0 % Test CRC 65C1F5B5 Copy CRC 65C1F5B5 Cannot be verified as accurate (confidence 3) [AC50F761], AccurateRip returned [393A4912] (AR v2) Copy OK
Track 5
Filename D:\Von Tag Zu Tag\05 - Wir Fliegen Durch Die Wogen (Doxa To Theo).wav
Pre-gap length 0:00:04.00
Peak level 90.6 % Extraction speed 2.3 X Track quality 100.0 % Test CRC 1843C99F Copy CRC 1843C99F Cannot be verified as accurate (confidence 3) [5CAF0BB8], AccurateRip returned [9C1349B9] (AR v2) Copy OK
Track 6
Filename D:\Von Tag Zu Tag\06 - Vater (Miroloi Tis Vrochis).wav
Pre-gap length 0:00:04.00
Peak level 89.2 % Extraction speed 2.3 X Track quality 100.0 % Test CRC DAB42B59 Copy CRC DAB42B59 Cannot be verified as accurate (confidence 3) [C66AE770], AccurateRip returned [C627C945] (AR v2) Copy OK
Track 7
Filename D:\Von Tag Zu Tag\07 - Die Macht Der Gewohnheit (Tin Porta Anigo To Vrady).wav
Pre-gap length 0:00:03.00
Peak level 83.2 % Extraction speed 2.5 X Track quality 100.0 % Test CRC 872F0329 Copy CRC 872F0329 Cannot be verified as accurate (confidence 3) [A15AC0FC], AccurateRip returned [E01D6CF2] (AR v2) Copy OK
Track 8
Filename D:\Von Tag Zu Tag\08 - Von Tag Zu Tag (Stou Pikramenou Tin Avli).wav
Pre-gap length 0:00:03.00
Peak level 81.7 % Extraction speed 2.7 X Track quality 100.0 % Test CRC 20B906DB Copy CRC 20B906DB Cannot be verified as accurate (confidence 3) [7ED9E509], AccurateRip returned [EEBCECAE] (AR v2) Copy OK
Track 9
Filename D:\Von Tag Zu Tag\09 - Du Bist So Klein (Dromi Pou Hathika).wav
Pre-gap length 0:00:03.00
Peak level 89.5 % Extraction speed 2.6 X Track quality 100.0 % Test CRC BDC448B8 Copy CRC BDC448B8 Cannot be verified as accurate (confidence 3) [609A53FF], AccurateRip returned [6ECC64AD] (AR v2) Copy OK
Track 10
Filename D:\Von Tag Zu Tag\10 - Ich Hab Mich Spät Von Dir Befreit (Mes Ston Kambo).wav
Pre-gap length 0:00:03.00
Peak level 88.8 % Extraction speed 2.8 X Track quality 100.0 % Test CRC DB12867D Copy CRC DB12867D Cannot be verified as accurate (confidence 3) [0147301F], AccurateRip returned [0A588121] (AR v2) Copy OK
Track 11
Filename D:\Von Tag Zu Tag\11 - Freiheit, Gleichheit Und So Weiter (To Traino Fevyi Stis Ochto).wav
Pre-gap length 0:00:03.00
Peak level 87.8 % Extraction speed 3.0 X Track quality 100.0 % Test CRC 98C16E56 Copy CRC 98C16E56 Cannot be verified as accurate (confidence 3) [267F382E], AccurateRip returned [23A9A50E] (AR v2) Copy OK
No tracks could be verified as accurateYou may have a different pressing from the one(s) in the database
No errors occurred
End of status report
==== Log checksum 38BB6DF35AE333D967704D2D713B7C5837CE0D3832ED52CFAAA1D9EDCEC45CA1 ====

Содержание индексной карты (.CUE)

REM GENRE FolkREM DATE 1978REM DISCID 8D09120BREM COMMENT "ExactAudioCopy v1.0b3"CATALOG 0042281349324PERFORMER "Milva"TITLE "Von Tag Zu Tag"FILE "01 - Zu Hause (O Ayeras Leei Mia Proseflhi).wav" WAVE TRACK 01 AUDIO TITLE "Zu Hause (O Ayeras Leei Mia Proseflhi)" PERFORMER "Milva" ISRC DEF087800120 PREGAP 00:00:32 INDEX 01 00:00:00 TRACK 02 AUDIO TITLE "Zusammenleben (To Perigali)" PERFORMER "Milva" ISRC DEF087800130 INDEX 00 03:11:50FILE "02 - Zusammenleben (To Perigali).wav" WAVE INDEX 01 00:00:00 TRACK 03 AUDIO TITLE "Ist Er Den Kummer Denn Auch Wert (Afti Pou Thartoun)" PERFORMER "Milva" ISRC DEF087800140 INDEX 00 03:43:23FILE "03 - Ist Er Den Kummer Denn Auch Wert (Afti Pou Thartoun).wav" WAVE INDEX 01 00:00:00 TRACK 04 AUDIO TITLE "Sowas Hilft (Se Dromous Makry Nous)" PERFORMER "Milva" ISRC DEF087800150 INDEX 00 05:27:32FILE "04 - Sowas Hilft (Se Dromous Makry Nous).wav" WAVE INDEX 01 00:00:00 TRACK 05 AUDIO TITLE "Wir Fliegen Durch Die Wogen (Doxa To Theo)" PERFORMER "Milva" ISRC DEF087800160 INDEX 00 02:24:20FILE "05 - Wir Fliegen Durch Die Wogen (Doxa To Theo).wav" WAVE INDEX 01 00:00:00 TRACK 06 AUDIO TITLE "Vater (Miroloi Tis Vrochis)" PERFORMER "Milva" ISRC DEF087800170 INDEX 00 03:16:18FILE "06 - Vater (Miroloi Tis Vrochis).wav" WAVE INDEX 01 00:00:00 TRACK 07 AUDIO TITLE "Die Macht Der Gewohnheit (Tin Porta Anigo To Vrady)" PERFORMER "Milva" ISRC DEF087800180 INDEX 00 02:41:35FILE "07 - Die Macht Der Gewohnheit (Tin Porta Anigo To Vrady).wav" WAVE INDEX 01 00:00:00 TRACK 08 AUDIO TITLE "Von Tag Zu Tag (Stou Pikramenou Tin Avli)" PERFORMER "Milva" ISRC DEF087800190 INDEX 00 03:24:65FILE "08 - Von Tag Zu Tag (Stou Pikramenou Tin Avli).wav" WAVE INDEX 01 00:00:00 TRACK 09 AUDIO TITLE "Du Bist So Klein (Dromi Pou Hathika)" PERFORMER "Milva" ISRC DEF087800200 INDEX 00 04:18:10FILE "09 - Du Bist So Klein (Dromi Pou Hathika).wav" WAVE INDEX 01 00:00:00 TRACK 10 AUDIO TITLE "Ich Hab Mich Spat Von Dir Befreit (Mes Ston Kambo)" PERFORMER "Milva" ISRC DEF087800210 INDEX 00 02:31:20FILE "10 - Ich Hab Mich Spat Von Dir Befreit (Mes Ston Kambo).wav" WAVE INDEX 01 00:00:00 TRACK 11 AUDIO TITLE "Freiheit, Gleichheit Und So Weiter (To Traino Fevyi Stis Ochto)" PERFORMER "Milva" ISRC DEF087800220 INDEX 00 03:07:57FILE "11 - Freiheit, Gleichheit Und So Weiter (To Traino Fevyi Stis Ochto).wav" WAVE INDEX 01 00:00:00

To download the file disable ad blocking, and reload the page.

disable adblock How to disable ad blocking?

Download by magnet link 219 MB Download Torrent

Login using:

Similar topics



   
Current time is: 18-Oct 06:12 :: All times are UTC ± 0