Mireille Mathieu / Amoureusement vôtre...
Жанр: Chanson
Страна-производитель диска: Франция
Год издания: 2002
Издатель (лейбл): EMI
Номер по каталогу: 7243 5 43933 2 7
Аудиокодек: FLAC (*.flac)
Тип рипа: tracks+.cue
Битрейт аудио: lossless
Продолжительность: 03:19:29
Источник (релизер): CD (я)
Наличие сканов в содержимом раздачи: да

Треклист

CD1
1 - La vie en rose (85)
Édith Piaf - Louiguy
2 - Je suis seule ce soir
Rose Noël / Jean Casanova - Paul Durand
3 - Moulin rouge
Jacques Larue - Georges Auric
4 - Le premier rendez-vous
Louis Poterat - René Sylviano
5 - Les trois cloches
Jean Villard - Jean Villard
6 - Padam-Padam
Henri Contet - Norbert Glanzberg
7 - Ne me quitte pas
Jacques Brel - Jacques Brel
8 - Comme d'habitude
Gilles Thibault - Jacques Revaux / Claude François
9 - Plaisir d'amour (85)
Charles Level - Johannes Paul Martini
10 - Milord (85)
Georges Moustaki - Marguerite Monnot
11 - Non, je ne regrette rien (85)
Michael Vaucaire - Charles Dumont
12 - Les feuilles mortes
Jacques Prevert - Joseph Kosma
13 - La mer
Charles Trenet - Charles Trenet / Albert Lasry
14 - C'est si bon
André Hornez - Henri Betti
15 - Parlez-moi d'amour
Jean Lenoir - Jean Lenoir
16 - Hymne à l'amour
Édith Piaf - Marguerite Monnot
17 - La Quête (The impossible dream)
Jacques Brel - Mitch Leigh
CD2
1 - Une femme amoureuse (Woman in Love)
Eddy Marnay - R.H. et B.A. Gibb
2 - Un jour, on dit je t'aime
M. Simille / B. de Lancray - Paul de Senneville / O. Toussaint
3 - À Blue Bayou
Eddy Marnay - R. Orbinson / J. Melson
4 - Un dernier mot d'amour
Claude Lemesle - R. Carlos
5 - Nos souvenirs (Memory)
Eddy Marnay / T. S. Elliot / T. nunn - A. Lloyd Webber
6 - Quelque chose est arrivé
Eddy Marnay - Gino Mescoli
7 - On ne vit pas sans se dire adieu
H. Djian - Zacar
8 - Folle, folle, follement heureuse
T. Renis / A. Testa - Charles Aznavour
9 - Oui j'ai envie d'être aimée
Catherine Desage - Francis Lai
10 - Tu m'apportais des fleurs (You Don't Bring Me Flowers)
Eddy Marnay - Neil Diamond
11 - Va sans moi
Eddy Marnay - Jean Claudric
12 - Romantica
Catherine Desage - G. Gustin
13 - L'amour oublie le temps
Catherine Desage - Christian Bruhn
14 - Un peu de bleu
Claude Lemesle - R. Leight
15 - Ciao bambino, sorry
Pierre Delanoë - V. Pallavicini
16 - Roma, Roma, Roma
R. Bernet - Christian Bruhn
17 - L'enfant de l'Irlande (Danny Boy)
Jean-Marie Moreau - B. Weinsman
18 - Andy
Paul Anka / Eddy Marnay - Paul Anka
19 - Chanter
Claude Lemesle - Jean-Pierre Bourtayre / Jacques Revaux
20 - Mon credo
André Pascal - Paul Mauriat
CD3
1 - Pardonne-moi ce caprice d'enfant
Patricia Carli - Patricia Carli
2 - Allô
Eddy Marnay - L. Richie
3 - T'aimer
Pierre André Dousset - Francis Lai
4 - Apprends-moi (Tornerò)
H. Djian - Polizzy / Natili / Ramoino
5 - Je t'aime avec ma peau
Catherine Desage - Francis Lai
6 - Au dernier printemps de notre vie
Michel Jourdan - Roland Vincent
7 - Et tu seras poète
Jean-Pierre Lang - Roland Vincent
8 - Mais toi
Eddy Marnay - Raymond Bernard
9 - Le vent de la nuit
Catherine Desage - Christian Bruhn
10 - Je chante pour toi
Pierre André Dousset - W. Marks
11 - Le vieux café de la Rue d'Amérique (The Red Rose Café)
Eddy Marnay - P. Kartner
12 - Après toi
Claude Lemesle - U. Balsamo
13 - Donne ton coeur, donne ta vie
Patricia Carli - Patricia Carli
14 - Je me parle de toi
Pierre André Dousset - Francis Lai
15 - La tête en feu
Claude-Michel Schönberg - Claude-Michel Schönberg
16 - C'était pas la peine
Michel Jourdan - Noam Kaniel
17 - Vivre pour toi
Pierre André Dousset - Christian Gaubert
18 - Amour défendu
Eddy Marnay - (Trad.)
19 - Il n'est resté que l'amour
Claude Lemesle / Pierre Delanoé - Alice Dona
20 - Quand tu t'en iras (02) (Non pensare a me)
Jacques Plante - A. Testa / Eros Sciorilli

Лог создания рипа

Exact Audio Copy V1.0 beta 3 from 29. August 2011
Отчёт EAC об извлечении, выполненном 7. сентября 2013, 12:04
Mireille Mathieu / Amoureusement Votre
Дисковод: TSSTcorpCDDVDW SH-222BB Adapter: 0 ID: 2
Режим чтения : ДостоверностьИспользование точного потока : ДаОтключение кэша аудио : ДаИспользование указателей C2 : Нет
Коррекция смещения при чтении : 6Способность читать области Lead-in и Lead-out : НетЗаполнение пропущенных сэмплов тишиной : ДаУдаление блоков с тишиной в начале и конце : НетПри вычислениях CRC использовались нулевые сэмплы : ДаИнтерфейс : Установленный внешний ASPI-интерфейсОбработка зазоров : Добавлено к предыдущему треку
Выходной формат : Пользовательский кодировщикВыбранный битрейт : 768 kBit/sКачество : ВысокийДобавление ID3-тега : НетУтилита сжатия : C:\Program Files (x86)\Exact Audio Copy\FLAC\FLAC.EXEДополнительные параметры : -V -8 -T "Genre=%genre%" -T "Artist=%artist%" -T "Title=%title%" -T "Album=%albumtitle%" -T "Totaldiscs=%totalcds%" -T "Discnumber=%cdnumber%" -T "Date=%year%" -T "Tracknumber=%tracknr%" -T "Comment=%comment%" %source%
TOC извлечённого CD
Трек | Старт | Длительность | Начальный сектор | Конечный сектор --------------------------------------------------------------------- 1 | 0:00.00 | 3:30.02 | 0 | 15751 2 | 3:30.02 | 4:02.03 | 15752 | 33904 3 | 7:32.05 | 2:40.22 | 33905 | 45926 4 | 10:12.27 | 2:54.10 | 45927 | 58986 5 | 13:06.37 | 4:30.48 | 58987 | 79284 6 | 17:37.10 | 3:08.57 | 79285 | 93441 7 | 20:45.67 | 4:36.53 | 93442 | 114194 8 | 25:22.45 | 4:05.20 | 114195 | 132589 9 | 29:27.65 | 2:29.07 | 132590 | 143771 10 | 31:56.72 | 4:34.40 | 143772 | 164361 11 | 36:31.37 | 2:26.33 | 164362 | 175344 12 | 38:57.70 | 3:23.40 | 175345 | 190609 13 | 42:21.35 | 4:16.00 | 190610 | 209809 14 | 46:37.35 | 2:48.07 | 209810 | 222416 15 | 49:25.42 | 3:17.70 | 222417 | 237261 16 | 52:43.37 | 3:25.38 | 237262 | 252674 17 | 56:09.00 | 2:57.20 | 252675 | 265969
Трек 1
Имя файла E:\FTP\PUB\Music\Worldmusic\Mireille Mathieu\2002 - Amoureusement Votre (EMI FRA CD)\01 - La vie en rose (85).wav
Длина предзазора 0:00:02.00
Пиковый уровень 89.1 % Скорость извлечения 4.4 X Качество трека 100.0 % CRC теста F260AC32 CRC копии F260AC32 Копирование... OK
Трек 2
Имя файла E:\FTP\PUB\Music\Worldmusic\Mireille Mathieu\2002 - Amoureusement Votre (EMI FRA CD)\02 - Je suis seule ce soir.wav
Пиковый уровень 89.1 % Скорость извлечения 4.4 X Качество трека 99.9 % CRC теста 1D6B068A CRC копии 1D6B068A Копирование... OK
Трек 3
Имя файла E:\FTP\PUB\Music\Worldmusic\Mireille Mathieu\2002 - Amoureusement Votre (EMI FRA CD)\03 - Moulin rouge.wav
Пиковый уровень 89.1 % Скорость извлечения 5.0 X Качество трека 100.0 % CRC теста C039FD7C CRC копии C039FD7C Копирование... OK
Трек 4
Имя файла E:\FTP\PUB\Music\Worldmusic\Mireille Mathieu\2002 - Amoureusement Votre (EMI FRA CD)\04 - Le premier rendez-vous.wav
Пиковый уровень 89.1 % Скорость извлечения 5.3 X Качество трека 100.0 % CRC теста EA21FF12 CRC копии EA21FF12 Копирование... OK
Трек 5
Имя файла E:\FTP\PUB\Music\Worldmusic\Mireille Mathieu\2002 - Amoureusement Votre (EMI FRA CD)\05 - Les trois cloches.wav
Пиковый уровень 89.1 % Скорость извлечения 6.1 X Качество трека 100.0 % CRC теста 2FEA1CBA CRC копии 2FEA1CBA Копирование... OK
Трек 6
Имя файла E:\FTP\PUB\Music\Worldmusic\Mireille Mathieu\2002 - Amoureusement Votre (EMI FRA CD)\06 - Padam-Padam.wav
Пиковый уровень 89.1 % Скорость извлечения 6.0 X Качество трека 100.0 % CRC теста 786201A5 CRC копии 786201A5 Копирование... OK
Трек 7
Имя файла E:\FTP\PUB\Music\Worldmusic\Mireille Mathieu\2002 - Amoureusement Votre (EMI FRA CD)\07 - Ne me quitte pas.wav
Пиковый уровень 89.1 % Скорость извлечения 6.8 X Качество трека 100.0 % CRC теста 239E287A CRC копии 239E287A Копирование... OK
Трек 8
Имя файла E:\FTP\PUB\Music\Worldmusic\Mireille Mathieu\2002 - Amoureusement Votre (EMI FRA CD)\08 - Comme d'habitude.wav
Пиковый уровень 89.1 % Скорость извлечения 7.0 X Качество трека 100.0 % CRC теста A906C2FC CRC копии A906C2FC Копирование... OK
Трек 9
Имя файла E:\FTP\PUB\Music\Worldmusic\Mireille Mathieu\2002 - Amoureusement Votre (EMI FRA CD)\09 - Plaisir d'amour (85).wav
Пиковый уровень 89.1 % Скорость извлечения 6.5 X Качество трека 100.0 % CRC теста 73880905 CRC копии 73880905 Копирование... OK
Трек 10
Имя файла E:\FTP\PUB\Music\Worldmusic\Mireille Mathieu\2002 - Amoureusement Votre (EMI FRA CD)\10 - Milord (85).wav
Пиковый уровень 89.1 % Скорость извлечения 6.8 X Качество трека 99.9 % CRC теста D9011020 CRC копии D9011020 Копирование... OK
Трек 11
Имя файла E:\FTP\PUB\Music\Worldmusic\Mireille Mathieu\2002 - Amoureusement Votre (EMI FRA CD)\11 - Non, je ne regrette rien (85).wav
Пиковый уровень 89.1 % Скорость извлечения 5.8 X Качество трека 99.9 % CRC теста 3E6154BF CRC копии 3E6154BF Копирование... OK
Трек 12
Имя файла E:\FTP\PUB\Music\Worldmusic\Mireille Mathieu\2002 - Amoureusement Votre (EMI FRA CD)\12 - Les feuilles mortes.wav
Пиковый уровень 89.1 % Скорость извлечения 6.5 X Качество трека 99.9 % CRC теста 4973DDE3 CRC копии 4973DDE3 Копирование... OK
Трек 13
Имя файла E:\FTP\PUB\Music\Worldmusic\Mireille Mathieu\2002 - Amoureusement Votre (EMI FRA CD)\13 - La mer.wav
Пиковый уровень 89.1 % Скорость извлечения 8.0 X Качество трека 100.0 % CRC теста 8EEA4451 CRC копии 8EEA4451 Копирование... OK
Трек 14
Имя файла E:\FTP\PUB\Music\Worldmusic\Mireille Mathieu\2002 - Amoureusement Votre (EMI FRA CD)\14 - C'est si bon.wav
Пиковый уровень 89.1 % Скорость извлечения 7.8 X Качество трека 100.0 % CRC теста AD73E782 CRC копии AD73E782 Копирование... OK
Трек 15
Имя файла E:\FTP\PUB\Music\Worldmusic\Mireille Mathieu\2002 - Amoureusement Votre (EMI FRA CD)\15 - Parlez-moi d'amour.wav
Пиковый уровень 89.1 % Скорость извлечения 8.2 X Качество трека 100.0 % CRC теста 2D4BE947 CRC копии 2D4BE947 Копирование... OK
Трек 16
Имя файла E:\FTP\PUB\Music\Worldmusic\Mireille Mathieu\2002 - Amoureusement Votre (EMI FRA CD)\16 - L'hymne a l'amour.wav
Пиковый уровень 89.1 % Скорость извлечения 7.3 X Качество трека 99.9 % CRC теста 82704AB3 CRC копии 82704AB3 Копирование... OK
Трек 17
Имя файла E:\FTP\PUB\Music\Worldmusic\Mireille Mathieu\2002 - Amoureusement Votre (EMI FRA CD)\17 - La quete (inedite).wav
Пиковый уровень 89.1 % Скорость извлечения 7.1 X Качество трека 99.9 % CRC теста A2E89087 CRC копии A2E89087 Копирование... OK
Ошибок не произошло
Конец отчёта
---- CUETools DB Plugin V2.1.3
[CTDB TOCID: BYNx3vDiKmo72rOoVSQE7F9JqPc-] disk not present in database, Submit result: BYNx3vDiKmo72rOoVSQE7F9JqPc- has been uploaded
==== Контрольная сумма отчёта 24D7C0DCC5F96DF044B1973947AAA2EED5CABB056C3CE09BCF5FF6C4D0A40875 ====
------------------------------------------------------------
Exact Audio Copy V1.0 beta 3 from 29. August 2011
Отчёт EAC об извлечении, выполненном 7. сентября 2013, 12:36
Mireille Mathieu / Amoureusement Votre
Дисковод: TSSTcorpCDDVDW SH-222BB Adapter: 0 ID: 2
Режим чтения : ДостоверностьИспользование точного потока : ДаОтключение кэша аудио : ДаИспользование указателей C2 : Нет
Коррекция смещения при чтении : 6Способность читать области Lead-in и Lead-out : НетЗаполнение пропущенных сэмплов тишиной : ДаУдаление блоков с тишиной в начале и конце : НетПри вычислениях CRC использовались нулевые сэмплы : ДаИнтерфейс : Установленный внешний ASPI-интерфейсОбработка зазоров : Добавлено к предыдущему треку
Выходной формат : Пользовательский кодировщикВыбранный битрейт : 768 kBit/sКачество : ВысокийДобавление ID3-тега : НетУтилита сжатия : C:\Program Files (x86)\Exact Audio Copy\FLAC\FLAC.EXEДополнительные параметры : -V -8 -T "Genre=%genre%" -T "Artist=%artist%" -T "Title=%title%" -T "Album=%albumtitle%" -T "Totaldiscs=%totalcds%" -T "Discnumber=%cdnumber%" -T "Date=%year%" -T "Tracknumber=%tracknr%" -T "Comment=%comment%" %source%
TOC извлечённого CD
Трек | Старт | Длительность | Начальный сектор | Конечный сектор --------------------------------------------------------------------- 1 | 0:00.00 | 4:10.05 | 0 | 18754 2 | 4:10.05 | 2:50.50 | 18755 | 31554 3 | 7:00.55 | 3:58.00 | 31555 | 49404 4 | 10:58.55 | 3:43.10 | 49405 | 66139 5 | 14:41.65 | 3:47.72 | 66140 | 83236 6 | 18:29.62 | 3:13.28 | 83237 | 97739 7 | 21:43.15 | 4:20.47 | 97740 | 117286 8 | 26:03.62 | 3:39.13 | 117287 | 133724 9 | 29:43.00 | 2:44.50 | 133725 | 146074 10 | 32:27.50 | 3:20.62 | 146075 | 161136 11 | 35:48.37 | 3:42.63 | 161137 | 177849 12 | 39:31.25 | 3:04.15 | 177850 | 191664 13 | 42:35.40 | 3:07.27 | 191665 | 205716 14 | 45:42.67 | 2:24.05 | 205717 | 216521 15 | 48:06.72 | 2:59.53 | 216522 | 229999 16 | 51:06.50 | 3:20.47 | 230000 | 245046 17 | 54:27.22 | 2:45.08 | 245047 | 257429 18 | 57:12.30 | 3:30.30 | 257430 | 273209 19 | 60:42.60 | 4:33.65 | 273210 | 293749 20 | 65:16.50 | 2:49.62 | 293750 | 306486
Трек 1
Имя файла E:\FTP\PUB\Music\Worldmusic\Mireille Mathieu\2002 - Amoureusement Votre (EMI FRA CD)\18 - Une femme amoureuse (Woman in Love).wav
Длина предзазора 0:00:02.00
Пиковый уровень 89.1 % Скорость извлечения 4.6 X Качество трека 100.0 % CRC теста 42B556C0 CRC копии 42B556C0 Копирование... OK
Трек 2
Имя файла E:\FTP\PUB\Music\Worldmusic\Mireille Mathieu\2002 - Amoureusement Votre (EMI FRA CD)\19 - Un jour, on dit je t'aime.wav
Пиковый уровень 89.1 % Скорость извлечения 4.0 X Качество трека 99.9 % CRC теста C8BC3171 CRC копии C8BC3171 Копирование... OK
Трек 3
Имя файла E:\FTP\PUB\Music\Worldmusic\Mireille Mathieu\2002 - Amoureusement Votre (EMI FRA CD)\20 - A blue bayou.wav
Пиковый уровень 89.1 % Скорость извлечения 5.3 X Качество трека 100.0 % CRC теста CBFEF8B5 CRC копии CBFEF8B5 Копирование... OK
Трек 4
Имя файла E:\FTP\PUB\Music\Worldmusic\Mireille Mathieu\2002 - Amoureusement Votre (EMI FRA CD)\21 - Un dernier mot d'amour.wav
Пиковый уровень 89.1 % Скорость извлечения 5.5 X Качество трека 100.0 % CRC теста EDBCAE6D CRC копии EDBCAE6D Копирование... OK
Трек 5
Имя файла E:\FTP\PUB\Music\Worldmusic\Mireille Mathieu\2002 - Amoureusement Votre (EMI FRA CD)\22 - Nos souvenirs (Memory).wav
Пиковый уровень 89.1 % Скорость извлечения 5.9 X Качество трека 100.0 % CRC теста 49C10B22 CRC копии 49C10B22 Копирование... OK
Трек 6
Имя файла E:\FTP\PUB\Music\Worldmusic\Mireille Mathieu\2002 - Amoureusement Votre (EMI FRA CD)\23 - Quelque chose est arrive.wav
Пиковый уровень 89.1 % Скорость извлечения 6.0 X Качество трека 100.0 % CRC теста 79B4F037 CRC копии 79B4F037 Копирование... OK
Трек 7
Имя файла E:\FTP\PUB\Music\Worldmusic\Mireille Mathieu\2002 - Amoureusement Votre (EMI FRA CD)\24 - On ne vit pas sans se dire adieu.wav
Пиковый уровень 89.1 % Скорость извлечения 5.9 X Качество трека 99.9 % CRC теста 605B90EE CRC копии 605B90EE Копирование... OK
Трек 8
Имя файла E:\FTP\PUB\Music\Worldmusic\Mireille Mathieu\2002 - Amoureusement Votre (EMI FRA CD)\25 - Folle, folle, follement heureuse.wav
Пиковый уровень 89.1 % Скорость извлечения 6.8 X Качество трека 100.0 % CRC теста 28DFC572 CRC копии 28DFC572 Копирование... OK
Трек 9
Имя файла E:\FTP\PUB\Music\Worldmusic\Mireille Mathieu\2002 - Amoureusement Votre (EMI FRA CD)\26 - Oui j'ai envie d'etre aimee.wav
Пиковый уровень 89.1 % Скорость извлечения 5.6 X Качество трека 99.9 % CRC теста 04981809 CRC копии 04981809 Копирование... OK
Трек 10
Имя файла E:\FTP\PUB\Music\Worldmusic\Mireille Mathieu\2002 - Amoureusement Votre (EMI FRA CD)\27 - Tu m'apportais des fleurs (You Don't Bring Me Flowers).wav
Пиковый уровень 89.1 % Скорость извлечения 6.1 X Качество трека 99.9 % CRC теста 1D4CF0CB CRC копии 1D4CF0CB Копирование... OK
Трек 11
Имя файла E:\FTP\PUB\Music\Worldmusic\Mireille Mathieu\2002 - Amoureusement Votre (EMI FRA CD)\28 - Va sans moi.wav
Пиковый уровень 89.1 % Скорость извлечения 7.4 X Качество трека 100.0 % CRC теста C0B0C85C CRC копии C0B0C85C Копирование... OK
Трек 12
Имя файла E:\FTP\PUB\Music\Worldmusic\Mireille Mathieu\2002 - Amoureusement Votre (EMI FRA CD)\29 - Romantica.wav
Пиковый уровень 89.1 % Скорость извлечения 7.4 X Качество трека 100.0 % CRC теста 4AF7059B CRC копии 4AF7059B Копирование... OK
Трек 13
Имя файла E:\FTP\PUB\Music\Worldmusic\Mireille Mathieu\2002 - Amoureusement Votre (EMI FRA CD)\30 - L'amour oublie le temps.wav
Пиковый уровень 89.1 % Скорость извлечения 7.5 X Качество трека 100.0 % CRC теста 4A66C502 CRC копии 4A66C502 Копирование... OK
Трек 14
Имя файла E:\FTP\PUB\Music\Worldmusic\Mireille Mathieu\2002 - Amoureusement Votre (EMI FRA CD)\31 - Un peu de bleu.wav
Пиковый уровень 89.1 % Скорость извлечения 6.0 X Качество трека 99.9 % CRC теста 6A5F982A CRC копии 6A5F982A Копирование... OK
Трек 15
Имя файла E:\FTP\PUB\Music\Worldmusic\Mireille Mathieu\2002 - Amoureusement Votre (EMI FRA CD)\32 - Ciao bambino, sorry.wav
Пиковый уровень 89.1 % Скорость извлечения 7.8 X Качество трека 100.0 % CRC теста 7C9E081D CRC копии 7C9E081D Копирование... OK
Трек 16
Имя файла E:\FTP\PUB\Music\Worldmusic\Mireille Mathieu\2002 - Amoureusement Votre (EMI FRA CD)\33 - Roma, Roma, Roma.wav
Пиковый уровень 89.1 % Скорость извлечения 8.1 X Качество трека 100.0 % CRC теста 5732F156 CRC копии 5732F156 Копирование... OK
Трек 17
Имя файла E:\FTP\PUB\Music\Worldmusic\Mireille Mathieu\2002 - Amoureusement Votre (EMI FRA CD)\34 - L'enfant de l'Irlande (Danny Boy).wav
Пиковый уровень 89.1 % Скорость извлечения 8.0 X Качество трека 100.0 % CRC теста 7B051690 CRC копии 7B051690 Копирование... OK
Трек 18
Имя файла E:\FTP\PUB\Music\Worldmusic\Mireille Mathieu\2002 - Amoureusement Votre (EMI FRA CD)\35 - Andy.wav
Пиковый уровень 96.6 % Скорость извлечения 8.5 X Качество трека 100.0 % CRC теста A4D5F0FD CRC копии A4D5F0FD Копирование... OK
Трек 19
Имя файла E:\FTP\PUB\Music\Worldmusic\Mireille Mathieu\2002 - Amoureusement Votre (EMI FRA CD)\36 - Chanter.wav
Пиковый уровень 89.1 % Скорость извлечения 8.0 X Качество трека 99.9 % CRC теста 0A1541BD CRC копии 0A1541BD Копирование... OK
Трек 20
Имя файла E:\FTP\PUB\Music\Worldmusic\Mireille Mathieu\2002 - Amoureusement Votre (EMI FRA CD)\37 - Mon credo.wav
Пиковый уровень 89.1 % Скорость извлечения 8.5 X Качество трека 100.0 % CRC теста E9C77F6C CRC копии E9C77F6C Копирование... OK
Ошибок не произошло
Конец отчёта
---- CUETools DB Plugin V2.1.3
[CTDB TOCID: tzbswBLKtJUYD5F.DZefHUIRWBE-] disk not present in database, Submit result: tzbswBLKtJUYD5F.DZefHUIRWBE- has been uploaded
==== Контрольная сумма отчёта 9735F0FF6F44B0A09D6306858FFD614C8284E82CA915BDF3F93BD5ABCA66CC2C ====
------------------------------------------------------------
Exact Audio Copy V1.0 beta 3 from 29. August 2011
Отчёт EAC об извлечении, выполненном 7. сентября 2013, 14:01
Mireille Mathieu / Amoureusement Votre
Дисковод: TSSTcorpCDDVDW SH-222BB Adapter: 0 ID: 2
Режим чтения : ДостоверностьИспользование точного потока : ДаОтключение кэша аудио : ДаИспользование указателей C2 : Нет
Коррекция смещения при чтении : 6Способность читать области Lead-in и Lead-out : НетЗаполнение пропущенных сэмплов тишиной : ДаУдаление блоков с тишиной в начале и конце : НетПри вычислениях CRC использовались нулевые сэмплы : ДаИнтерфейс : Установленный внешний ASPI-интерфейсОбработка зазоров : Добавлено к предыдущему треку
Выходной формат : Пользовательский кодировщикВыбранный битрейт : 768 kBit/sКачество : ВысокийДобавление ID3-тега : НетУтилита сжатия : C:\Program Files (x86)\Exact Audio Copy\FLAC\FLAC.EXEДополнительные параметры : -V -8 -T "Genre=%genre%" -T "Artist=%artist%" -T "Title=%title%" -T "Album=%albumtitle%" -T "Totaldiscs=%totalcds%" -T "Discnumber=%cdnumber%" -T "Date=%year%" -T "Tracknumber=%tracknr%" -T "Comment=%comment%" %source%
TOC извлечённого CD
Трек | Старт | Длительность | Начальный сектор | Конечный сектор --------------------------------------------------------------------- 1 | 0:00.00 | 3:21.42 | 0 | 15116 2 | 3:21.42 | 4:11.50 | 15117 | 33991 3 | 7:33.17 | 3:36.05 | 33992 | 50196 4 | 11:09.22 | 4:05.03 | 50197 | 68574 5 | 15:14.25 | 3:40.07 | 68575 | 85081 6 | 18:54.32 | 3:51.58 | 85082 | 102464 7 | 22:46.15 | 4:14.67 | 102465 | 121581 8 | 27:01.07 | 3:12.38 | 121582 | 136019 9 | 30:13.45 | 4:15.42 | 136020 | 155186 10 | 34:29.12 | 2:52.65 | 155187 | 168151 11 | 37:22.02 | 4:04.08 | 168152 | 186459 12 | 41:26.10 | 4:01.57 | 186460 | 204591 13 | 45:27.67 | 2:44.10 | 204592 | 216901 14 | 48:12.02 | 4:01.50 | 216902 | 235026 15 | 52:13.52 | 3:20.35 | 235027 | 250061 16 | 55:34.12 | 3:20.63 | 250062 | 265124 17 | 58:55.00 | 2:58.27 | 265125 | 278501 18 | 61:53.27 | 3:27.40 | 278502 | 294066 19 | 65:20.67 | 3:53.13 | 294067 | 311554 20 | 69:14.05 | 3:02.30 | 311555 | 325234
Трек 1
Имя файла E:\FTP\PUB\Music\Worldmusic\Mireille Mathieu\2002 - Amoureusement Votre (EMI FRA CD)\38 - Pardonne-moi ce caprice d'enfant.wav
Длина предзазора 0:00:02.00
Пиковый уровень 89.1 % Скорость извлечения 4.5 X Качество трека 100.0 % CRC теста C44E8DAD CRC копии C44E8DAD Копирование... OK
Трек 2
Имя файла E:\FTP\PUB\Music\Worldmusic\Mireille Mathieu\2002 - Amoureusement Votre (EMI FRA CD)\39 - Allo.wav
Пиковый уровень 89.1 % Скорость извлечения 4.5 X Качество трека 99.9 % CRC теста D14DCF28 CRC копии D14DCF28 Копирование... OK
Трек 3
Имя файла E:\FTP\PUB\Music\Worldmusic\Mireille Mathieu\2002 - Amoureusement Votre (EMI FRA CD)\40 - T'aimer.wav
Пиковый уровень 89.1 % Скорость извлечения 5.2 X Качество трека 100.0 % CRC теста ED7BFC83 CRC копии ED7BFC83 Копирование... OK
Трек 4
Имя файла E:\FTP\PUB\Music\Worldmusic\Mireille Mathieu\2002 - Amoureusement Votre (EMI FRA CD)\41 - Apprends-moi (Tornero).wav
Пиковый уровень 89.1 % Скорость извлечения 5.1 X Качество трека 99.9 % CRC теста 6EFB9D1A CRC копии 6EFB9D1A Копирование... OK
Трек 5
Имя файла E:\FTP\PUB\Music\Worldmusic\Mireille Mathieu\2002 - Amoureusement Votre (EMI FRA CD)\42 - Je t'aime avec ma peau.wav
Пиковый уровень 89.1 % Скорость извлечения 5.1 X Качество трека 99.9 % CRC теста 8FDED0E0 CRC копии 8FDED0E0 Копирование... OK
Трек 6
Имя файла E:\FTP\PUB\Music\Worldmusic\Mireille Mathieu\2002 - Amoureusement Votre (EMI FRA CD)\43 - Au dernier printemps de notre vie.wav
Пиковый уровень 89.1 % Скорость извлечения 6.3 X Качество трека 100.0 % CRC теста 3AD83FF9 CRC копии 3AD83FF9 Копирование... OK
Трек 7
Имя файла E:\FTP\PUB\Music\Worldmusic\Mireille Mathieu\2002 - Amoureusement Votre (EMI FRA CD)\44 - Et tu seras poete.wav
Пиковый уровень 89.1 % Скорость извлечения 6.4 X Качество трека 100.0 % CRC теста 33E31468 CRC копии 33E31468 Копирование... OK
Трек 8
Имя файла E:\FTP\PUB\Music\Worldmusic\Mireille Mathieu\2002 - Amoureusement Votre (EMI FRA CD)\45 - Mais toi.wav
Пиковый уровень 89.1 % Скорость извлечения 6.7 X Качество трека 100.0 % CRC теста A25BB4BF CRC копии A25BB4BF Копирование... OK
Трек 9
Имя файла E:\FTP\PUB\Music\Worldmusic\Mireille Mathieu\2002 - Amoureusement Votre (EMI FRA CD)\46 - Le vent de la nuit.wav
Пиковый уровень 89.1 % Скорость извлечения 7.1 X Качество трека 100.0 % CRC теста CEB2A700 CRC копии CEB2A700 Копирование... OK
Трек 10
Имя файла E:\FTP\PUB\Music\Worldmusic\Mireille Mathieu\2002 - Amoureusement Votre (EMI FRA CD)\47 - Je chante pour toi.wav
Пиковый уровень 100.0 % Скорость извлечения 6.7 X Качество трека 100.0 % CRC теста 3E9DCA62 CRC копии 3E9DCA62 Копирование... OK
Трек 11
Имя файла E:\FTP\PUB\Music\Worldmusic\Mireille Mathieu\2002 - Amoureusement Votre (EMI FRA CD)\48 - Le vieux cafe de la rue d'Amerique (The Red Rose Cafe).wav
Пиковый уровень 89.1 % Скорость извлечения 7.6 X Качество трека 100.0 % CRC теста 91EE0E48 CRC копии 91EE0E48 Копирование... OK
Трек 12
Имя файла E:\FTP\PUB\Music\Worldmusic\Mireille Mathieu\2002 - Amoureusement Votre (EMI FRA CD)\49 - Apres toi.wav
Пиковый уровень 89.1 % Скорость извлечения 7.7 X Качество трека 100.0 % CRC теста FA9FAFF2 CRC копии FA9FAFF2 Копирование... OK
Трек 13
Имя файла E:\FTP\PUB\Music\Worldmusic\Mireille Mathieu\2002 - Amoureusement Votre (EMI FRA CD)\50 - Donne ton coeur, donne ta vie.wav
Пиковый уровень 89.1 % Скорость извлечения 7.5 X Качество трека 100.0 % CRC теста 3755D8DB CRC копии 3755D8DB Копирование... OK
Трек 14
Имя файла E:\FTP\PUB\Music\Worldmusic\Mireille Mathieu\2002 - Amoureusement Votre (EMI FRA CD)\51 - Je me parle de toi.wav
Пиковый уровень 89.1 % Скорость извлечения 7.2 X Качество трека 99.9 % CRC теста F0B60E4F CRC копии F0B60E4F Копирование... OK
Трек 15
Имя файла E:\FTP\PUB\Music\Worldmusic\Mireille Mathieu\2002 - Amoureusement Votre (EMI FRA CD)\52 - La tete en feu.wav
Пиковый уровень 89.1 % Скорость извлечения 8.0 X Качество трека 100.0 % CRC теста CC34428F CRC копии CC34428F Копирование... OK
Трек 16
Имя файла E:\FTP\PUB\Music\Worldmusic\Mireille Mathieu\2002 - Amoureusement Votre (EMI FRA CD)\53 - C'etait pas la peine.wav
Пиковый уровень 89.1 % Скорость извлечения 7.1 X Качество трека 99.9 % CRC теста E5364035 CRC копии E5364035 Копирование... OK
Трек 17
Имя файла E:\FTP\PUB\Music\Worldmusic\Mireille Mathieu\2002 - Amoureusement Votre (EMI FRA CD)\54 - Vivre pour toi.wav
Пиковый уровень 89.1 % Скорость извлечения 8.3 X Качество трека 100.0 % CRC теста 7B98B941 CRC копии 7B98B941 Копирование... OK
Трек 18
Имя файла E:\FTP\PUB\Music\Worldmusic\Mireille Mathieu\2002 - Amoureusement Votre (EMI FRA CD)\55 - Amour defendu.wav
Пиковый уровень 89.1 % Скорость извлечения 8.6 X Качество трека 100.0 % CRC теста 2E8E43E4 CRC копии 2E8E43E4 Копирование... OK
Трек 19
Имя файла E:\FTP\PUB\Music\Worldmusic\Mireille Mathieu\2002 - Amoureusement Votre (EMI FRA CD)\56 - Il n'est reste que l'amour.wav
Пиковый уровень 89.1 % Скорость извлечения 8.9 X Качество трека 100.0 % CRC теста 315DDDA0 CRC копии 315DDDA0 Копирование... OK
Трек 20
Имя файла E:\FTP\PUB\Music\Worldmusic\Mireille Mathieu\2002 - Amoureusement Votre (EMI FRA CD)\57 - Quand tu t'en iras (02) (Non pensare a me).wav
Пиковый уровень 89.1 % Скорость извлечения 8.7 X Качество трека 100.0 % CRC теста 522D4926 CRC копии 522D4926 Копирование... OK
Ошибок не произошло
Конец отчёта
---- CUETools DB Plugin V2.1.3
[CTDB TOCID: oJoOWur7fARISEddGo0t9E30nK0-] disk not present in database, Submit result: oJoOWur7fARISEddGo0t9E30nK0- has been uploaded
==== Контрольная сумма отчёта 05752CB4BEC9E26D16B70FED9245B32DA761BDA4F2751028FA3818753FBF058C ====

Содержание индексной карты (.CUE)CD1

REM GENRE ChansonREM DISCID 080DDA11REM COMMENT "ExactAudioCopy v1.0b3"CATALOG 0724354393327PERFORMER "Mireille Mathieu"TITLE "Amoureusement Votre"FILE "01 - La vie en rose (85).wav" WAVE TRACK 01 AUDIO TITLE "La vie en rose (85)" PERFORMER "Mireille Mathieu" ISRC FRW148500116 INDEX 01 00:00:00FILE "02 - Je suis seule ce soir.wav" WAVE TRACK 02 AUDIO TITLE "Je suis seule ce soir" PERFORMER "Mireille Mathieu" ISRC FRW148500104 INDEX 01 00:00:00FILE "03 - Moulin rouge.wav" WAVE TRACK 03 AUDIO TITLE "Moulin rouge" PERFORMER "Mireille Mathieu" ISRC FRW148500110 INDEX 01 00:00:00FILE "04 - Le premier rendez-vous.wav" WAVE TRACK 04 AUDIO TITLE "Le premier rendez-vous" PERFORMER "Mireille Mathieu" ISRC FRW148500106 INDEX 01 00:00:00FILE "05 - Les trois cloches.wav" WAVE TRACK 05 AUDIO TITLE "Les trois cloches" PERFORMER "Mireille Mathieu" ISRC FRW148500108 INDEX 01 00:00:00FILE "06 - Padam-Padam.wav" WAVE TRACK 06 AUDIO TITLE "Padam-Padam" PERFORMER "Mireille Mathieu" ISRC FRW148500112 INDEX 01 00:00:00FILE "07 - Ne me quitte pas.wav" WAVE TRACK 07 AUDIO TITLE "Ne me quitte pas" PERFORMER "Mireille Mathieu" ISRC FRW148500115 INDEX 01 00:00:00FILE "08 - Comme d'habitude.wav" WAVE TRACK 08 AUDIO TITLE "Comme d'habitude" PERFORMER "Mireille Mathieu" ISRC FRW148500103 INDEX 01 00:00:00FILE "09 - Plaisir d'amour (85).wav" WAVE TRACK 09 AUDIO TITLE "Plaisir d'amour (85)" PERFORMER "Mireille Mathieu" ISRC FRW148500114 INDEX 01 00:00:00FILE "10 - Milord (85).wav" WAVE TRACK 10 AUDIO TITLE "Milord (85)" PERFORMER "Mireille Mathieu" ISRC FRW148500109 INDEX 01 00:00:00FILE "11 - Non, je ne regrette rien (85).wav" WAVE TRACK 11 AUDIO TITLE "Non, je ne regrette rien (85)" PERFORMER "Mireille Mathieu" ISRC FRW148500111 INDEX 01 00:00:00FILE "12 - Les feuilles mortes.wav" WAVE TRACK 12 AUDIO TITLE "Les feuilles mortes" PERFORMER "Mireille Mathieu" ISRC FRW148500107 INDEX 01 00:00:00FILE "13 - La mer.wav" WAVE TRACK 13 AUDIO TITLE "La mer" PERFORMER "Mireille Mathieu" ISRC FRW148500105 INDEX 01 00:00:00FILE "14 - C'est si bon.wav" WAVE TRACK 14 AUDIO TITLE "C'est si bon" PERFORMER "Mireille Mathieu" ISRC FRW148500102 INDEX 01 00:00:00FILE "15 - Parlez-moi d'amour.wav" WAVE TRACK 15 AUDIO TITLE "Parlez-moi d'amour" PERFORMER "Mireille Mathieu" ISRC FRW148500113 INDEX 01 00:00:00FILE "16 - L'hymne a l'amour.wav" WAVE TRACK 16 AUDIO TITLE "L'hymne a l'amour" PERFORMER "Mireille Mathieu" ISRC FRW148500101 INDEX 01 00:00:00FILE "17 - La quete (inedite).wav" WAVE TRACK 17 AUDIO TITLE "La quete (inedite)" PERFORMER "Mireille Mathieu" ISRC FRW140200012 INDEX 01 00:00:00

CD2

REM GENRE ChansonREM DATE 2002REM DISCID 2B0FF614REM COMMENT "ExactAudioCopy v1.0b3"CATALOG 0724354393525PERFORMER "Mireille Mathieu"TITLE "Amoureusement Votre"FILE "18 - Une femme amoureuse (Woman in Love).wav" WAVE TRACK 01 AUDIO TITLE "Une femme amoureuse (Woman in Love)" PERFORMER "Mireille Mathieu" ISRC FRW148000097 INDEX 01 00:00:00FILE "19 - Un jour, on dit je t'aime.wav" WAVE TRACK 02 AUDIO TITLE "Un jour, on dit je t'aime" PERFORMER "Mireille Mathieu" ISRC FRW147400001 INDEX 01 00:00:00FILE "20 - A blue bayou.wav" WAVE TRACK 03 AUDIO TITLE "A blue bayou" PERFORMER "Mireille Mathieu" ISRC FRW147800002 INDEX 01 00:00:00FILE "21 - Un dernier mot d'amour.wav" WAVE TRACK 04 AUDIO TITLE "Un dernier mot d'amour" PERFORMER "Mireille Mathieu" ISRC FRW147800004 INDEX 01 00:00:00FILE "22 - Nos souvenirs (Memory).wav" WAVE TRACK 05 AUDIO TITLE "Nos souvenirs (Memory)" PERFORMER "Mireille Mathieu" ISRC FRW148200083 INDEX 01 00:00:00FILE "23 - Quelque chose est arrive.wav" WAVE TRACK 06 AUDIO TITLE "Quelque chose est arrive" PERFORMER "Mireille Mathieu" ISRC FRW148600002 INDEX 01 00:00:00FILE "24 - On ne vit pas sans se dire adieu.wav" WAVE TRACK 07 AUDIO TITLE "On ne vit pas sans se dire adieu" PERFORMER "Mireille Mathieu" ISRC FRW147500001 INDEX 01 00:00:00FILE "25 - Folle, folle, follement heureuse.wav" WAVE TRACK 08 AUDIO TITLE "Folle, folle, follement heureuse" PERFORMER "Mireille Mathieu" ISRC FRW147400002 INDEX 01 00:00:00FILE "26 - Oui j'ai envie d'etre aimee.wav" WAVE TRACK 09 AUDIO TITLE "Oui j'ai envie d'etre aimee" PERFORMER "Mireille Mathieu" ISRC FRW147500005 INDEX 01 00:00:00FILE "27 - Tu m'apportais des fleurs (You Don't Bring Me Flowers).wav" WAVE TRACK 10 AUDIO TITLE "Tu m'apportais des fleurs (You Don't Bring Me Flowers)" PERFORMER "Mireille Mathieu" ISRC FRW148300112 INDEX 01 00:00:00FILE "28 - Va sans moi.wav" WAVE TRACK 11 AUDIO TITLE "Va sans moi" PERFORMER "Mireille Mathieu" ISRC FRW148400007 INDEX 01 00:00:00FILE "29 - Romantica.wav" WAVE TRACK 12 AUDIO TITLE "Romantica" PERFORMER "Mireille Mathieu" ISRC FRW147400003 INDEX 01 00:00:00FILE "30 - L'amour oublie le temps.wav" WAVE TRACK 13 AUDIO TITLE "L'amour oublie le temps" PERFORMER "Mireille Mathieu" ISRC FRW147400003 INDEX 01 00:00:00FILE "31 - Un peu de bleu.wav" WAVE TRACK 14 AUDIO TITLE "Un peu de bleu" PERFORMER "Mireille Mathieu" ISRC FRW147800005 INDEX 01 00:00:00FILE "32 - Ciao bambino, sorry.wav" WAVE TRACK 15 AUDIO TITLE "Ciao bambino, sorry" PERFORMER "Mireille Mathieu" ISRC FRW147600104 INDEX 01 00:00:00FILE "33 - Roma, Roma, Roma.wav" WAVE TRACK 16 AUDIO TITLE "Roma, Roma, Roma" PERFORMER "Mireille Mathieu" ISRC FRW147300005 INDEX 01 00:00:00FILE "34 - L'enfant de l'Irlande (Danny Boy).wav" WAVE TRACK 17 AUDIO TITLE "L'enfant de l'Irlande (Danny Boy)" PERFORMER "Mireille Mathieu" ISRC FRW149100001 INDEX 01 00:00:00FILE "35 - Andy.wav" WAVE TRACK 18 AUDIO TITLE "Andy" PERFORMER "Mireille Mathieu" ISRC FRW147900007 INDEX 01 00:00:00FILE "36 - Chanter.wav" WAVE TRACK 19 AUDIO TITLE "Chanter" PERFORMER "Mireille Mathieu" ISRC FRW148400008 INDEX 01 00:00:00FILE "37 - Mon credo.wav" WAVE TRACK 20 AUDIO TITLE "Mon credo" PERFORMER "Mireille Mathieu" ISRC FRW146600001 INDEX 01 00:00:00

CD3

REM GENRE ChansonREM DATE 2002REM DISCID 2010F014REM COMMENT "ExactAudioCopy v1.0b3"CATALOG 0724354393624PERFORMER "Mireille Mathieu"TITLE "Amoureusement Votre"FILE "38 - Pardonne-moi ce caprice d'enfant.wav" WAVE TRACK 01 AUDIO TITLE "Pardonne-moi ce caprice d'enfant" PERFORMER "Mireille Mathieu" ISRC FRW147000001 INDEX 01 00:00:00FILE "39 - Allo.wav" WAVE TRACK 02 AUDIO TITLE "Allo" PERFORMER "Mireille Mathieu" ISRC FRW148400006 INDEX 01 00:00:00FILE "40 - T'aimer.wav" WAVE TRACK 03 AUDIO TITLE "T'aimer" PERFORMER "Mireille Mathieu" ISRC FRW148600003 INDEX 01 00:00:00FILE "41 - Apprends-moi (Tornero).wav" WAVE TRACK 04 AUDIO TITLE "Apprends-moi (Tornero)" PERFORMER "Mireille Mathieu" ISRC FRW475000060 INDEX 01 00:00:00FILE "42 - Je t'aime avec ma peau.wav" WAVE TRACK 05 AUDIO TITLE "Je t'aime avec ma peau" PERFORMER "Mireille Mathieu" ISRC FRW147700072 INDEX 01 00:00:00FILE "43 - Au dernier printemps de notre vie.wav" WAVE TRACK 06 AUDIO TITLE "Au dernier printemps de notre vie" PERFORMER "Mireille Mathieu" ISRC FRW147400005 INDEX 01 00:00:00FILE "44 - Et tu seras poete.wav" WAVE TRACK 07 AUDIO TITLE "Et tu seras poete" PERFORMER "Mireille Mathieu" ISRC FRW147600105 INDEX 01 00:00:00FILE "45 - Mais toi.wav" WAVE TRACK 08 AUDIO TITLE "Mais toi" PERFORMER "Mireille Mathieu" ISRC FRW147400006 INDEX 01 00:00:00FILE "46 - Le vent de la nuit.wav" WAVE TRACK 09 AUDIO TITLE "Le vent de la nuit" PERFORMER "Mireille Mathieu" ISRC FRW147400006 INDEX 01 00:00:00FILE "47 - Je chante pour toi.wav" WAVE TRACK 10 AUDIO TITLE "Je chante pour toi" PERFORMER "Mireille Mathieu" ISRC FRW146900012 INDEX 01 00:00:00FILE "48 - Le vieux cafe de la rue d'Amerique (The Red Rose Cafe).wav" WAVE TRACK 11 AUDIO TITLE "Le vieux cafe de la rue d'Amerique (The Red Rose Cafe)" PERFORMER "Mireille Mathieu" ISRC FRW147700076 INDEX 01 00:00:00FILE "49 - Apres toi.wav" WAVE TRACK 12 AUDIO TITLE "Apres toi" PERFORMER "Mireille Mathieu" ISRC FRW148600004 INDEX 01 00:00:00FILE "50 - Donne ton coeur, donne ta vie.wav" WAVE TRACK 13 AUDIO TITLE "Donne ton coeur, donne ta vie" PERFORMER "Mireille Mathieu" ISRC FRW147000005 INDEX 01 00:00:00FILE "51 - Je me parle de toi.wav" WAVE TRACK 14 AUDIO TITLE "Je me parle de toi" PERFORMER "Mireille Mathieu" ISRC FRW148900001 INDEX 01 00:00:00FILE "52 - La tete en feu.wav" WAVE TRACK 15 AUDIO TITLE "La tete en feu" PERFORMER "Mireille Mathieu" ISRC FRW147700077 INDEX 01 00:00:00FILE "53 - C'etait pas la peine.wav" WAVE TRACK 16 AUDIO TITLE "C'etait pas la peine" PERFORMER "Mireille Mathieu" ISRC FRW149500010 INDEX 01 00:00:00FILE "54 - Vivre pour toi.wav" WAVE TRACK 17 AUDIO TITLE "Vivre pour toi" PERFORMER "Mireille Mathieu" ISRC FRW146900013 INDEX 01 00:00:00FILE "55 - Amour defendu.wav" WAVE TRACK 18 AUDIO TITLE "Amour defendu" PERFORMER "Mireille Mathieu" ISRC FRW147700073 INDEX 01 00:00:00FILE "56 - Il n'est reste que l'amour.wav" WAVE TRACK 19 AUDIO TITLE "Il n'est reste que l'amour" PERFORMER "Mireille Mathieu" ISRC FRW147700073 INDEX 01 00:00:00FILE "57 - Quand tu t'en iras (02) (Non pensare a me).wav" WAVE TRACK 20 AUDIO TITLE "Quand tu t'en iras (02) (Non pensare a me)" PERFORMER "Mireille Mathieu" ISRC FRW140200013 INDEX 01 00:00:00
Об альбоме (сборнике)
Эксклюзивный сборник, выпускавшийся не столь многочисленным тиражом в виде буклета.
Удивителен тем, что создатели допустили серьёзную ошибку в треклисте. На третьем диске под номером 7 заявлена Qu'attends-tu de moi?, хотя на самом деле там Et tu seras poète.

Для скачивания файла отключите блокировку рекламы и перезагрузите страницу.

disable adblock Как отключить блокировку рекламы?

Скачать по магнет ссылке 1,64 GB 

Войти с помощью:

Похожие раздачи

Внимание! Контент 18+ если вы младше данного возраста, НЕ переходите по ссылке!!!


   
Текущее время: 15-Авг 12:51 :: Часовой пояс: UTC ± 0