Various Artists - Rolling Stone Rare Trax Vol. 31: The French Connection
Жанр: Pop, Chanson
Страна-производитель диска: Germany
Год издания: 2003
Номер по каталогу: n/a
Страна: France
Аудиокодек: FLAC (*.flac)
Тип рипа: image+.cue
Битрейт аудио: lossless
Продолжительность: 00:39:57
Источник (релизер): avax
Наличие сканов в содержимом раздачи: да
Треклист:
01 Serge Gainsbourg - Bonnie And Clyde (mit Brigitte Bardot) 4:11
02 Antoine - Une Autre Autoroute 3:34
03 Sullivan - Hashish-Faction 2:40
04 Lio - Les Filles Veulent Tout 3:40
05 Jaques Dutronc - Les Play Boys 3:09
06 Claude Nougaro - Tout Feu Tout Femme 2:04
07 Lizzy Mercier Descloux - Les Baisers D'Amants 3:54
08 Pierre Barouh - Samba Saravah 4:30
09 Lizzy Mercier Descloux - Mission Impossible 2:34
10 MC Solaar - Et Dieu Crea L'Homme 3:58
11 Stratus - L'Hotel Particulier 5:42

Лог создания рипа

Exact Audio Copy V1.0 beta 3 from 29. August 2011
EAC extraction logfile from 13. May 2013, 20:12
RSRT Various / Vol. 31: The French Connection
Used drive : PIONEER BD-RW BDR-206 Adapter: 0 ID: 2
Read mode : SecureUtilize accurate stream : YesDefeat audio cache : YesMake use of C2 pointers : No
Read offset correction : 667Overread into Lead-In and Lead-Out : NoFill up missing offset samples with silence : YesDelete leading and trailing silent blocks : NoNull samples used in CRC calculations : YesUsed interface : Native Win32 interface for Win NT & 2000
Used output format : User Defined EncoderSelected bitrate : 1024 kBit/sQuality : HighAdd ID3 tag : YesCommand line compressor : C:\Program Files\FLAC\flac.exeAdditional command line options : -5 -T "Artist=%artist%" -T "Title=%title%" -T "Album=%albumtitle%" -T "Date=%year%" -T "Tracknumber=%tracknr%" -T "Genre=%genre%" %source% -o %dest%
TOC of the extracted CD
Track | Start | Length | Start sector | End sector --------------------------------------------------------- 1 | 0:00.00 | 4:11.23 | 0 | 18847 2 | 4:11.23 | 3:33.69 | 18848 | 34891 3 | 7:45.17 | 2:40.27 | 34892 | 46918 4 | 10:25.44 | 3:40.07 | 46919 | 63425 5 | 14:05.51 | 3:08.67 | 63426 | 77592 6 | 17:14.43 | 2:04.35 | 77593 | 86927 7 | 19:19.03 | 3:54.29 | 86928 | 104506 8 | 23:13.32 | 4:30.13 | 104507 | 124769 9 | 27:43.45 | 2:33.42 | 124770 | 136286 10 | 30:17.12 | 3:58.15 | 136287 | 154151 11 | 34:15.27 | 5:41.58 | 154152 | 179784
Range status and errors
Selected range
Filename F:\=== VINYL RIPS ===\=== EAC===\X FRESH RIP\Rare Trax - Vol. 31 - The French Connection.wav
Peak level 100.0 % Extraction speed 6.6 X Range quality 100.0 % Copy CRC 0B172668 Copy OK
No errors occurred
AccurateRip summary
Track 1 accurately ripped (confidence 3) [8AEE7F44] (AR v2)Track 2 accurately ripped (confidence 3) [5186EF4F] (AR v2)Track 3 accurately ripped (confidence 3) [D35EC477] (AR v2)Track 4 accurately ripped (confidence 3) [84FF5316] (AR v2)Track 5 accurately ripped (confidence 3) [00427763] (AR v2)Track 6 accurately ripped (confidence 3) [5A505982] (AR v2)Track 7 accurately ripped (confidence 3) [F8477090] (AR v2)Track 8 accurately ripped (confidence 3) [62F2C7AE] (AR v2)Track 9 accurately ripped (confidence 3) [9C301720] (AR v2)Track 10 accurately ripped (confidence 3) [3FDAB5A5] (AR v2)Track 11 accurately ripped (confidence 3) [EC446D69] (AR v2)
All tracks accurately ripped
End of status report
---- CUETools DB Plugin V2.1.3
[CTDB TOCID: Rlp3xSOpBGpEldMno4KahdKiFdk-] found, Submit result: Rlp3xSOpBGpEldMno4KahdKiFdk- has been confirmed[fb9bcb56] (2/2) Accurately ripped
==== Log checksum 0505F205E9C44BC75F944140520E1912A9BCD4701E8EA82A3D0C12A4E4B4E1C7 ====

Лог проверки качества

AUDIOCHECKER v2.0 beta (build 457) - by Dester - opdester@freemail.hu~~~~~~~~~~~~~~~~~~~~~~~~~~~~~~~~~~-=== DO NOT EDIT THIS FILE! ===-
Path: ...\VA - RSRT Vol. 31 - The French Connection (2003)
1 -=- Rare Trax - Vol. 31 - The French Connection.flac -=- CDDA (100%)
263297652

Доп. инфо

CD-приложение к германскому изданию журнала Rolling Stone Magazine

To download the file disable ad blocking, and reload the page.

disable adblock How to disable ad blocking?

Download by magnet link 245 MB Download Torrent

Login using:

Similar topics



   
Current time is: 18-Oct 20:01 :: All times are UTC ± 0