Julien Dore / Ersatz
Жанр: french chanson
Страна-производитель диска: Франция
Год издания: 2008
Страна: Франция
Аудиокодек: FLAC (*.flac)
Тип рипа: tracks+.cue
Битрейт аудио: lossless
Продолжительность: 00:45:46
Источник (релизер): what.cd
Наличие сканов в содержимом раздачи: нет
Треклист:
1. Acacia
2. Les Bords de Mer
3. Les Limites
4. Bouche Pute
5. Figures Imposées
6. Dans Tes Rêves
7. Pudding Morphina
8. Piano Lys
9. Soirées Parisiennes
10. J'Aime Pas
11. First Lady
12. SS in Uruguay
13. Los Angeles
14. De Mots

Лог создания рипа

Exact Audio Copy V1.0 beta 3 from 29. August 2011
EAC extraction logfile from 21. June 2013, 19:37
Julien Doré / Ersatz
Used drive : TSSTcorpCDDVDW SN-208BB Adapter: 0 ID: 1
Read mode : SecureUtilize accurate stream : YesDefeat audio cache : YesMake use of C2 pointers : No
Read offset correction : 6Overread into Lead-In and Lead-Out : NoFill up missing offset samples with silence : YesDelete leading and trailing silent blocks : NoNull samples used in CRC calculations : YesUsed interface : Native Win32 interface for Win NT & 2000Gap handling : Appended to previous track
Used output format : User Defined EncoderSelected bitrate : 320 kBit/sQuality : HighAdd ID3 tag : NoCommand line compressor : C:\Program Files (x86)\Exact Audio Copy\Flac\flac.exeAdditional command line options : -8 -V -T "ARTIST=%artist%" -T "TITLE=%title%" -T "ALBUM=%albumtitle%" -T "DATE=%year%" -T "TRACKNUMBER=%tracknr%" -T "GENRE=%genre%" -T "PERFORMER=%albuminterpret%" -T "COMPOSER=%composer%" %haslyrics%--tag-from-file=LYRICS="%lyricsfile%"%haslyrics% -T "ALBUMARTIST=%albumartist%" -T "DISCNUMBER=%cdnumber%" -T "TOTALDISCS=%totalcds%" -T "TOTALTRACKS=%numtracks%" -T "COMMENT=%comment%" %source% -o %dest%
TOC of the extracted CD
Track | Start | Length | Start sector | End sector --------------------------------------------------------- 1 | 0:00.00 | 3:05.56 | 0 | 13930 2 | 3:05.56 | 3:38.44 | 13931 | 30324 3 | 6:44.25 | 2:20.31 | 30325 | 40855 4 | 9:04.56 | 4:53.33 | 40856 | 62863 5 | 13:58.14 | 3:11.69 | 62864 | 77257 6 | 17:10.08 | 1:47.02 | 77258 | 85284 7 | 18:57.10 | 3:47.22 | 85285 | 102331 8 | 22:44.32 | 3:21.56 | 102332 | 117462 9 | 26:06.13 | 3:09.12 | 117463 | 131649 10 | 29:15.25 | 4:15.50 | 131650 | 150824 11 | 33:31.00 | 3:36.00 | 150825 | 167024 12 | 37:07.00 | 2:12.10 | 167025 | 176934 13 | 39:19.10 | 2:24.53 | 176935 | 187787 14 | 41:43.63 | 4:02.48 | 187788 | 205985 15 | 48:18.36 | 6:36.62 | 217386 | 247147
Track 1
Filename D:\Flac\Julien Doré - Ersatz (2008) [FLAC]\01 Acacia.wav
Pre-gap length 0:00:02.00
Peak level 100.0 % Extraction speed 2.5 X Track quality 100.0 % Test CRC 6B9C2BA5 Copy CRC 6B9C2BA5 Accurately ripped (confidence 3) [A8902E5E] (AR v2) Copy OK
Track 2
Filename D:\Flac\Julien Doré - Ersatz (2008) [FLAC]\02 Les bords de mer.wav
Peak level 100.0 % Extraction speed 2.8 X Track quality 100.0 % Test CRC 3FC87DCF Copy CRC 3FC87DCF Accurately ripped (confidence 2) [EB6D5C7D] (AR v2) Copy OK
Track 3
Filename D:\Flac\Julien Doré - Ersatz (2008) [FLAC]\03 Les limites.wav
Peak level 100.0 % Extraction speed 2.0 X Track quality 99.9 % Test CRC 97E57C76 Copy CRC 97E57C76 Accurately ripped (confidence 3) [DB9AF03E] (AR v2) Copy OK
Track 4
Filename D:\Flac\Julien Doré - Ersatz (2008) [FLAC]\04 Bouche pute.wav
Pre-gap length 0:00:02.66
Peak level 100.0 % Extraction speed 2.8 X Track quality 99.9 % Test CRC BA2402F6 Copy CRC BA2402F6 Accurately ripped (confidence 3) [611DDEB7] (AR v2) Copy OK
Track 5
Filename D:\Flac\Julien Doré - Ersatz (2008) [FLAC]\05 Les figures imposées.wav
Peak level 100.0 % Extraction speed 2.6 X Track quality 99.9 % Test CRC B8871E2F Copy CRC B8871E2F Accurately ripped (confidence 3) [4B6F96A8] (AR v2) Copy OK
Track 6
Filename D:\Flac\Julien Doré - Ersatz (2008) [FLAC]\06 Dans tes rêves.wav
Peak level 100.0 % Extraction speed 3.0 X Track quality 100.0 % Test CRC F0583189 Copy CRC F0583189 Accurately ripped (confidence 3) [7DE0FC67] (AR v2) Copy OK
Track 7
Filename D:\Flac\Julien Doré - Ersatz (2008) [FLAC]\07 Pudding Morphina.wav
Pre-gap length 0:00:01.33
Peak level 100.0 % Extraction speed 3.7 X Track quality 100.0 % Test CRC BC66001B Copy CRC BC66001B Accurately ripped (confidence 3) [CA658FA0] (AR v2) Copy OK
Track 8
Filename D:\Flac\Julien Doré - Ersatz (2008) [FLAC]\08 Piano Lys.wav
Peak level 100.0 % Extraction speed 3.8 X Track quality 100.0 % Test CRC 518DC543 Copy CRC 518DC543 Accurately ripped (confidence 3) [E1CE7866] (AR v2) Copy OK
Track 9
Filename D:\Flac\Julien Doré - Ersatz (2008) [FLAC]\09 Soirées parisiennes.wav
Peak level 100.0 % Extraction speed 3.9 X Track quality 100.0 % Test CRC C81013BC Copy CRC C81013BC Accurately ripped (confidence 3) [7D2C099C] (AR v2) Copy OK
Track 10
Filename D:\Flac\Julien Doré - Ersatz (2008) [FLAC]\10 J'aime pas.wav
Pre-gap length 0:00:02.38
Peak level 100.0 % Extraction speed 4.2 X Track quality 100.0 % Test CRC 084ECA60 Copy CRC 084ECA60 Accurately ripped (confidence 3) [AE8C1F35] (AR v2) Copy OK
Track 11
Filename D:\Flac\Julien Doré - Ersatz (2008) [FLAC]\11 First Lady.wav
Peak level 100.0 % Extraction speed 4.3 X Track quality 100.0 % Test CRC 5005CC2C Copy CRC 5005CC2C Accurately ripped (confidence 3) [920AC2DA] (AR v2) Copy OK
Track 12
Filename D:\Flac\Julien Doré - Ersatz (2008) [FLAC]\12 SS in Uruguay.wav
Peak level 100.0 % Extraction speed 2.9 X Track quality 99.9 % Test CRC 3F7CEC18 Copy CRC 3F7CEC18 Accurately ripped (confidence 3) [5FFFC5F9] (AR v2) Copy OK
Track 13
Filename D:\Flac\Julien Doré - Ersatz (2008) [FLAC]\13 Los Angeles.wav
Peak level 100.0 % Extraction speed 4.1 X Track quality 100.0 % Test CRC 663A7CE8 Copy CRC 663A7CE8 Accurately ripped (confidence 3) [3924846E] (AR v2) Copy OK
Track 14
Filename D:\Flac\Julien Doré - Ersatz (2008) [FLAC]\14 De mots.wav
Pre-gap length 0:00:01.14
Peak level 100.0 % Extraction speed 4.7 X Track quality 100.0 % Test CRC 5E3500FA Copy CRC 5E3500FA Accurately ripped (confidence 3) [154E54FC] (AR v2) Copy OK
All tracks accurately ripped
No errors occurred
End of status report
---- CUETools DB Plugin V2.1.4
[CTDB TOCID: vCsXjogfIBLEf1C80FJ8I7Ja3C0-] foundSubmit result: vCsXjogfIBLEf1C80FJ8I7Ja3C0- has been confirmedTrack | CTDB Status 1 | (24/24) Accurately ripped 2 | (24/24) Accurately ripped 3 | (24/24) Accurately ripped 4 | (24/24) Accurately ripped 5 | (24/24) Accurately ripped 6 | (24/24) Accurately ripped 7 | (24/24) Accurately ripped 8 | (23/24) Accurately ripped 9 | (24/24) Accurately ripped 10 | (24/24) Accurately ripped 11 | (24/24) Accurately ripped 12 | (24/24) Accurately ripped 13 | (24/24) Accurately ripped 14 | (24/24) Accurately ripped
==== Log checksum 9827A668D8F75362BE371F820A7D9890115DA78FE4347E78F42A64282DC73125 ====

Содержание индексной карты (.CUE)

REM DATE 2008REM DISCID BB0CDF0FREM COMMENT "ExactAudioCopy v1.0b3"CATALOG 0088697293642PERFORMER "Julien Dorй"TITLE "Ersatz"FILE "Julien Dorй - Ersatz (2008) [FLAC]\01 Acacia.wav" WAVE TRACK 01 AUDIO TITLE "Acacia" PERFORMER "Julien Dorй" ISRC FRZ050800080 INDEX 01 00:00:00FILE "Julien Dorй - Ersatz (2008) [FLAC]\02 Les bords de mer.wav" WAVE TRACK 02 AUDIO TITLE "Les bords de mer" PERFORMER "Julien Dorй" ISRC FRZ050800075 INDEX 01 00:00:00FILE "Julien Dorй - Ersatz (2008) [FLAC]\03 Les limites.wav" WAVE TRACK 03 AUDIO TITLE "Les limites" PERFORMER "Julien Dorй" ISRC FRZ050800082 INDEX 01 00:00:00 TRACK 04 AUDIO TITLE "Bouche pute" PERFORMER "Julien Dorй" ISRC FRZ050800073 INDEX 00 02:17:56FILE "Julien Dorй - Ersatz (2008) [FLAC]\04 Bouche pute.wav" WAVE INDEX 01 00:00:00FILE "Julien Dorй - Ersatz (2008) [FLAC]\05 Les figures imposйes.wav" WAVE TRACK 05 AUDIO TITLE "Les figures imposйes" PERFORMER "Julien Dorй" ISRC FRZ050800083 INDEX 01 00:00:00FILE "Julien Dorй - Ersatz (2008) [FLAC]\06 Dans tes rкves.wav" WAVE TRACK 06 AUDIO TITLE "Dans tes rкves" PERFORMER "Julien Dorй" ISRC FRZ050800081 INDEX 01 00:00:00 TRACK 07 AUDIO TITLE "Pudding Morphina" PERFORMER "Julien Dorй" ISRC FRZ050800074 INDEX 00 01:45:52FILE "Julien Dorй - Ersatz (2008) [FLAC]\07 Pudding Morphina.wav" WAVE INDEX 01 00:00:00FILE "Julien Dorй - Ersatz (2008) [FLAC]\08 Piano Lys.wav" WAVE TRACK 08 AUDIO TITLE "Piano Lys" PERFORMER "Julien Dorй" ISRC FRZ050800079 INDEX 01 00:00:00FILE "Julien Dorй - Ersatz (2008) [FLAC]\09 Soirйes parisiennes.wav" WAVE TRACK 09 AUDIO TITLE "Soirйes parisiennes" PERFORMER "Julien Dorй" ISRC FRZ050800077 INDEX 01 00:00:00 TRACK 10 AUDIO TITLE "J'aime pas" PERFORMER "Julien Dorй" ISRC FRZ050800076 INDEX 00 03:06:58FILE "Julien Dorй - Ersatz (2008) [FLAC]\10 J'aime pas.wav" WAVE INDEX 01 00:00:00FILE "Julien Dorй - Ersatz (2008) [FLAC]\11 First Lady.wav" WAVE TRACK 11 AUDIO TITLE "First Lady" PERFORMER "Julien Dorй" ISRC FRZ050800078 INDEX 01 00:00:00FILE "Julien Dorй - Ersatz (2008) [FLAC]\12 SS in Uruguay.wav" WAVE TRACK 12 AUDIO TITLE "SS in Uruguay" PERFORMER "Julien Dorй" ISRC FRZ050800084 INDEX 01 00:00:00FILE "Julien Dorй - Ersatz (2008) [FLAC]\13 Los Angeles.wav" WAVE TRACK 13 AUDIO TITLE "Los Angeles" PERFORMER "Julien Dorй" ISRC FRZ050800072 INDEX 01 00:00:00 TRACK 14 AUDIO TITLE "De mots" PERFORMER "Julien Dorй" ISRC FRZ080800517 INDEX 00 02:23:42FILE "Julien Dorй - Ersatz (2008) [FLAC]\14 De mots.wav" WAVE INDEX 01 00:00:00 TRACK 15 MODEx/2xxx TITLE "[data track]" PERFORMER "Julien Dorй" INDEX 00 04:02:48

Скриншот спектра частот

Об исполнителе (группе)

Жюльен Доре – один из героев нового времени во французской песне. Широкая известность пришла к нему после победы в музыкальном телеконкурсе «Новая звезда» в 2007 году. Год спустя молодой певец, автор и композитор выпустил первый альбом с названием «Эрзац». Ироничный и парадоксальный, Жюльен Доре остается для многих загадкой, «НЛО», по выражению одного из критиков.
В пятом сезоне программы «Новая звезда» Жюльен Доре стал любимцем публики и жюри, которые неизменно головали за него на всех этапах телеконкурса. Певца отличает весьма оригинальная манера интерпретации: Жюльен Доре не только представляет свою музыкальную аранжировку, но иногда изменяет слова известных песен. Больше всего зрителям запомнилась его интерпретация песни «Я Лолита», которая была хитом во Франции в 2000 году, в исполнении Ализе. Песня «Я Лолита» в исполнении Жюльена Доре была в каком-то смысле провокацией, игрой, актерством, переодеванием и переворачиванием всего с ног на голову. Лолита, поющая мужским голосом, игра с собственным имиджем красивого юноши… Игра и насмешка, самоирония – характерные черты Жюльена Доре. Когда журналисты пытаются назвать его «звездой», он с иронией отвечает: нет, я… певица, трубадур, шут, паяц…
Дебютный альбом «Эрзац» Жюльена Доре стал в 2008 году одним из популярнейших музыкальных дисков во Франции. На главном музыкальном конкурсе Victoires de la Musique - «Музыкальные победы» - Жюльен Доре стал победителем в номинации «Альбом-открытие года». В отличие от многих коллег по сцене Жюльен Доре выступает не под псевдонимом, а под своим собственным именем. Именем славным и даже легендарным. Жюльен Доре является потомком – праправнучатым племянником – одного из величайших иллюстраторов и художников-графиков XIX века Гюстава Доре. За свою пока недолгую сценическую карьеру Жюльен Доре привлек к себе не только внимание многочисленных поклонников, но и старших товарищей по музыкальному цеху. Классик французского шансона Сальваторе Адамо пригласил молодого певца для записи одной из песен своего недавнего альбома.
Песня с названием «Границы» получила в 2009 главную премию конкурса Музыкальные победы в номинации лучший музыкальный клип года.
«Я переступаю границы – легко и просто, вызывая раздражение у благоразумных людей. Я выхожу за пределы и готов за это платить». Жюльен Доре (2008)

To download the file disable ad blocking, and reload the page.

disable adblock How to disable ad blocking?

Download by magnet link 291 MB Download Torrent

Login using:

Similar topics

(french chanson) Julien Dore - Bichon - 2011, FLAC (image+.cue), lossless
 275 MB   0 | 0   01-May-17 00:45   1
(french chanson) Julien Dore - Ersatz - 2008, MP3, 320 kbps
 108 MB   0 | 0   30-Apr-17 20:03   1
(french chanson, french pop) Julien Dore - Love - 2013, MP3, 320 kbps
 143 MB   0 | 0   30-Apr-17 20:01   1


   
Current time is: 15-Nov 22:19 :: All times are UTC + 3