Edith Piaf – Adieu Mon Cœur (Box Set, 10 CDs)

Жанр: Chanson
Год издания: 2006
Издатель (лейбл): Documents/Membran Music
Номер по каталогу: 223493 321
Страна: France
Аудиокодек: FLAC (*.flac)
Тип рипа: image+.cue
Битрейт аудио: lossless
Продолжительность: 6:55:25
Источник (релизер): TheWarrior
Наличие сканов в содержимом раздачи: да 
 
 

CD 01 - Bal dans ma rue

Продолжительность: 46:35
Треклист:
01. A l'enseigne de la fille sans coeur (3:30)
02. Bal dans ma rue (3:02)
03. C'etait une histoire d'amour (4:29)
04. Dans ma rue (5:39)
05. J'suis mordue (3:06)
06. Marie la francaise (4:01)
07. Jezebel (3:12)
08. La fete continue (3:10)
09. Le chevalier de Paris (3:08)
10. Les deux copains (2:55)
11. On danse sur ma chanson (4:11)
12. Madeleine qu'avait du coeur (3:23)
13. Pleure pas (2:50)
 

Лог создания рипа

Exact Audio Copy V0.99 prebeta 5 from 4. May 2009
EAC extraction logfile from 8. December 2011, 11:56
Edith Piaf / Bal dans ma rue (Cd 1)
Used drive : ATAPI DVD A DH20A4P Adapter: 1 ID: 0
Read mode : SecureUtilize accurate stream : YesDefeat audio cache : YesMake use of C2 pointers : No
Read offset correction : 6Overread into Lead-In and Lead-Out : NoFill up missing offset samples with silence : YesDelete leading and trailing silent blocks : NoNull samples used in CRC calculations : YesUsed interface : Installed external ASPI interface
Used output format : Internal WAV RoutinesSample format : 44.100 Hz; 16 Bit; Stereo
TOC of the extracted CD
Track | Start | Length | Start sector | End sector --------------------------------------------------------- 1 | 0:00.00 | 3:30.18 | 0 | 15767 2 | 3:30.18 | 3:01.42 | 15768 | 29384 3 | 6:31.60 | 4:28.40 | 29385 | 49524 4 | 11:00.25 | 5:38.69 | 49525 | 74943 5 | 16:39.19 | 3:06.31 | 74944 | 88924 6 | 19:45.50 | 4:00.56 | 88925 | 106980 7 | 23:46.31 | 3:11.44 | 106981 | 121349 8 | 26:58.00 | 3:09.59 | 121350 | 135583 9 | 30:07.59 | 3:07.42 | 135584 | 149650 10 | 33:15.26 | 2:54.54 | 149651 | 162754 11 | 36:10.05 | 4:11.27 | 162755 | 181606 12 | 40:21.32 | 3:23.28 | 181607 | 196859 13 | 43:44.60 | 2:49.70 | 196860 | 209604
Range status and errors
Selected range
Filename C:\Documents and Settings\marнa\Escritorio\grabaciones\Edit Pia box\Edith Piaf - Bal dans ma rue (Cd 1)\Edith Piaf - Bal dans ma rue (Cd 1).wav
Peak level 100.0 % Range quality 100.0 % Test CRC 988F5721 Copy CRC 988F5721 Copy OK
No errors occurred
End of status report

CD 02 - Reste

Продолжительность: 40:19
Треклист:
01. Reste (3:05)
02. Va danser (3:26)
03. Y'en a un de trop (2:49)
04. Soeur Anne (3:58)
05. Tout fout le camp (2:20)
06. Regarde moi toujours comme ca (3:46)
07. Paris Mediterranee (3:08)
08. Mon legionnaire (3:51)
09. Les gars qui marchaient (3:09)
10. Le petit homme (3:35)
11. Le disque use (4:06)
12. Le brun et le blond (3:06)
 

Лог создания рипа

Exact Audio Copy V0.99 prebeta 5 from 4. May 2009
EAC extraction logfile from 8. December 2011, 12:33
Edith Piaf / Reste (Cd 2)
Used drive : ATAPI DVD A DH20A4P Adapter: 1 ID: 0
Read mode : SecureUtilize accurate stream : YesDefeat audio cache : YesMake use of C2 pointers : No
Read offset correction : 6Overread into Lead-In and Lead-Out : NoFill up missing offset samples with silence : YesDelete leading and trailing silent blocks : NoNull samples used in CRC calculations : YesUsed interface : Installed external ASPI interface
Used output format : Internal WAV RoutinesSample format : 44.100 Hz; 16 Bit; Stereo
TOC of the extracted CD
Track | Start | Length | Start sector | End sector --------------------------------------------------------- 1 | 0:00.00 | 3:04.71 | 0 | 13870 2 | 3:04.71 | 3:25.53 | 13871 | 29298 3 | 6:30.49 | 2:49.15 | 29299 | 41988 4 | 9:19.64 | 3:58.24 | 41989 | 59862 5 | 13:18.13 | 2:19.46 | 59863 | 70333 6 | 15:37.59 | 3:46.10 | 70334 | 87293 7 | 19:23.69 | 3:08.14 | 87294 | 101407 8 | 22:32.08 | 3:50.53 | 101408 | 118710 9 | 26:22.61 | 3:08.57 | 118711 | 132867 10 | 29:31.43 | 3:35.23 | 132868 | 149015 11 | 33:06.66 | 4:05.54 | 149016 | 167444 12 | 37:12.45 | 3:06.12 | 167445 | 181406
Range status and errors
Selected range
Filename C:\Documents and Settings\marнa\Escritorio\grabaciones\Edit Pia box\Edith Piaf - Reste (Cd 2)\Edith Piaf - Reste (Cd 2).wav
Peak level 100.0 % Range quality 99.9 % Test CRC 9CC03427 Copy CRC 9CC03427 Copy OK
No errors occurred
End of status report

CD 03 - La valse de l'amour

Продолжительность: 39:52
Треклист:
01. La valse de l'amour (2:25)
02. L'effet que tu me fais (3:19)
03. Il n'est pas distingue (3:03)
04. Escale (3:03)
05. C'etait un jour de fete (3:58)
06. Avec ce soleil (2:27)
07. Ca ira (2:26)
08. C'est toi le plus fort (2:36)
09. Adieu mon coeur (3:10)
10. C'est lui que mon coeur a choisi (3:27)
11. Ding-Ding Don (3:36)
12. C'est a Hambourg (3:08)
13. Y avait du soleil (3:16)
 

Лог создания рипа

Exact Audio Copy V0.99 prebeta 5 from 4. May 2009
EAC extraction logfile from 8. December 2011, 13:04
Edith Piaf / La vaise de l'amour (Cd 3)
Used drive : ATAPI DVD A DH20A4P Adapter: 1 ID: 0
Read mode : SecureUtilize accurate stream : YesDefeat audio cache : YesMake use of C2 pointers : No
Read offset correction : 6Overread into Lead-In and Lead-Out : NoFill up missing offset samples with silence : YesDelete leading and trailing silent blocks : NoNull samples used in CRC calculations : YesUsed interface : Installed external ASPI interface
Used output format : Internal WAV RoutinesSample format : 44.100 Hz; 16 Bit; Stereo
TOC of the extracted CD
Track | Start | Length | Start sector | End sector --------------------------------------------------------- 1 | 0:00.00 | 2:24.71 | 0 | 10870 2 | 2:24.71 | 3:18.60 | 10871 | 25780 3 | 5:43.56 | 3:02.39 | 25781 | 39469 4 | 8:46.20 | 3:02.45 | 39470 | 53164 5 | 11:48.65 | 3:57.48 | 53165 | 70987 6 | 15:46.38 | 2:27.04 | 70988 | 82016 7 | 18:13.42 | 2:26.03 | 82017 | 92969 8 | 20:39.45 | 2:36.03 | 92970 | 104672 9 | 23:15.48 | 3:10.00 | 104673 | 118922 10 | 26:25.48 | 3:26.54 | 118923 | 134426 11 | 29:52.27 | 3:35.65 | 134427 | 150616 12 | 33:28.17 | 3:07.70 | 150617 | 164711 13 | 36:36.12 | 3:16.04 | 164712 | 179415
Range status and errors
Selected range
Filename C:\Documents and Settings\marнa\Escritorio\grabaciones\Edit Pia box\Edith Piaf - La vaise de l'amour (Cd 3)\Edith Piaf - La vaise de l'amour (Cd 3).wav
Peak level 100.0 % Range quality 99.9 % Test CRC 18487454 Copy CRC 18487454 Copy OK
No errors occurred
End of status report

CD 04 - Elle frequentait la Rue Pigalle

Продолжительность: 41:46
Треклист:
01. Elle frequentait la Rue Pigalle (3:36)
02. Heureuse (3:27)
03. Legende (3:36)
04. Johnny tu n'es pas en ange (2:14)
05. La java de Cezigue (3:09)
06. La vie en rose (3:27)
07. Le geste (3:34)
08. Le vagabond (3:24)
09. Les momes de la cloche (3:20)
10. Les cloches sonnent (2:57)
11. Le chante du Pirate, du film «Etoile sans lumiere» (2:12)
12. L'accordeoniste (3:10)
13. Serenade du pave (3:40)
 

Лог создания рипа

Exact Audio Copy V0.99 prebeta 5 from 4. May 2009
EAC extraction logfile from 8. December 2011, 13:59
Edith Piaf / Elle frequentait la Rue Pigalle (Cd 4)
Used drive : ATAPI DVD A DH20A4P Adapter: 1 ID: 0
Read mode : SecureUtilize accurate stream : YesDefeat audio cache : YesMake use of C2 pointers : No
Read offset correction : 6Overread into Lead-In and Lead-Out : NoFill up missing offset samples with silence : YesDelete leading and trailing silent blocks : NoNull samples used in CRC calculations : YesUsed interface : Installed external ASPI interface
Used output format : Internal WAV RoutinesSample format : 44.100 Hz; 16 Bit; Stereo
TOC of the extracted CD
Track | Start | Length | Start sector | End sector --------------------------------------------------------- 1 | 0:00.00 | 3:35.57 | 0 | 16181 2 | 3:35.57 | 3:26.55 | 16182 | 31686 3 | 7:02.37 | 3:35.47 | 31687 | 47858 4 | 10:38.09 | 2:13.70 | 47859 | 57903 5 | 12:52.04 | 3:08.49 | 57904 | 72052 6 | 16:00.53 | 3:27.36 | 72053 | 87613 7 | 19:28.14 | 3:33.51 | 87614 | 103639 8 | 23:01.65 | 3:24.00 | 103640 | 118939 9 | 26:25.65 | 3:20.32 | 118940 | 133971 10 | 29:46.22 | 2:57.28 | 133972 | 147274 11 | 32:43.50 | 2:11.42 | 147275 | 157141 12 | 34:55.17 | 3:10.36 | 157142 | 171427 13 | 38:05.53 | 3:40.36 | 171428 | 187963
Range status and errors
Selected range
Filename C:\Documents and Settings\marнa\Escritorio\grabaciones\Edit Pia box\Edith Piaf - Elle frequentait la Rue Pigalle (Cd 4)\Edith Piaf - Elle frequentait la Rue Pigalle (Cd 4).wav
Peak level 100.0 % Range quality 100.0 % Test CRC 1A3DA69E Copy CRC 1A3DA69E Copy OK
No errors occurred
End of status report

CD 05 - J'ai danse avec l'amour

Продолжительность: 42:17
Треклист:
01. J'ai danse avec l'amour (3:21)
02. Embrasse-moi (2:55)
03. Correqu'et reguyer (3:20)
04. C'est d'la faute a tes yeux (3:24)
05. C'est merveilleux, du film «Etoile sans lumiere» (3:05)
06. Bravo pour le clown (3:08)
07. Ca gueule ca Madame (3:30)
08. C'est toujours la meme histoire (4:16)
09. Coup de Grisou (4:23)
10. Dans un bouge du vieux port (3:10)
11. Il fait bon t'aimer (3:25)
12. J'm'en fous pas mal (4:20)
 

Лог создания рипа

Exact Audio Copy V0.99 prebeta 5 from 4. May 2009
EAC extraction logfile from 8. December 2011, 15:09
Edith Piaf / J'ai danse avec l'amour (Cd 5)
Used drive : ATAPI DVD A DH20A4P Adapter: 1 ID: 0
Read mode : SecureUtilize accurate stream : YesDefeat audio cache : YesMake use of C2 pointers : No
Read offset correction : 6Overread into Lead-In and Lead-Out : NoFill up missing offset samples with silence : YesDelete leading and trailing silent blocks : NoNull samples used in CRC calculations : YesUsed interface : Installed external ASPI interface
Used output format : Internal WAV RoutinesSample format : 44.100 Hz; 16 Bit; Stereo
TOC of the extracted CD
Track | Start | Length | Start sector | End sector --------------------------------------------------------- 1 | 0:00.00 | 3:20.61 | 0 | 15060 2 | 3:20.61 | 2:55.29 | 15061 | 28214 3 | 6:16.15 | 3:19.47 | 28215 | 43186 4 | 9:35.62 | 3:23.45 | 43187 | 58456 5 | 12:59.32 | 3:05.12 | 58457 | 72343 6 | 16:04.44 | 3:08.05 | 72344 | 86448 7 | 19:12.49 | 3:30.09 | 86449 | 102207 8 | 22:42.58 | 4:15.60 | 102208 | 121392 9 | 26:58.43 | 4:22.51 | 121393 | 141093 10 | 31:21.19 | 3:10.24 | 141094 | 155367 11 | 34:31.43 | 3:25.11 | 155368 | 170753 12 | 37:56.54 | 4:20.10 | 170754 | 190263
Range status and errors
Selected range
Filename C:\Documents and Settings\marнa\Escritorio\grabaciones\Edit Pia box\Edith Piaf - J'ai danse avec l'amour (Cd 5)\Edith Piaf - J'ai danse avec l'amour (Cd 5).wav
Peak level 100.0 % Range quality 100.0 % Test CRC 042C535C Copy CRC 042C535C Copy OK
No errors occurred
End of status report

CD 06 - La vie en rose

Продолжительность: 40:25
Треклист:
01. La vie en rose (3:10)
02. Le contrebandier (2:53)
03. Le prisonnier de la tour (3:18)
04. L'homme au piano (2:08)
05. L'etranger (3:38)
06. Mon amant de la coloniale (3:13)
07. Notre Dame de Paris (3:08)
08. Partance (2:43)
09. Quand meme, du film «La Garconne» (3:19)
10. Un grand amour qui s'acheve (3:45)
11. Un refrain courrait dans la rue (3:05)
12. Y a pas de printemps (2:43)
13. Sous le ciel de Paris (3:23)
 

Лог создания рипа

Exact Audio Copy V0.99 prebeta 5 from 4. May 2009
EAC extraction logfile from 8. December 2011, 15:40
Edith Piaf / la Vie En Rose (Cd 6)
Used drive : ATAPI DVD A DH20A4P Adapter: 1 ID: 0
Read mode : SecureUtilize accurate stream : YesDefeat audio cache : YesMake use of C2 pointers : No
Read offset correction : 6Overread into Lead-In and Lead-Out : NoFill up missing offset samples with silence : YesDelete leading and trailing silent blocks : NoNull samples used in CRC calculations : YesUsed interface : Installed external ASPI interface
Used output format : Internal WAV RoutinesSample format : 44.100 Hz; 16 Bit; Stereo
TOC of the extracted CD
Track | Start | Length | Start sector | End sector --------------------------------------------------------- 1 | 0:00.00 | 3:10.09 | 0 | 14258 2 | 3:10.09 | 2:53.05 | 14259 | 27238 3 | 6:03.14 | 3:17.45 | 27239 | 42058 4 | 9:20.59 | 2:07.47 | 42059 | 51630 5 | 11:28.31 | 3:37.66 | 51631 | 67971 6 | 15:06.22 | 3:13.05 | 67972 | 82451 7 | 18:19.27 | 3:07.66 | 82452 | 96542 8 | 21:27.18 | 2:42.69 | 96543 | 108761 9 | 24:10.12 | 3:18.66 | 108762 | 123677 10 | 27:29.03 | 3:44.49 | 123678 | 140526 11 | 31:13.52 | 3:05.11 | 140527 | 154412 12 | 34:18.63 | 2:43.30 | 154413 | 166667 13 | 37:02.18 | 3:22.60 | 166668 | 181877
Range status and errors
Selected range
Filename C:\Documents and Settings\marнa\Escritorio\grabaciones\Edit Pia box\Edith Piaf - la Vie En Rose (Cd 6)\Edith Piaf - la Vie En Rose (Cd 6).wav
Peak level 100.0 % Range quality 100.0 % Test CRC 2697FE48 Copy CRC 2697FE48 Copy OK
No errors occurred
End of status report

CD 07 - Tu es partout

Продолжительность: 39:46
Треклист:
01. Tu es partout (2:52)
02. N'y vas pas manuel (3:12)
03. Qu'as tu fait John? (2:22)
04. Padam padam (3:22)
05. Monsieur Saint Pierre (4:27)
06. Mon apero (3:46)
07. Les amants d'un jour (3:22)
08. Les deux rengaines (3:25)
09. Les amants de Paris (3:15)
10. Le grand voyage du pauvre negre (3:49)
11. La Julie jolie (3:07)
12. Je t'ai dans la peau (2:47)
 

Лог создания рипа

Exact Audio Copy V0.99 prebeta 5 from 4. May 2009
EAC extraction logfile from 8. December 2011, 17:29
Edith Piaf / Tu Es Partout (Cd 7)
Used drive : ATAPI DVD A DH20A4P Adapter: 1 ID: 0
Read mode : SecureUtilize accurate stream : YesDefeat audio cache : YesMake use of C2 pointers : No
Read offset correction : 6Overread into Lead-In and Lead-Out : NoFill up missing offset samples with silence : YesDelete leading and trailing silent blocks : NoNull samples used in CRC calculations : YesUsed interface : Installed external ASPI interface
Used output format : Internal WAV RoutinesSample format : 44.100 Hz; 16 Bit; Stereo
TOC of the extracted CD
Track | Start | Length | Start sector | End sector --------------------------------------------------------- 1 | 0:00.00 | 2:52.36 | 0 | 12935 2 | 2:52.36 | 3:12.33 | 12936 | 27368 3 | 6:04.69 | 2:21.72 | 27369 | 38015 4 | 8:26.66 | 3:22.08 | 38016 | 53173 5 | 11:48.74 | 4:26.64 | 53174 | 73187 6 | 16:15.63 | 3:45.41 | 73188 | 90103 7 | 20:01.29 | 3:21.56 | 90104 | 105234 8 | 23:23.10 | 3:24.68 | 105235 | 120602 9 | 26:48.03 | 3:14.60 | 120603 | 135212 10 | 30:02.63 | 3:48.67 | 135213 | 152379 11 | 33:51.55 | 3:06.58 | 152380 | 166387 12 | 36:58.38 | 2:47.00 | 166388 | 178912
Range status and errors
Selected range
Filename C:\Documents and Settings\marнa\Escritorio\grabaciones\Edit Pia box\Edith Piaf - Tu Es Partout (Cd 7)\Edith Piaf - Tu Es Partout (Cd 7).wav
Peak level 100.0 % Range quality 100.0 % Test CRC 6F2FC539 Copy CRC 6F2FC539 Copy OK
No errors occurred
End of status report

CD 08 - Il y avait

Продолжительность: 42:27
Треклист:
01. Il y avait (3:14)
02. Entre Saint Quen et Clignancourt (3:10)
03. Dans les prisons de Nantes (2:34)
04. Celine (3:16)
05. Browning (3:33)
06. De l'autre cote de la rue (3:21)
07. Fais-moi valser (3:28)
08. La fille et le chien (3:37)
09. Et pourtant (3:04)
10. C'est la moindre des choses (2:50)
11. C'est un monsieur tres distingue (3:40)
12. Je n'en connais pas la fin (3:17)
13. Pour moi toute seule (3:20)
 

Лог создания рипа

Exact Audio Copy V0.99 prebeta 5 from 4. May 2009
EAC extraction logfile from 8. December 2011, 18:54
Edith Piaf / Il Y Avait (Cd 8)
Used drive : ATAPI DVD A DH20A4P Adapter: 1 ID: 0
Read mode : SecureUtilize accurate stream : YesDefeat audio cache : YesMake use of C2 pointers : No
Read offset correction : 6Overread into Lead-In and Lead-Out : NoFill up missing offset samples with silence : YesDelete leading and trailing silent blocks : NoNull samples used in CRC calculations : YesUsed interface : Installed external ASPI interface
Used output format : Internal WAV RoutinesSample format : 44.100 Hz; 16 Bit; Stereo
TOC of the extracted CD
Track | Start | Length | Start sector | End sector --------------------------------------------------------- 1 | 0:00.00 | 3:14.00 | 0 | 14549 2 | 3:14.00 | 3:09.45 | 14550 | 28769 3 | 6:23.45 | 2:33.57 | 28770 | 40301 4 | 8:57.27 | 3:16.16 | 40302 | 55017 5 | 12:13.43 | 3:33.33 | 55018 | 71025 6 | 15:47.01 | 3:21.21 | 71026 | 86121 7 | 19:08.22 | 3:28.33 | 86122 | 101754 8 | 22:36.55 | 3:37.01 | 101755 | 118030 9 | 26:13.56 | 3:04.21 | 118031 | 131851 10 | 29:18.02 | 2:50.16 | 131852 | 144617 11 | 32:08.18 | 3:40.36 | 144618 | 161153 12 | 35:48.54 | 3:17.31 | 161154 | 175959 13 | 39:06.10 | 3:20.33 | 175960 | 190992
Range status and errors
Selected range
Filename C:\Documents and Settings\marнa\Escritorio\grabaciones\Edit Pia box\Edith Piaf - Il Y Avait (Cd 8)\Edith Piaf - Il Y Avait (Cd 8).wav
Peak level 100.0 % Range quality 99.9 % Test CRC 1F475B7E Copy CRC 1F475B7E Copy OK
No errors occurred
End of status report

CD 09 - La petit boutique

Продолжительность: 39:34
Треклист:
01. La petit boutique (3:21)
02. Les chemins des forains (3:15)
03. L'homme а la moto (2:09)
04. Les croix (3:36)
05. Les marains ca fait des voyages (3:42)
06. Mariage (4:31)
07. Ne m'ecris pas (3:28)
08. Plus bleu que tes yeux (3:16)
09. Simple comme bonjour (2:51)
10. Valse sans joie (3:00)
11. Un jeune homme chantait (2:56)
12. Si tu partais (3:29)
 

Лог создания рипа

Exact Audio Copy V0.99 prebeta 5 from 4. May 2009
EAC extraction logfile from 9. December 2011, 9:49
Edith Piaf / la petit boutique (Cd 9)
Used drive : ATAPI DVD A DH20A4P Adapter: 1 ID: 0
Read mode : SecureUtilize accurate stream : YesDefeat audio cache : YesMake use of C2 pointers : No
Read offset correction : 6Overread into Lead-In and Lead-Out : NoFill up missing offset samples with silence : YesDelete leading and trailing silent blocks : NoNull samples used in CRC calculations : YesUsed interface : Installed external ASPI interface
Used output format : Internal WAV RoutinesSample format : 44.100 Hz; 16 Bit; Stereo
TOC of the extracted CD
Track | Start | Length | Start sector | End sector --------------------------------------------------------- 1 | 0:00.00 | 3:20.41 | 0 | 15040 2 | 3:20.41 | 3:14.56 | 15041 | 29646 3 | 6:35.22 | 2:09.26 | 29647 | 39347 4 | 8:44.48 | 3:35.72 | 39348 | 55544 5 | 12:20.45 | 3:41.73 | 55545 | 72192 6 | 16:02.43 | 4:30.39 | 72193 | 92481 7 | 20:33.07 | 3:28.06 | 92482 | 108087 8 | 24:01.13 | 3:16.27 | 108088 | 122814 9 | 27:17.40 | 2:51.00 | 122815 | 135639 10 | 30:08.40 | 3:00.28 | 135640 | 149167 11 | 33:08.68 | 2:56.35 | 149168 | 162402 12 | 36:05.28 | 3:28.41 | 162403 | 178043
Range status and errors
Selected range
Filename C:\Documents and Settings\marнa\Escritorio\grabaciones\Edit Pia box\Edith Piaf - la petit boutique (Cd 9)\Edith Piaf - la petit boutique (Cd 9).wav
Peak level 100.0 % Range quality 99.9 % Test CRC 388FA9DE Copy CRC 388FA9DE Copy OK
No errors occurred
End of status report

CD 10 - Ou sont-ils mes petits copains

Продолжительность: 42:25
Треклист:
01. Ou sont-ils mes petits copains (3:32)
02. Mea culpa (3:12)
03. L'hymne a l'amour (3:32)
04. Les deux menestriers (2:25)
05. Le roi fait battre le tambour (2:43)
06. Le fanion de la legion (3:28)
07. La goualante du pauvre Jean (2:05)
08. Je hais les dimanches (3:30)
09. Celui qui ne savait pas pleurer (3:45)
10. Le chasseur de l'hotel (3:44)
11. Le petit monsieur triste (2:51)
12. Les trois cloches (4:11)
13. Monsieur le noble (3:27)
 

Лог создания рипа

Exact Audio Copy V0.99 prebeta 5 from 4. May 2009
EAC extraction logfile from 9. December 2011, 10:26
Edith Piaf / Ou Sont-Ils Mes Petits Copains (Cd 10)
Used drive : ATAPI DVD A DH20A4P Adapter: 1 ID: 0
Read mode : SecureUtilize accurate stream : YesDefeat audio cache : YesMake use of C2 pointers : No
Read offset correction : 6Overread into Lead-In and Lead-Out : NoFill up missing offset samples with silence : YesDelete leading and trailing silent blocks : NoNull samples used in CRC calculations : YesUsed interface : Installed external ASPI interface
Used output format : Internal WAV RoutinesSample format : 44.100 Hz; 16 Bit; Stereo
TOC of the extracted CD
Track | Start | Length | Start sector | End sector --------------------------------------------------------- 1 | 0:00.00 | 3:31.64 | 0 | 15888 2 | 3:31.64 | 3:11.55 | 15889 | 30268 3 | 6:43.44 | 3:31.66 | 30269 | 46159 4 | 10:15.35 | 2:25.10 | 46160 | 57044 5 | 12:40.45 | 2:43.14 | 57045 | 69283 6 | 15:23.59 | 3:28.19 | 69284 | 84902 7 | 18:52.03 | 2:05.16 | 84903 | 94293 8 | 20:57.19 | 3:30.22 | 94294 | 110065 9 | 24:27.41 | 3:45.00 | 110066 | 126940 10 | 28:12.41 | 3:44.10 | 126941 | 143750 11 | 31:56.51 | 2:50.58 | 143751 | 156558 12 | 34:47.34 | 4:10.59 | 156559 | 175367 13 | 38:58.18 | 3:26.58 | 175368 | 190875
Range status and errors
Selected range
Filename C:\Documents and Settings\marнa\Escritorio\grabaciones\Edit Pia box\Edith Piaf - Ou Sont-Ils Mes Petits Copains (Cd 10)\Edith Piaf - Ou Sont-Ils Mes Petits Copains (Cd 10).wav
Peak level 100.0 % Range quality 100.0 % Test CRC 11655C40 Copy CRC 11655C40 Copy OK
No errors occurred
End of status report

Для скачивания файла отключите блокировку рекламы и перезагрузите страницу.

disable adblock Как отключить блокировку рекламы?

Скачать по магнет ссылке 1,57 GB 

Войти с помощью:

Загрузка...
Загрузка...


   
Текущее время: 21-Июн 10:32 :: Часовой пояс: UTC ± 0