Les Stentors / Une Histoire de France
Жанр: Variété française / Pop
Страна-производитель диска: France
Год издания: 2013
Издатель (лейбл): Universal France
Страна: France
Аудиокодек: FLAC (*.flac)
Тип рипа: tracks
Битрейт аудио: lossless
Продолжительность: 40:02
Источник (релизер): WEB
Наличие сканов в содержимом раздачи: нет
Треклист:
01 Le Chant des Partisans
02 Mon amant de Saint Jean
03 L'hymne à l'amour
04 Les feuilles mortes
05 Domino
06 Le déserteur
07 Les roses blanches
08 La mer
09 Lili Marlène
10 Parlez-moi d'amour
11 J'attendrai
12 Le temps des cerises

Лог создания рипа

Exact Audio Copy V1.0 beta 2 from 29. April 2011
Journal d'extraction EAC depuis 21. Mai 2013, 14:12
Les Stentors / Une histoire de France
Lecteur utilisé : TSSTcorpDVD-ROM TS-H353C Adapter: 0 ID: 1
Mode lecture : SécuriséUtiliser un flux précis : OuiDefeat audio cache : NonUtiliser les pointeurs C2 : Non
Offset de Correction de lecture : 6Lecture étendue en lead-in et lead-out : NonRemplacer les samples manquants par du silence : OuiEffacer les blocs silencieux situés en début et fin : NonEchantillons nuls utilisés dans le calcul du CRC : NonInterface utilisée : Interface native Win32 pour Win NT & 2000Gestion de Gap : Pas détecté, c'est ajouté à la piste précédente
Format de sortie utilisé : Encodeur défini par l'utilisateurDébit choisi : 896 kBit/sQualité : HautAjouter tag ID3 : OuiCompresseur en ligne de commande : C:\Program Files (x86)\Exact Audio Copy\FLAC\FLAC.EXEOptions de commande additionnelle : : -6 -V -T "ARTIST=%artist%" -T "TITLE=%title%" -T "ALBUM=%albumtitle%" -T "DATE=%year%" -T "TRACKNUMBER=%tracknr%" -T "GENRE=%genre%" -T "COMMENT=%comment%" -T "BAND=%albuminterpret%" -T "COMPOSER=%composer%" %haslyrics
TOC du CD extrait
Piste | Début | Longueur | Secteur de début | Secteur de fin ----------------------------------------------------------------- 1 | 0:00.00 | 2:51.68 | 0 | 12892 2 | 2:51.68 | 2:54.30 | 12893 | 25972 3 | 5:46.23 | 3:37.07 | 25973 | 42254 4 | 9:23.30 | 3:27.73 | 42255 | 57852 5 | 12:51.28 | 3:20.38 | 57853 | 72890 6 | 16:11.66 | 3:00.36 | 72891 | 86426 7 | 19:12.27 | 4:21.23 | 86427 | 106024 8 | 23:33.50 | 3:12.20 | 106025 | 120444 9 | 26:45.70 | 3:37.21 | 120445 | 136740 10 | 30:23.16 | 2:58.64 | 136741 | 150154 11 | 33:22.05 | 3:23.33 | 150155 | 165412 12 | 36:45.38 | 3:17.12 | 165413 | 180199
Piste 1
Nom fichier E:\EXPORT\01 Piste01.wav
Niveau max 98.8 % Vitesse d'extraction 6.5 X Qualité Piste 100.0 % Copie CRC F3EAA1EE Piste absente de la base de données AccurateRip Copie Ok
Piste 2
Nom fichier E:\EXPORT\02 Piste02.wav
Niveau max 98.8 % Vitesse d'extraction 8.8 X Qualité Piste 100.0 % Copie CRC 58D3E102 Piste absente de la base de données AccurateRip Copie Ok
Piste 3
Nom fichier E:\EXPORT\03 Piste03.wav
Niveau max 98.8 % Vitesse d'extraction 9.2 X Qualité Piste 99.9 % Copie CRC A98B0019 Piste absente de la base de données AccurateRip Copie Ok
Piste 4
Nom fichier E:\EXPORT\04 Piste04.wav
Niveau max 99.4 % Vitesse d'extraction 9.9 X Qualité Piste 100.0 % Copie CRC DCF888F8 Piste absente de la base de données AccurateRip Copie Ok
Piste 5
Nom fichier E:\EXPORT\05 Piste05.wav
Niveau max 98.8 % Vitesse d'extraction 10.2 X Qualité Piste 99.9 % Copie CRC 4D28C909 Piste absente de la base de données AccurateRip Copie Ok
Piste 6
Nom fichier E:\EXPORT\06 Piste06.wav
Niveau max 98.8 % Vitesse d'extraction 10.8 X Qualité Piste 100.0 % Copie CRC 88FB41CF Piste absente de la base de données AccurateRip Copie Ok
Piste 7
Nom fichier E:\EXPORT\07 Piste07.wav
Niveau max 98.8 % Vitesse d'extraction 11.5 X Qualité Piste 100.0 % Copie CRC 9B3E33C9 Piste absente de la base de données AccurateRip Copie Ok
Piste 8
Nom fichier E:\EXPORT\08 Piste08.wav
Niveau max 98.8 % Vitesse d'extraction 11.9 X Qualité Piste 100.0 % Copie CRC F36604B7 Piste absente de la base de données AccurateRip Copie Ok
Piste 9
Nom fichier E:\EXPORT\09 Piste09.wav
Niveau max 98.8 % Vitesse d'extraction 12.4 X Qualité Piste 100.0 % Copie CRC 88EC24D3 Piste absente de la base de données AccurateRip Copie Ok
Piste 10
Nom fichier E:\EXPORT\10 Piste10.wav
Niveau max 98.8 % Vitesse d'extraction 12.6 X Qualité Piste 100.0 % Copie CRC 786AE8D0 Piste absente de la base de données AccurateRip Copie Ok
Piste 11
Nom fichier E:\EXPORT\11 Piste11.wav
Niveau max 98.8 % Vitesse d'extraction 12.6 X Qualité Piste 100.0 % Copie CRC 395EC2BD Piste absente de la base de données AccurateRip Copie Ok
Piste 12
Nom fichier E:\EXPORT\12 Piste12.wav
Niveau max 98.8 % Vitesse d'extraction 12.8 X Qualité Piste 100.0 % Copie CRC 7F3A0E2F Piste absente de la base de données AccurateRip Copie Ok
Toutes les pistes sont absentes de la base de données AccurateRip
Pas d'erreur apparue
Fin du rapport d'état

Лог проверки качества

AUDIOCHECKER v2.0 beta (build 457) - by Dester - opdester@freemail.hu~~~~~~~~~~~~~~~~~~~~~~~~~~~~~~~~~~-=== DO NOT EDIT THIS FILE! ===-
Path: ...\Les Stentors - Une Histoire de France (2013)
01 -=- 01 - Le Chant des Partisans.flac -=- CDDA (100%)02 -=- 02 - Mon amant de Saint Jean.flac -=- CDDA (100%)03 -=- 03 - L'hymne a l'amour.flac -=- CDDA (100%)04 -=- 04 - Les feuilles mortes.flac -=- CDDA (100%)05 -=- 05 - Domino.flac -=- CDDA (100%)06 -=- 06 - Le deserteur.flac -=- CDDA (100%)07 -=- 07 - Les roses blanches.flac -=- CDDA (100%)08 -=- 08 - La mer.flac -=- CDDA (100%)09 -=- 09 - Lili Marlene.flac -=- CDDA (100%)10 -=- 10 - Parlez-moi d'amour.flac -=- CDDA (100%)11 -=- 11 - J'attendrai.flac -=- CDDA (100%)12 -=- 12 - Le temps des cerises.flac -=- CDDA (100%)
Summary 100,00% CDDA
152129396

Раздачи (Iran / India / Algeria (Этник) \\ France & ... (Зарубежный шансон))

http://********.org/forum/search.php?uid=30821356

Турецкие раздачи

http://********.org/forum/search.php?uid=26748304

To download the file disable ad blocking, and reload the page.

disable adblock How to disable ad blocking?

Download by magnet link 252 MB Download Torrent

Login using:

Загрузка...

Similar topics

(Variété Française, Rock) Eddy Mitchell - Big Band - 2015, MP3, 320 kbps
 108 MB   0 | 0   16-May-17 22:17   1


   
Current time is: 16-Dec 18:10 :: All times are UTC + 3