Regine / Made in Paname
Жанр: Chanson
Страна-производитель диска: France
Год издания: 2004
Издатель (лейбл): Warner
Страна: France
Аудиокодек: FLAC (*.flac)
Тип рипа: image+.cue
Битрейт аудио: lossless
Продолжительность: 42:05
Источник (релизер): Диск из собственной коллекции
Треклист:
1. Fashion victim (3:30)
2. Je viens danser (4:28)
3. Il y a un pont (3:09)
4. Les disputes (2:31)
5. Diaspora (3:16)
6. Boite de nuit (3:20)
7. Ma bete noire (2:48)
8. Le quotidien (2:58)
9. J't'adore et d'argent (2:54)
10. Une mere (2:47)
11. Le juste (Monsieur Lepetit)(3:26)
12. Va prendre des cours chez Dupont (2:46)
13. Le bonheur c'est pas la joie (4:05)

Лог создания рипа

Exact Audio Copy V1.0 beta 3 from 29. August 2011
Отчёт EAC об извлечении, выполненном 30. июня 2013, 23:18
Regine / Made in Paname
Дисковод: MATSHITADVD-RAM UJ8B0AW Adapter: 0 ID: 1
Режим чтения : ДостоверностьИспользование точного потока : ДаОтключение кэша аудио : ДаИспользование указателей C2 : Нет
Коррекция смещения при чтении : 102Способность читать области Lead-in и Lead-out : НетЗаполнение пропущенных сэмплов тишиной : ДаУдаление блоков с тишиной в начале и конце : НетПри вычислениях CRC использовались нулевые сэмплы : ДаИнтерфейс : Встроенный Win32-интерфейс для Win NT/2000
Выходной формат : Пользовательский кодировщикВыбранный битрейт : 128 kBit/sКачество : ВысокийДобавление ID3-тега : НетУтилита сжатия : C:\Program Files (x86)\Exact Audio Copy\Flac\flac.exeДополнительные параметры : -V -8 %source%
TOC извлечённого CD
Трек | Старт | Длительность | Начальный сектор | Конечный сектор --------------------------------------------------------------------- 1 | 0:00.00 | 3:30.36 | 0 | 15785 2 | 3:30.36 | 4:28.69 | 15786 | 35954 3 | 7:59.30 | 3:09.63 | 35955 | 50192 4 | 11:09.18 | 2:31.57 | 50193 | 61574 5 | 13:41.00 | 3:16.15 | 61575 | 76289 6 | 16:57.15 | 3:20.57 | 76290 | 91346 7 | 20:17.72 | 2:48.21 | 91347 | 103967 8 | 23:06.18 | 2:58.09 | 103968 | 117326 9 | 26:04.27 | 2:54.57 | 117327 | 130433 10 | 28:59.09 | 2:47.39 | 130434 | 142997 11 | 31:46.48 | 3:26.54 | 142998 | 158501 12 | 35:13.27 | 2:46.18 | 158502 | 170969 13 | 37:59.45 | 4:05.18 | 170970 | 189362
Характеристики диапазона извлечения и сообщения об ошибках
Выбранный диапазон
Имя файла C:\Мои раздачи\Regine - Made in Paname\Regine - Made in Paname.wav
Пиковый уровень 98.8 % Скорость извлечения 1.8 X Качество диапазона 99.9 % CRC теста 121209A5 CRC копии 121209A5 Копирование... OK
Ошибок не произошло
AccurateRip: сводка
Трек 1 : извлечено точно (доверие 1) [0A6059E7] (AR v1)Трек 2 : извлечено точно (доверие 1) [DD61BA10] (AR v1)Трек 3 : извлечено точно (доверие 1) [D7754CDE] (AR v1)Трек 4 : извлечено точно (доверие 1) [E104AA9B] (AR v1)Трек 5 : извлечено точно (доверие 1) [B5A47C3F] (AR v1)Трек 6 : извлечено точно (доверие 1) [9A7EB8A8] (AR v1)Трек 7 : извлечено точно (доверие 1) [35BB15B5] (AR v1)Трек 8 : извлечено точно (доверие 1) [B7A460D9] (AR v1)Трек 9 : извлечено точно (доверие 1) [04206B30] (AR v1)Трек 10 : извлечено точно (доверие 1) [0F174BE4] (AR v1)Трек 11 : извлечено точно (доверие 1) [0A45978C] (AR v1)Трек 12 : извлечено точно (доверие 1) [058A9557] (AR v1)Трек 13 : извлечено точно (доверие 1) [BFA1E761] (AR v1)
Все треки извлечены точно
Конец отчёта
==== Контрольная сумма отчёта 8CD0C4A812A35EF3B1EB3C7AC4AF2C9F0B3819E5909ADE11E0E0E296F0385659 ====

To download the file disable ad blocking, and reload the page.

disable adblock How to disable ad blocking?

Download by magnet link 268 MB Download Torrent

Login using:

Similar topics

(Pop, Chanson) Leonie - En Alabama / Wahala Manitou - 1971, MP3, 320 kbps
 14 MB   0 | 0   30-Apr-17 17:02   13
(Chanson) VA - Italia amore Mio - 2012, FLAC (image+.cue), lossless
 681 MB   0 | 0   30-Apr-17 21:28   13


   
Current time is: 18-Oct 05:47 :: All times are UTC ± 0