Juliette / Mutatis Mutandis
Жанр: Chanson
Страна-производитель диска: EU
Год издания: 2005
Издатель (лейбл): Polydor
Страна: France
Аудиокодек: FLAC (*.flac)
Тип рипа: image+.cue
Битрейт аудио: lossless
Продолжительность: 51:50
Источник (релизер): Диск из собственной коллекции
Наличие сканов в содержимом раздачи: нет
Треклист:
1. Le sort de circée
2. Les garçons de mon quartier
3. Maudite clochette !
4. Le congrès des chérubins
5. Il s'est passé quelque chose
6. Une lettre oubliée
7. L'ivresse d'Abhu-Nawas
8. La braise
9. Mémère dans les orties
10. Franciscae meae laudes
11. Fantaisie héroïque

Лог создания рипа

Exact Audio Copy V1.0 beta 3 from 29. August 2011
Отчёт EAC об извлечении, выполненном 3. июля 2013, 1:32
Juliette / Mutatis Mutandis
Дисковод: MATSHITADVD-RAM UJ8B0AW Adapter: 0 ID: 1
Режим чтения : ДостоверностьИспользование точного потока : ДаОтключение кэша аудио : ДаИспользование указателей C2 : Нет
Коррекция смещения при чтении : 102Способность читать области Lead-in и Lead-out : НетЗаполнение пропущенных сэмплов тишиной : ДаУдаление блоков с тишиной в начале и конце : НетПри вычислениях CRC использовались нулевые сэмплы : ДаИнтерфейс : Встроенный Win32-интерфейс для Win NT/2000
Выходной формат : Пользовательский кодировщикВыбранный битрейт : 128 kBit/sКачество : ВысокийДобавление ID3-тега : НетУтилита сжатия : C:\Program Files (x86)\Exact Audio Copy\Flac\flac.exeДополнительные параметры : -V -8 %source%
TOC извлечённого CD
Трек | Старт | Длительность | Начальный сектор | Конечный сектор --------------------------------------------------------------------- 1 | 0:00.00 | 4:44.16 | 0 | 21315 2 | 4:44.16 | 4:26.53 | 21316 | 41318 3 | 9:10.69 | 4:22.30 | 41319 | 60998 4 | 13:33.24 | 5:06.19 | 60999 | 83967 5 | 18:39.43 | 4:29.11 | 83968 | 104153 6 | 23:08.54 | 4:41.73 | 104154 | 125301 7 | 27:50.52 | 5:10.74 | 125302 | 148625 8 | 33:01.51 | 3:54.71 | 148626 | 166246 9 | 36:56.47 | 4:34.44 | 166247 | 186840 10 | 41:31.16 | 4:29.34 | 186841 | 207049 11 | 46:00.50 | 5:49.25 | 207050 | 233249 12 | 54:22.00 | 6:23.51 | 244650 | 273425
Характеристики диапазона извлечения и сообщения об ошибках
Выбранный диапазон
Имя файла C:\Мои раздачи\Juliette - Mutatis Mutandis\Juliette - Mutatis Mutandis.wav
Пиковый уровень 100.0 % Скорость извлечения 2.0 X Качество диапазона 100.0 % CRC теста 482EBA3F CRC копии 482EBA3F Копирование... OK
Ошибок не произошло
AccurateRip: сводка
Трек 1 : извлечено точно (доверие 6) [A4C3CA51] (AR v1)Трек 2 : извлечено точно (доверие 6) [DEB9F25A] (AR v1)Трек 3 : извлечено точно (доверие 6) [06BC4A0D] (AR v1)Трек 4 : извлечено точно (доверие 6) [67C78DBA] (AR v1)Трек 5 : извлечено точно (доверие 6) [4CD5F94A] (AR v1)Трек 6 : извлечено точно (доверие 6) [795BA7BE] (AR v1)Трек 7 : извлечено точно (доверие 6) [9689A58C] (AR v1)Трек 8 : извлечено точно (доверие 6) [C2DDB45F] (AR v1)Трек 9 : извлечено точно (доверие 6) [19139870] (AR v1)Трек 10 : извлечено точно (доверие 6) [73248438] (AR v1)Трек 11 : извлечено точно (доверие 6) [50A34D10] (AR v1)
Все треки извлечены точно
Конец отчёта
==== Контрольная сумма отчёта A2E6A01561679075ED90E348D23264186C517AC66A344CBDDCBB31DBC8351B7B ====

Содержание индексной карты (.CUE)

REM GENRE ChansonREM DATE 2005REM DISCID A20E3D0CREM COMMENT "ExactAudioCopy v1.0b3"PERFORMER "Juliette"TITLE "Mutatis Mutandis"FILE "Juliette - Mutatis Mutandis.flac" WAVE TRACK 01 AUDIO TITLE "Le sort de Circe" PERFORMER "Juliette" INDEX 01 00:00:00 TRACK 02 AUDIO TITLE "Les garcons de mon quartier" PERFORMER "Juliette" INDEX 00 04:43:18 INDEX 01 04:44:16 TRACK 03 AUDIO TITLE "Maudite clochette !" PERFORMER "Juliette" INDEX 00 09:09:50 INDEX 01 09:10:69 TRACK 04 AUDIO TITLE "Le Congres des Cherubins" PERFORMER "Juliette" INDEX 00 13:31:25 INDEX 01 13:33:24 TRACK 05 AUDIO TITLE "Il s'est passe quelque chose" PERFORMER "Juliette" INDEX 00 18:38:30 INDEX 01 18:39:43 TRACK 06 AUDIO TITLE "Une lettre oubliee (en duo avec Guillaume Depardieu)" PERFORMER "Juliette" INDEX 00 23:06:42 INDEX 01 23:08:54 TRACK 07 AUDIO TITLE "L'ivresse d'Abhu-Nawas" PERFORMER "Juliette" INDEX 00 27:49:05 INDEX 01 27:50:52 TRACK 08 AUDIO TITLE "La braise" PERFORMER "Juliette" INDEX 00 32:59:72 INDEX 01 33:01:51 TRACK 09 AUDIO TITLE "Memere dans les orties (en duo avec Francois Morel)" PERFORMER "Juliette" INDEX 00 36:54:05 INDEX 01 36:56:47 TRACK 10 AUDIO TITLE "Franciscae Meae laudes (avec le concert impromptu)" PERFORMER "Juliette" INDEX 00 41:29:30 INDEX 01 41:31:16 TRACK 11 AUDIO TITLE "Fantaisie Heroique" PERFORMER "Juliette" INDEX 01 46:00:50

To download the file disable ad blocking, and reload the page.

disable adblock How to disable ad blocking?

Download by magnet link 328 MB Download Torrent

Login using:

Загрузка...

Similar topics

(French Pop, Chanson) De Calm - Disparue Juliette - 2017, MP3, 320 kbps
 90 MB   0 | 0   25-Aug-17 15:50   2


   
Current time is: 17-Dec 12:20 :: All times are UTC + 3