Mireille Mathieu / Welterfolge aus Paris
Жанр: Chanson
Страна-производитель диска: Германия
Год издания: 1985
Издатель (лейбл): Ariola
Номер по каталогу: 610 511-222
Аудиокодек: FLAC (*.flac)
Тип рипа: tracks+.cue
Битрейт аудио: lossless
Продолжительность: 00:56:21
Источник (релизер): CD (мой релиз)
Наличие сканов в содержимом раздачи: да
Треклист:
01 - Hymne an die Liebe
Michael Kunze - Marguerite Monnot
02 - Nachts bin ich allein
Erich Meder - Paul Durand
03 - C'est si bon (de)
Thore Holgerson - Henri Betti
04 - Plaisir d'amour (de)
Michael Kunze - Johannes Paul Martini
05 - Ein bißchen Glück ist genug
Bernd Meinunger - René Sylviano
06 - Wenn die Glocken hell erklingen
Wolfgang Mürmann - Jean Villard
07 - Parlez-moi d'amour (de)
Ernst Bader - Jean Lenoir
08 - So leb dein Leben
Charly Niessen - Jacques Revaux / Claude François
09 - Ein Lied aus Paris
Ralph Maria Siegel - Georges Auric
10 - Schau mich bitte nicht so an
Ralph Maria Siegel - Louiguy
11 - Das Meer
Fritz Beckmann - Charles Trenet / Albert Lasry
12 - Nein, es tut mir nicht leid
Ralph Maria Siegel - Charles Dumont
13 - Padam-Padam (de)
Loec Huisman - Norbert Glanzberg
14 - Blätter im Herbst
Thoré Holgerson - Jacques Prevert
15 - Die Welt ist schön, Milord
Ernst Bader - Marguerite Monnot
16 - Bitte geh nicht fort
Max Colpet - Jacques Brel

Лог создания рипа

Exact Audio Copy V1.0 beta 3 from 29. August 2011
Отчёт EAC об извлечении, выполненном 7. июля 2013, 13:33
Mireille Mathieu / Welterfolge aus Paris
Дисковод: TSSTcorpCDDVDW SH-222BB Adapter: 0 ID: 2
Режим чтения : ДостоверностьИспользование точного потока : ДаОтключение кэша аудио : ДаИспользование указателей C2 : Нет
Коррекция смещения при чтении : 6Способность читать области Lead-in и Lead-out : НетЗаполнение пропущенных сэмплов тишиной : ДаУдаление блоков с тишиной в начале и конце : НетПри вычислениях CRC использовались нулевые сэмплы : ДаИнтерфейс : Установленный внешний ASPI-интерфейсОбработка зазоров : Добавлено к предыдущему треку
Выходной формат : Пользовательский кодировщикВыбранный битрейт : 768 kBit/sКачество : ВысокийДобавление ID3-тега : НетУтилита сжатия : C:\Program Files (x86)\Exact Audio Copy\FLAC\FLAC.EXEДополнительные параметры : -V -8 -T "Genre=%genre%" -T "Artist=%artist%" -T "Title=%title%" -T "Album=%albumtitle%" -T "Date=%year%" -T "Tracknumber=%tracknr%" -T "Comment=%comment%" %source%
TOC извлечённого CD
Трек | Старт | Длительность | Начальный сектор | Конечный сектор --------------------------------------------------------------------- 1 | 0:00.32 | 3:27.03 | 32 | 15559 2 | 3:27.35 | 4:04.30 | 15560 | 33889 3 | 7:31.65 | 2:50.17 | 33890 | 46656 4 | 10:22.07 | 2:31.63 | 46657 | 58044 5 | 12:53.70 | 2:56.47 | 58045 | 71291 6 | 15:50.42 | 4:33.40 | 71292 | 91806 7 | 20:24.07 | 3:19.40 | 91807 | 106771 8 | 23:43.47 | 4:08.10 | 106772 | 125381 9 | 27:51.57 | 2:42.00 | 125382 | 137531 10 | 30:33.57 | 3:31.15 | 137532 | 153371 11 | 34:04.72 | 4:17.65 | 153372 | 172711 12 | 38:22.62 | 2:28.00 | 172712 | 183811 13 | 40:50.62 | 3:08.63 | 183812 | 197974 14 | 43:59.50 | 3:26.07 | 197975 | 213431 15 | 47:25.57 | 4:18.40 | 213432 | 232821 16 | 51:44.22 | 4:37.25 | 232822 | 253621
Трек 1
Имя файла E:\FTP\PUB\Music\Worldmusic\Mireille Mathieu\1985 - Welterfolge aus Paris (Ariola GER CD)\01 - Hymne an die Liebe (Hymne al'amour).wav
Длина предзазора 0:00:02.32
Пиковый уровень 100.0 % Скорость извлечения 2.0 X Качество трека 100.0 % CRC теста C1B2A9E3 CRC копии C1B2A9E3 Копирование... OK
Трек 2
Имя файла E:\FTP\PUB\Music\Worldmusic\Mireille Mathieu\1985 - Welterfolge aus Paris (Ariola GER CD)\02 - Nachts bin ich allein (Je suis seule ce soir).wav
Длина предзазора 0:00:01.55
Пиковый уровень 70.9 % Скорость извлечения 2.1 X Качество трека 100.0 % CRC теста DF956877 CRC копии DF956877 Копирование... OK
Трек 3
Имя файла E:\FTP\PUB\Music\Worldmusic\Mireille Mathieu\1985 - Welterfolge aus Paris (Ariola GER CD)\03 - C'est si bon (So fühlt man in Paris).wav
Длина предзазора 0:00:01.40
Пиковый уровень 100.0 % Скорость извлечения 1.9 X Качество трека 100.0 % CRC теста F55E84C6 CRC копии F55E84C6 Копирование... OK
Трек 4
Имя файла E:\FTP\PUB\Music\Worldmusic\Mireille Mathieu\1985 - Welterfolge aus Paris (Ariola GER CD)\04 - Plaisir d'amour (Wer wirklich liebt).wav
Длина предзазора 0:00:01.70
Пиковый уровень 88.3 % Скорость извлечения 1.9 X Качество трека 100.0 % CRC теста 1B9A6CBF CRC копии 1B9A6CBF Копирование... OK
Трек 5
Имя файла E:\FTP\PUB\Music\Worldmusic\Mireille Mathieu\1985 - Welterfolge aus Paris (Ariola GER CD)\05 - Ein bisschen Gluck ist genug (Le premier rendez-vous).wav
Длина предзазора 0:00:01.50
Пиковый уровень 69.3 % Скорость извлечения 1.6 X Качество трека 99.9 % CRC теста C0371E8E CRC копии C0371E8E Копирование... OK
Трек 6
Имя файла E:\FTP\PUB\Music\Worldmusic\Mireille Mathieu\1985 - Welterfolge aus Paris (Ariola GER CD)\06 - Wenn die Glocken hell erklingen (Les trois cloches).wav
Длина предзазора 0:00:02.15
Пиковый уровень 84.2 % Скорость извлечения 1.8 X Качество трека 99.9 % CRC теста 06B27EFD CRC копии 06B27EFD Копирование... OK
Трек 7
Имя файла E:\FTP\PUB\Music\Worldmusic\Mireille Mathieu\1985 - Welterfolge aus Paris (Ariola GER CD)\07 - Parlez-moi d'amour.wav
Длина предзазора 0:00:02.02
Пиковый уровень 100.0 % Скорость извлечения 1.7 X Качество трека 99.9 % CRC теста 9D2E21A7 CRC копии 9D2E21A7 Копирование... OK
Трек 8
Имя файла E:\FTP\PUB\Music\Worldmusic\Mireille Mathieu\1985 - Welterfolge aus Paris (Ariola GER CD)\08 - So leb dein Leben (Comme d'habitude).wav
Длина предзазора 0:00:01.50
Пиковый уровень 100.0 % Скорость извлечения 2.0 X Качество трека 100.0 % CRC теста E6D1EFD6 CRC копии E6D1EFD6 Копирование... OK
Трек 9
Имя файла E:\FTP\PUB\Music\Worldmusic\Mireille Mathieu\1985 - Welterfolge aus Paris (Ariola GER CD)\09 - Ein Lied aus Paris (Moulin Rouge).wav
Длина предзазора 0:00:01.65
Пиковый уровень 61.3 % Скорость извлечения 1.6 X Качество трека 99.9 % CRC теста B67E397C CRC копии B67E397C Копирование... OK
Трек 10
Имя файла E:\FTP\PUB\Music\Worldmusic\Mireille Mathieu\1985 - Welterfolge aus Paris (Ariola GER CD)\10 - Schau mich bitte nicht so an (La vie en rose).wav
Длина предзазора 0:00:02.05
Пиковый уровень 100.0 % Скорость извлечения 2.0 X Качество трека 100.0 % CRC теста F2444877 CRC копии F2444877 Копирование... OK
Трек 11
Имя файла E:\FTP\PUB\Music\Worldmusic\Mireille Mathieu\1985 - Welterfolge aus Paris (Ariola GER CD)\11 - Das Meer (La mer).wav
Длина предзазора 0:00:01.67
Пиковый уровень 84.9 % Скорость извлечения 2.1 X Качество трека 100.0 % CRC теста F95F12F5 CRC копии F95F12F5 Копирование... OK
Трек 12
Имя файла E:\FTP\PUB\Music\Worldmusic\Mireille Mathieu\1985 - Welterfolge aus Paris (Ariola GER CD)\12 - Nein, es tut mir nicht leid (Non, je ne regrette rien).wav
Длина предзазора 0:00:01.65
Пиковый уровень 88.2 % Скорость извлечения 1.9 X Качество трека 100.0 % CRC теста 5BB4346F CRC копии 5BB4346F Копирование... OK
Трек 13
Имя файла E:\FTP\PUB\Music\Worldmusic\Mireille Mathieu\1985 - Welterfolge aus Paris (Ariola GER CD)\13 - Padam, padam.wav
Длина предзазора 0:00:01.45
Пиковый уровень 100.0 % Скорость извлечения 2.0 X Качество трека 100.0 % CRC теста 15EE6445 CRC копии 15EE6445 Копирование... OK
Трек 14
Имя файла E:\FTP\PUB\Music\Worldmusic\Mireille Mathieu\1985 - Welterfolge aus Paris (Ariola GER CD)\14 - Blatter im Herbst (Les feuilles mortes).wav
Длина предзазора 0:00:02.13
Пиковый уровень 85.3 % Скорость извлечения 2.0 X Качество трека 100.0 % CRC теста 8566425E CRC копии 8566425E Копирование... OK
Трек 15
Имя файла E:\FTP\PUB\Music\Worldmusic\Mireille Mathieu\1985 - Welterfolge aus Paris (Ariola GER CD)\15 - Die Welt ist schon, Milord (Milord).wav
Длина предзазора 0:00:02.10
Пиковый уровень 98.7 % Скорость извлечения 2.1 X Качество трека 100.0 % CRC теста 15764F59 CRC копии 15764F59 Копирование... OK
Трек 16
Имя файла E:\FTP\PUB\Music\Worldmusic\Mireille Mathieu\1985 - Welterfolge aus Paris (Ariola GER CD)\16 - Bitte geh nicht fort (Ne me quitte pas).wav
Длина предзазора 0:00:01.53
Пиковый уровень 68.6 % Скорость извлечения 2.1 X Качество трека 100.0 % CRC теста 22F52F65 CRC копии 22F52F65 Копирование... OK
Ошибок не произошло
Конец отчёта
==== Контрольная сумма отчёта DE6202F531539EE039A8F4C6C335C29BB50A93FB9ABC35B7737F57ADD3510BDE ====

Содержание индексной карты (.CUE)

REM GENRE VocalREM DATE 1985REM DISCID CF0D3510REM COMMENT "ExactAudioCopy v1.0b3"CATALOG 0000000000000PERFORMER "Mireille Mathieu"TITLE "Welterfolge aus Paris"FILE "01 - Hymne an die Liebe (Hymne al'amour).wav" WAVE TRACK 01 AUDIO TITLE "Hymne an die Liebe (Hymne al'amour)" PERFORMER "Mireille Mathieu" FLAGS PRE PREGAP 00:00:32 INDEX 01 00:00:00 TRACK 02 AUDIO TITLE "Nachts bin ich allein (Je suis seule ce soir)" PERFORMER "Mireille Mathieu" FLAGS PRE INDEX 00 03:25:23FILE "02 - Nachts bin ich allein (Je suis seule ce soir).wav" WAVE INDEX 01 00:00:00 TRACK 03 AUDIO TITLE "C'est si bon (So fuhlt man in Paris)" PERFORMER "Mireille Mathieu" FLAGS PRE INDEX 00 04:02:65FILE "03 - C'est si bon (So fuhlt man in Paris).wav" WAVE INDEX 01 00:00:00 TRACK 04 AUDIO TITLE "Plaisir d'amour (Wer wirklich liebt)" PERFORMER "Mireille Mathieu" FLAGS PRE INDEX 00 02:48:22FILE "04 - Plaisir d'amour (Wer wirklich liebt).wav" WAVE INDEX 01 00:00:00 TRACK 05 AUDIO TITLE "Ein bisschen Gluck ist genug (Le premier rendez-vous)" PERFORMER "Mireille Mathieu" FLAGS PRE INDEX 00 02:30:13FILE "05 - Ein bisschen Gluck ist genug (Le premier rendez-vous).wav" WAVE INDEX 01 00:00:00 TRACK 06 AUDIO TITLE "Wenn die Glocken hell erklingen (Les trois cloches)" PERFORMER "Mireille Mathieu" FLAGS PRE INDEX 00 02:54:32FILE "06 - Wenn die Glocken hell erklingen (Les trois cloches).wav" WAVE INDEX 01 00:00:00 TRACK 07 AUDIO TITLE "Parlez-moi d'amour" PERFORMER "Mireille Mathieu" FLAGS PRE INDEX 00 04:31:38FILE "07 - Parlez-moi d'amour.wav" WAVE INDEX 01 00:00:00 TRACK 08 AUDIO TITLE "So leb dein Leben (Comme d'habitude)" PERFORMER "Mireille Mathieu" FLAGS PRE INDEX 00 03:17:65FILE "08 - So leb dein Leben (Comme d'habitude).wav" WAVE INDEX 01 00:00:00 TRACK 09 AUDIO TITLE "Ein Lied aus Paris (Moulin Rouge)" PERFORMER "Mireille Mathieu" FLAGS PRE INDEX 00 04:06:20FILE "09 - Ein Lied aus Paris (Moulin Rouge).wav" WAVE INDEX 01 00:00:00 TRACK 10 AUDIO TITLE "Schau mich bitte nicht so an (La vie en rose)" PERFORMER "Mireille Mathieu" FLAGS PRE INDEX 00 02:39:70FILE "10 - Schau mich bitte nicht so an (La vie en rose).wav" WAVE INDEX 01 00:00:00 TRACK 11 AUDIO TITLE "Das Meer (La mer)" PERFORMER "Mireille Mathieu" FLAGS PRE INDEX 00 03:29:23FILE "11 - Das Meer (La mer).wav" WAVE INDEX 01 00:00:00 TRACK 12 AUDIO TITLE "Nein, es tut mir nicht leid (Non, je ne regrette rien)" PERFORMER "Mireille Mathieu" FLAGS PRE INDEX 00 04:16:00FILE "12 - Nein, es tut mir nicht leid (Non, je ne regrette rien).wav" WAVE INDEX 01 00:00:00 TRACK 13 AUDIO TITLE "Padam, padam" PERFORMER "Mireille Mathieu" FLAGS PRE INDEX 00 02:26:30FILE "13 - Padam, padam.wav" WAVE INDEX 01 00:00:00 TRACK 14 AUDIO TITLE "Blatter im Herbst (Les feuilles mortes)" PERFORMER "Mireille Mathieu" FLAGS PRE INDEX 00 03:06:50FILE "14 - Blatter im Herbst (Les feuilles mortes).wav" WAVE INDEX 01 00:00:00 TRACK 15 AUDIO TITLE "Die Welt ist schon, Milord (Milord)" PERFORMER "Mireille Mathieu" FLAGS PRE INDEX 00 03:23:72FILE "15 - Die Welt ist schon, Milord (Milord).wav" WAVE INDEX 01 00:00:00 TRACK 16 AUDIO TITLE "Bitte geh nicht fort (Ne me quitte pas)" PERFORMER "Mireille Mathieu" FLAGS PRE INDEX 00 04:16:62FILE "16 - Bitte geh nicht fort (Ne me quitte pas).wav" WAVE INDEX 01 00:00:00

Об альбоме (сборнике)

Я уже раздаю данный альбом тут: http://********.org/forum/viewtopic.php?t=4131927
Это собственно точная CD-копия фирмы Ариола.

Для скачивания файла отключите блокировку рекламы и перезагрузите страницу.

disable adblock Как отключить блокировку рекламы?

Скачать по магнет ссылке 378 MB 

Войти с помощью:

Загрузка...
Загрузка...


   
Текущее время: 21-Июн 10:37 :: Часовой пояс: UTC ± 0