Julien Clerc / Fou, peut-être
Julien Clerc, de son vrai nom Paul Leclerc, né le 4 octobre 1947 au 19e arrondissement de Paris, est un chanteur français.
смотретьhttp://fr.wikipedia.org/wiki/Julien_Clerc
смотретьhttp://fr.wikipedia.org/wiki/Discographie_de_Julien_Clerc
Жанр: Variété française
Страна-производитель диска: France
Год издания: 2011
Издатель (лейбл): EMI France
Страна: France
Аудиокодек: APE (*.ape)
Тип рипа: image+.cue
Битрейт аудио: lossless
Продолжительность: 41:25
Источник (релизер): WEB
Наличие сканов в содержимом раздачи: нет
Треклист:
01. Hôtel des caravelles (Gérard Duguet-Grasser Julien Clerc)
02. Le temps d'aimer (Jean-Loup Dabadie Julien Clerc)
03. La nuit c'est tous les jours (Alex Beaupain Julien Clerc)
04. Les souvenirs (Charles Aznavour Julien Clerc)
05. Les jours entre les jours de pluie (Mike Ibrahim Julien Clerc)
06. Fou, peut-être (Maxime Le Forestier Julien Clerc)
07. Le père dit à son fils (Gérard Manset Julien Clerc)
08. L'amour prend tout (Gérard Duguet-Grasser Julien Clerc)
09. Où est-elle ? (Gérard Duguet-Grasser Julien Clerc)
10. La romance du petit cheval (Gérard Duguet-Grasser Julien Clerc)
11. Les dégâts (Julien Doré Julien Clerc)
12. Sur la plage une enfant (Gérard Manset Julien Clerc)

Лог создания рипа

Exact Audio Copy V1.0 beta 2 from 29. April 2011
Отчёт EAC об извлечении, выполненном 6. июля 2013, 11:05
Julien Clerc / Fou, Peut-Être
Дисковод: TSSTcorpDVD+-RW TS-L633J Adapter: 0 ID: 0
Режим чтения : ДостоверностьИспользование точного потока : ДаОтключение кэша аудио : НетИспользование указателей C2 : Нет
Коррекция смещения при чтении : 6Способность читать области Lead-in и Lead-out : НетЗаполнение пропущенных сэмплов тишиной : ДаУдаление блоков с тишиной в начале и конце : НетПри вычислениях CRC использовались нулевые сэмплы : НетИнтерфейс : Встроенный Win32-интерфейс для Win NT/2000
Выходной формат : Monkey's Audio (без потерь)Выбранный битрейт : Normal Lossless CompressionКачество : ВысокийДобавление ID3-тега : НетУтилита сжатия : C:\Program Files (x86)\Monkey's Audio\MAC.exeДополнительные параметры : %source% %dest% -c3000
TOC извлечённого CD
Трек | Старт | Длительность | Начальный сектор | Конечный сектор --------------------------------------------------------------------- 1 | 0:00.00 | 3:23.07 | 0 | 15231 2 | 3:23.07 | 3:35.61 | 15232 | 31417 3 | 6:58.68 | 3:18.37 | 31418 | 46304 4 | 10:17.30 | 4:10.36 | 46305 | 65090 5 | 14:27.66 | 3:32.38 | 65091 | 81028 6 | 18:00.29 | 4:08.23 | 81029 | 99651 7 | 22:08.52 | 2:51.01 | 99652 | 112477 8 | 24:59.53 | 2:11.25 | 112478 | 122327 9 | 27:11.03 | 3:45.38 | 122328 | 139240 10 | 30:56.41 | 2:34.45 | 139241 | 150835 11 | 33:31.11 | 3:18.68 | 150836 | 165753 12 | 36:50.04 | 4:35.03 | 165754 | 186381
Характеристики диапазона извлечения и сообщения об ошибках
Выбранный диапазон
Имя файла D:\EAC\Julien Clerc - Fou, Peut-Être.wav
Пиковый уровень 100.0 % Скорость извлечения 2.8 X Качество диапазона 100.0 % CRC теста 0315D488 CRC копии 0315D488 Копирование... OK
Ошибок не произошло
AccurateRip: сводка
Трек 1 отсутствует в базе данныхТрек 2 отсутствует в базе данныхТрек 3 отсутствует в базе данныхТрек 4 отсутствует в базе данныхТрек 5 отсутствует в базе данныхТрек 6 отсутствует в базе данныхТрек 7 отсутствует в базе данныхТрек 8 отсутствует в базе данныхТрек 9 отсутствует в базе данныхТрек 10 отсутствует в базе данныхТрек 11 отсутствует в базе данныхТрек 12 отсутствует в базе данных
Ни одного трека нет в базе AccurateRip
Конец отчёта
==== Контрольная сумма отчёта E37A6CE02C2B18C7D97302F8436FEFE3E7A0FD42A4E531CAAEBACB3D761AC017 ====

Содержание индексной карты (.CUE)

REM GENRE InternationalREM DATE 2011REM DISCID 7F09B50CREM COMMENT "ExactAudioCopy v1.0b2"PERFORMER "Julien Clerc"TITLE "Fou, Peut-Etre"FILE "Julien Clerc - Fou, Peut-Etre.ape" WAVE TRACK 01 AUDIO TITLE "Hotel des Caravelles" PERFORMER "Julien Clerc" INDEX 01 00:00:00 TRACK 02 AUDIO TITLE "Le Temps d'Aimer" PERFORMER "Julien Clerc" INDEX 01 03:23:07 TRACK 03 AUDIO TITLE "La Nuit C'est Tous Les Jours" PERFORMER "Julien Clerc" INDEX 01 06:58:68 TRACK 04 AUDIO TITLE "Les Souvenirs" PERFORMER "Julien Clerc" INDEX 01 10:17:30 TRACK 05 AUDIO TITLE "Les Jours Entre Les Jours de Pluie" PERFORMER "Julien Clerc" INDEX 01 14:27:66 TRACK 06 AUDIO TITLE "Fou, Peut-Etre" PERFORMER "Julien Clerc" INDEX 01 18:00:29 TRACK 07 AUDIO TITLE "Le Pere Dit a Son Fils" PERFORMER "Julien Clerc" INDEX 01 22:08:52 TRACK 08 AUDIO TITLE "L' Amour Prend Tout" PERFORMER "Julien Clerc" INDEX 01 24:59:53 TRACK 09 AUDIO TITLE "Ou Est-Elle?" PERFORMER "Julien Clerc" INDEX 01 27:11:03 TRACK 10 AUDIO TITLE "La Romance du Petit Cheval" PERFORMER "Julien Clerc" INDEX 01 30:56:41 TRACK 11 AUDIO TITLE "Les Degats" PERFORMER "Julien Clerc" INDEX 01 33:31:11 TRACK 12 AUDIO TITLE "Sur La Plage, une Enfant" PERFORMER "Julien Clerc" INDEX 01 36:50:04

Лог проверки качества

AUDIOCHECKER v2.0 beta (build 457) - by Dester - opdester@freemail.hu~~~~~~~~~~~~~~~~~~~~~~~~~~~~~~~~~~-=== DO NOT EDIT THIS FILE! ===-
Path: D:\
1 -=- Julien Clerc - Fou, Peut-Etre.ape -=- CDDA (100%)
5841524

Раздачи (Iran / India / Algeria (Этник) \\ France & ... (Зарубежный шансон))

http://********.org/forum/search.php?uid=30821356

Турецкие раздачи

http://********.org/forum/search.php?uid=26748304

Для скачивания файла отключите блокировку рекламы и перезагрузите страницу.

disable adblock Как отключить блокировку рекламы?

Скачать по магнет ссылке 252 MB 

Войти с помощью:

Загрузка...
Загрузка...


   
Текущее время: 21-Июн 10:38 :: Часовой пояс: UTC ± 0