Daniel Guichard / d'Amour et d'Émotion
(Compilation)
Daniel Guichard est un chanteur français né à Paris le 21 novembre 1948, d’un père breton et d’une mère à la triple origine russe, polonaise et ukrainienne. Il habite désormais à Sauvian, dans l'Hérault.

...biographie

Daniel Guichard est un chanteur français né le 21 novembre 1948 à Paris, second enfant d'un père breton et d'une mère russo-ukraino-polonaise. Il a enregistré 25 albums et se produit toujours sur scène dans toute la France.Daniel Guichard s'est révélé au début des années 1970 grâce à La tendresse dont Patricia Carli avait composé la musique pour Mireille Mathieu. En 1972, il monte pour la première fois sur la scène de l'Olympia. Il a connu une série de succès avec Faut pas pleurer comme ça (sur une musique de Christophe), Chanson pour Anna, composée par Pascal Danel et l'incontournable Mon vieux (1974), dédiée à son père décédé lorsque Daniel avait 15 ans, et écrite avec Jean Ferrat pour la musique et Michelle Senlis qui avait écrit le premier texte. Il habite désormais à Sauvian, dans l'Hérault. Ouvertement franc-maçon, il a écrit des ouvrages sur la franc-maçonnerie.En 1974, Daniel Guichard crée sa société de production, Kuklos. Depuis cette date, il a produit l'ensemble de ses albums.En 1981, Il installe au fond de son jardin une radio libre consacrée exclusivement à la chanson française, Radio Bocal, qui émet 24 heures / 24 sur 104,7 FM. Il en profite pour organiser une tournée « contre le cancer » durant laquelle de très nombreux chanteurs et chanteuses viennent l'accompagner bénévolement.Il a un frère aîné, Jean, et une sœur plus jeune, Irène. Il est le père de 7 enfants : Gwenaelle (née en 1969), Armelle (née en 1974), Anaël (né en 1976), Emmanuelle (née en 1984), Gabriel (né en 1989), Joël (1993), Raphaël (né en 1997). Il est marié depuis 1991 avec Christine. Il s'est produit à l'Olympia à Paris de nombreuses fois : en 1972, 1974, 1976, 1985, 1990, 1991, 2006, 2010.Dernier album de Daniel Guichard avant sa pré-retraite, D’Amour et d’Émotion tient à la fois de la compilation et du disque-bilan : le chanteur y reprend certains de ses standards ( « Mon vieux », « La Tendresse », « Je viens pas te parler d’amour » ), auxquels sont mêlés de nouvelles chansons et des reprises de classiques de la chanson française ( « La Vie en Rose », « Que reste-t-il de nos amours » ), Guichard supportant d’ailleurs bien le choc avec des monuments comme Piaf et Montand. On vient à regretter la quasi-disparition du chanteur de la scène et des médias nationaux, son registre ne déméritant pas face à des artistes comme Michel Sardou ou Serge Lama.
Жанр: Chanson française
Страна-производитель диска: France
Год издания: 1993
Издатель (лейбл): Polygram
Страна: France
Аудиокодек: APE (*.ape)
Тип рипа: image+.cue
Битрейт аудио: lossless
Продолжительность: 56:29
Источник (релизер): WEB
Наличие сканов в содержимом раздачи: нет
Треклист:
01 Mon vieux
02 La Tendresse
03 Je t'aime, tu vois
04 Je ne viens pas te parler d'amour
05 Faut pas pleurer comme ça
06 Quand on n'a que l'amour
07 Avec le temps
08 Les feuilles mortes
09 Tu te laisses aller
10 Je t'appartiens
11 Les Amoureux des bancs publics
12 Un jour tu verras
13 Que reste-t-il de nos amours?
14 La vie en rose
15 Les Amants d'un jour
16 Mon manège à moi
17 Hymne à l'amour
18 Mon Dieu

Лог создания рипа

Exact Audio Copy V1.0 beta 2 from 29. April 2011
Отчёт EAC об извлечении, выполненном 6. июля 2013, 2:33
Daniel Guichard / d'Amour et d'Emotion
Дисковод: TSSTcorpDVD+-RW TS-L633J Adapter: 0 ID: 0
Режим чтения : ДостоверностьИспользование точного потока : ДаОтключение кэша аудио : НетИспользование указателей C2 : Нет
Коррекция смещения при чтении : 6Способность читать области Lead-in и Lead-out : НетЗаполнение пропущенных сэмплов тишиной : ДаУдаление блоков с тишиной в начале и конце : НетПри вычислениях CRC использовались нулевые сэмплы : НетИнтерфейс : Встроенный Win32-интерфейс для Win NT/2000
Выходной формат : Monkey's Audio (без потерь)Выбранный битрейт : Normal Lossless CompressionКачество : ВысокийДобавление ID3-тега : НетУтилита сжатия : C:\Program Files (x86)\Monkey's Audio\MAC.exeДополнительные параметры : %source% %dest% -c3000
TOC извлечённого CD
Трек | Старт | Длительность | Начальный сектор | Конечный сектор --------------------------------------------------------------------- 1 | 0:00.00 | 3:30.56 | 0 | 15805 2 | 3:30.56 | 2:20.08 | 15806 | 26313 3 | 5:50.64 | 2:54.06 | 26314 | 39369 4 | 8:44.70 | 3:43.61 | 39370 | 56155 5 | 12:28.56 | 3:08.19 | 56156 | 70274 6 | 15:37.00 | 3:16.11 | 70275 | 84985 7 | 18:53.11 | 4:21.63 | 84986 | 104623 8 | 23:14.74 | 3:27.41 | 104624 | 120189 9 | 26:42.40 | 4:01.34 | 120190 | 138298 10 | 30:43.74 | 2:28.48 | 138299 | 149446 11 | 33:12.47 | 2:35.54 | 149447 | 161125 12 | 35:48.26 | 2:32.48 | 161126 | 172573 13 | 38:20.74 | 3:44.69 | 172574 | 189442 14 | 42:05.68 | 2:57.61 | 189443 | 202778 15 | 45:03.54 | 2:43.68 | 202779 | 215071 16 | 47:47.47 | 3:07.16 | 215072 | 229112 17 | 50:54.63 | 3:20.11 | 229113 | 244123 18 | 54:14.74 | 2:14.44 | 244124 | 254217
Характеристики диапазона извлечения и сообщения об ошибках
Выбранный диапазон
Имя файла D:\EAC\Daniel Guichard - d'Amour et d'Emotion.wav
Пиковый уровень 99.9 % Скорость извлечения 7.3 X Качество диапазона 100.0 % CRC теста AE01098C CRC копии AE01098C Копирование... OK
Ошибок не произошло
AccurateRip: сводка
Трек 1 отсутствует в базе данныхТрек 2 отсутствует в базе данныхТрек 3 отсутствует в базе данныхТрек 4 отсутствует в базе данныхТрек 5 отсутствует в базе данныхТрек 6 отсутствует в базе данныхТрек 7 отсутствует в базе данныхТрек 8 отсутствует в базе данныхТрек 9 отсутствует в базе данныхТрек 10 отсутствует в базе данныхТрек 11 отсутствует в базе данныхТрек 12 отсутствует в базе данныхТрек 13 отсутствует в базе данныхТрек 14 отсутствует в базе данныхТрек 15 отсутствует в базе данныхТрек 16 отсутствует в базе данныхТрек 17 отсутствует в базе данныхТрек 18 отсутствует в базе данных
Ни одного трека нет в базе AccurateRip
Конец отчёта
==== Контрольная сумма отчёта F72F7C43FAB3A9560D29D09E6A34C73E70DE409F77485403887C628A373ACD71 ====

Содержание индексной карты (.CUE)

REM GENRE ChansonREM DATE 1993REM DISCID F40D3D12REM COMMENT "ExactAudioCopy v1.0b2"PERFORMER "Daniel Guichard"TITLE "d'Amour et d'Emotion"FILE "Daniel Guichard - d'Amour et d'Emotion.ape" WAVE TRACK 01 AUDIO TITLE "Mon vieux" PERFORMER "Daniel Guichard" INDEX 01 00:00:00 TRACK 02 AUDIO TITLE "La tendresse" PERFORMER "Daniel Guichard" INDEX 01 03:30:56 TRACK 03 AUDIO TITLE "Je t'aime, tu vois" PERFORMER "Daniel Guichard" INDEX 01 05:50:64 TRACK 04 AUDIO TITLE "Je viens pas te parler d'amour" PERFORMER "Daniel Guichard" INDEX 01 08:44:70 TRACK 05 AUDIO TITLE "Faut pas pleurer comme ca" PERFORMER "Daniel Guichard" INDEX 01 12:28:56 TRACK 06 AUDIO TITLE "Quand on n'a que l'amour" PERFORMER "Daniel Guichard" INDEX 01 15:37:00 TRACK 07 AUDIO TITLE "Avec le temps" PERFORMER "Daniel Guichard" INDEX 01 18:53:11 TRACK 08 AUDIO TITLE "Les feuilles mortes" PERFORMER "Daniel Guichard" INDEX 01 23:14:74 TRACK 09 AUDIO TITLE "Tu te laisses aller" PERFORMER "Daniel Guichard" INDEX 01 26:42:40 TRACK 10 AUDIO TITLE "Je t'appartiens" PERFORMER "Daniel Guichard" INDEX 01 30:43:74 TRACK 11 AUDIO TITLE "Les amoureux des banc publics" PERFORMER "Daniel Guichard" INDEX 01 33:12:47 TRACK 12 AUDIO TITLE "Un jour tu verras" PERFORMER "Daniel Guichard" INDEX 01 35:48:26 TRACK 13 AUDIO TITLE "Qu reste t'il de nos amours" PERFORMER "Daniel Guichard" INDEX 01 38:20:74 TRACK 14 AUDIO TITLE "La vie en rose" PERFORMER "Daniel Guichard" INDEX 01 42:05:68 TRACK 15 AUDIO TITLE "Les amants d'un jour" PERFORMER "Daniel Guichard" INDEX 01 45:03:54 TRACK 16 AUDIO TITLE "Mon manege a moi" PERFORMER "Daniel Guichard" INDEX 01 47:47:47 TRACK 17 AUDIO TITLE "Hymne a l'amour" PERFORMER "Daniel Guichard" INDEX 01 50:54:63 TRACK 18 AUDIO TITLE "Mon dieu" PERFORMER "Daniel Guichard" INDEX 01 54:14:74

Лог проверки качества

AUDIOCHECKER v2.0 beta (build 457) - by Dester - opdester@freemail.hu~~~~~~~~~~~~~~~~~~~~~~~~~~~~~~~~~~-=== DO NOT EDIT THIS FILE! ===-
Path: D:\
1 -=- Daniel Guichard - d'Amour et d'Emotion.ape -=- CDDA (100%)
157457508

Раздачи (Iran / India / Algeria (Этник) \\ France & ... (Зарубежный шансон))

http://********.org/forum/search.php?uid=30821356

Турецкие раздачи

http://********.org/forum/search.php?uid=26748304

To download the file disable ad blocking, and reload the page.

disable adblock How to disable ad blocking?

Download by magnet link 292 MB Download Torrent

Login using:

Similar topics

(Chanson française) Neleman - Il faut de tout - 2018, MP3, 320 kbps
 114 MB   0 | 0   27-Mar-18 18:45   1
(Pop, Chanson française) Axelle Red - Exil - 2018, MP3, 320 kbps
 93 MB   0 | 0   22-Mar-18 09:05   1


   
Current time is: 15-Oct 15:10 :: All times are UTC ± 0