Hugues Aufray / Troubador (since 1948)
Hugues Aufray, né Hugues Jean Marie Auffray le 18 août 1929 à Neuilly-sur-Seine, est un auteur-compositeur-interprète et guitariste français. Souvent poétiques, ses chansons évoquent les voyages, l'amitié, la fraternité, le respect. Hugues est le troisième fils de Henry Auffray (un industriel d'import-export issu d'une famille de diplomates) et d'Amyelle de Caubios d'Andiran. Il est le frère du physicien Jean-Paul Auffray, de l'actrice Pascale Audret (1936-2000) et l'oncle de l'actrice Julie Dreyfus

... biographie

Les parents d'Hugues Aufray divorcent et la famille quitte Paris pour Sorèze, dans le Tarn, terre de leurs aïeux où il est élevé par sa mère. Pendant la guerre, il est élève (1941-1945) au collège de Sorèze . En 1945, Hugues rejoint son père à Madrid et il y reste trois ans avant de regagner la France et de commencer à chanter en espagnol. Puis très vite, il interprète les chansons de Félix Leclerc, Georges Brassens, Serge Gainsbourg et d'autres chanteurs. Gagnant du concours Les Numéros 1 de Demain, il est remarqué par Eddie Barclay qui lui fait enregistrer son premier disque en 1959.
Auteur de nombreuses chansons dont il réalise parfois les arrangements ou la musique, il en cosignera beaucoup avec les paroliers Vline Buggy et Pierre Delanoë, mais aussi Jacques Plante, Claude Morgan, etc. Hugues Aufray puise également son répertoire dans le folklore espagnol, anglo-saxon et latino-américain, ainsi que dans le blues et le rock. Il travailla également avec de nombreux compositeurs, entre autres André Georget, Jean-Pierre Sabar, Georges Augier de Moussac, Guy Magenta ainsi qu'avec le poète kabyle Lounis Ait Menguellet.
En 1964, Hugues Aufray représente le Luxembourg au concours Eurovision de la chanson et se classe troisième ex-aequo avec la chanson Dès que le printemps revient.Hugues Aufray en récital au Palais Idéal du Facteur cheval (le 28 juillet 2012)
Certaines de ses chansons sont très connues et font désormais partie du patrimoine français, comme Stewball ou Santiano.
Il fut le premier chanteur français à découvrir Bob Dylan et à en adapter les chansons. Les traductions de textes anglo-saxons, notamment ceux de Bob Dylan, édulcorent souvent la crudité du texte original. Les arrangements musicaux qui font la part belle à la guitare acoustique dénotent une influence du folk américain. Il fut aussi le premier à se produire sur scène accompagné d'un "skiffle group".
En mai 1966, au Palais des Sports de Paris, à l'occasion du premier concert contre le racisme, il chante pour Martin Luther King Les Crayons de couleur.
En juillet 1984, il chante The Times They Are a-Changin' en duo avec Bob Dylan au parc de Sceaux et à Grenoble.
Il partage sa vie entre sa maison près de Paris et sa ferme de l'Ardèche, près d'Orgnac-l'Aven. Passionné d'équitation, il créa des spectacles équestres (les Cavaliers sans frontières), des stages d'équitation pour enfants et un ranch dans les Alpes. Cette passion est née à l'École - Abbaye de Sorèze (81) où il a suivi ses études secondaires. Son nom apparaît dans les tableaux des anciens élèves. Il s'est beaucoup intéressé aussi à la voile et consacre une partie de son répertoire à la mer et aux marins.
Il ne cesse de se produire en tournée dans toute la France et dans les pays francophones.
Юг Офрэ родился 18 августа 1929 в парижском предместье Нёйи-сюр-Сен. После развода родителей жил с отцом в Мадриде, в 1948 вернулся во Францию.
В 1959 принял участие в конкурсе, организованном радиостанцией Europe 1. Песня Сержа Генсбура «Le Poinçonneur des Lilas» в исполнении Офрэ заняла первое место. Он подписал контракт с фирмой грамзаписи «Barclay».
В начале 60-х Офрэ выступает в США, откуда возвращается с песнями Боба Дилана, переведенными на французский. В 1964 году участвовал в конкурсе Евровидение. Офрэ представлял Люксембург, занял 4 место
Жанр: Chanson française, Folk, Ballades
Страна-производитель диска: France
Год издания: 2011
Издатель (лейбл): Mercury Universal
Страна: France
Аудиокодек: APE (*.ape)
Тип рипа: image+.cue
Битрейт аудио: lossless
Продолжительность: 01:09:09
Источник (релизер): WEB
Наличие сканов в содержимом раздачи: нет
Треклист:
01. Prologue (Le bateau ivre - extrait) (Arthur Rimbaud)
02. Y'avait Fanny qui chantait (Michèle Fricault - Édith Delecluse)
03. J'entends siffler le train (en duo avec Françoise Hardy) (Hedy West - Jacques Plante)
04. Laisse-moi petite fille (Hugues Aufray - Vline Buggy - Guy Magenta)
05. Les portes du pénitencier (Alan Price - adaptation : Hugues Aufray, Vline Buggy)
06. Dès que le printemps revient (Hugues Aufray - Jacques Plante)
07. Le bateau de papier (Hugues Aufray - Nicolas Guillien - Roque Carbajo)
08. On est les rois (Hugues Aufray - Pierre Delanoë - R. Miller)
09. Les crayons de couleurs (Hugues Aufray - Pierre Delanoë - M. Barton)
10. Comme des pierres qui roulent (Hugues Aufray - Bob Dylan)
11. Prends la vie comme telle (Hugues Aufray - Chuck Berry)
12. Céline (Hugues Aufray - Vline Buggy - Mort Shuman)
13. Stewball (Hugues Aufray - Pierre Delanoë - Traditionnel)
14. Le grand cercle de la vie (Hugues Aufray - Traditionnel)
15. Santiano (Hugues Aufray - Jacques Plante - Dave Fisher)
16. Le siècle des enfants (Hugues Aufray - Jean-Pierre Sabar)
17. (bonus) L'hôtel du soleil levant (Hugues Aufray d'après folkore)

Musiciens
Direction musicale : Brad Cole (sauf Prologue et J'entends siffler le train : Jean-Pierre Sabar)
Direction des voix : Georges Augier de Moussac et Thom Dewatt
Piano : Brad Cole
Guitare acoustique : Freddy Koella (+ mandoline) - Oscar Castro - John McFee (+ Dobro)
Guitares : Max-Pol Delvaux - Albert Lee
Banjo : Josh Grange (+ Dobro et guitare acoustique) - Christian Séguret - Pat Sauber (+ mandoline)
Harmonica : Charlie McCoy
Accordéon : Alexandre Léauthaud - David Hidalgo
Contrebasse : Sébastien Steinberg
Basse électrique : Georges Augier - Husain Jiffry
Batterie : Pete Thomas - Michael Shapiro (+ percussions)
Percussions : Richard Garcia
Violons : Harry Scorzo
Flûtes : Ernie Fields Jr
Saxophone ténor : Lon Price
Trompette : Denis Farias
Trombone : David Stout
Tuba : James Self
Chœurs : Amy Keys - Kate Markowitz - Carole Rowley - Thom Dewatt

Раздачи (Iran / India / Algeria (Этник) \\ France & ... (Зарубежный шансон))

http://********.org/forum/search.php?uid=30821356

Турецкие раздачи

http://********.org/forum/search.php?uid=26748304

Лог создания рипа

Exact Audio Copy V1.0 beta 2 from 29. April 2011
Отчёт EAC об извлечении, выполненном 5. июля 2013, 15:09
Hugues Aufray / Troubador (Since 1948)
Дисковод: TSSTcorpDVD+-RW TS-L633J Adapter: 0 ID: 0
Режим чтения : ДостоверностьИспользование точного потока : ДаОтключение кэша аудио : НетИспользование указателей C2 : Нет
Коррекция смещения при чтении : 6Способность читать области Lead-in и Lead-out : НетЗаполнение пропущенных сэмплов тишиной : ДаУдаление блоков с тишиной в начале и конце : НетПри вычислениях CRC использовались нулевые сэмплы : НетИнтерфейс : Встроенный Win32-интерфейс для Win NT/2000
Выходной формат : Monkey's Audio (без потерь)Выбранный битрейт : Normal Lossless CompressionКачество : ВысокийДобавление ID3-тега : НетУтилита сжатия : C:\Program Files (x86)\Monkey's Audio\MAC.exeДополнительные параметры : %source% %dest% -c3000
TOC извлечённого CD
Трек | Старт | Длительность | Начальный сектор | Конечный сектор --------------------------------------------------------------------- 1 | 0:00.00 | 3:08.59 | 0 | 14158 2 | 3:08.59 | 3:53.20 | 14159 | 31653 3 | 7:02.04 | 3:21.09 | 31654 | 46737 4 | 10:23.13 | 4:59.37 | 46738 | 69199 5 | 15:22.50 | 3:40.61 | 69200 | 85760 6 | 19:03.36 | 4:05.46 | 85761 | 104181 7 | 23:09.07 | 3:47.05 | 104182 | 121211 8 | 26:56.12 | 3:45.03 | 121212 | 138089 9 | 30:41.15 | 4:07.69 | 138090 | 156683 10 | 34:49.09 | 6:29.65 | 156684 | 185923 11 | 41:18.74 | 3:52.58 | 185924 | 203381 12 | 45:11.57 | 4:04.27 | 203382 | 221708 13 | 49:16.09 | 3:39.33 | 221709 | 238166 14 | 52:55.42 | 4:41.60 | 238167 | 259301 15 | 57:37.27 | 3:43.15 | 259302 | 276041 16 | 61:20.42 | 3:34.31 | 276042 | 292122 17 | 64:54.73 | 4:14.69 | 292123 | 311241
Характеристики диапазона извлечения и сообщения об ошибках
Выбранный диапазон
Имя файла D:\EAC\Hugues Aufray - Troubador (Since 1948).wav
Пиковый уровень 99.9 % Скорость извлечения 3.2 X Качество диапазона 100.0 % CRC теста A22A2D9D CRC копии A22A2D9D Копирование... OK
Ошибок не произошло
AccurateRip: сводка
Трек 1 отсутствует в базе данныхТрек 2 отсутствует в базе данныхТрек 3 отсутствует в базе данныхТрек 4 отсутствует в базе данныхТрек 5 отсутствует в базе данныхТрек 6 отсутствует в базе данныхТрек 7 отсутствует в базе данныхТрек 8 отсутствует в базе данныхТрек 9 отсутствует в базе данныхТрек 10 отсутствует в базе данныхТрек 11 отсутствует в базе данныхТрек 12 отсутствует в базе данныхТрек 13 отсутствует в базе данныхТрек 14 отсутствует в базе данныхТрек 15 отсутствует в базе данныхТрек 16 отсутствует в базе данныхТрек 17 отсутствует в базе данных
Ни одного трека нет в базе AccurateRip
Конец отчёта
==== Контрольная сумма отчёта 77CB54220E14B09727916DD98DF974BB1ED480839411A68ED48D0F2BB224D288 ====

Лог проверки качества

AUDIOCHECKER v2.0 beta (build 457) - by Dester - opdester@freemail.hu~~~~~~~~~~~~~~~~~~~~~~~~~~~~~~~~~~-=== DO NOT EDIT THIS FILE! ===-
Path: D:\
1 -=- Hugues Aufray - Troubador (Since 1948).ape -=- CDDA (100%)
80012932

(.CUE)

REM GENRE International
REM DATE 2011
REM DISCID FE103511
REM COMMENT "ExactAudioCopy v1.0b2"
PERFORMER "Hugues Aufray"
TITLE "Troubador (Since 1948)"
FILE "Hugues Aufray - Troubador (Since 1948).ape" WAVE
TRACK 01 AUDIO
TITLE "Prologue"
PERFORMER "Hugues Aufray"
INDEX 01 00:00:00
TRACK 02 AUDIO
TITLE "Y Avait Fanny Qui Chantait"
PERFORMER "Hugues Aufray"
INDEX 01 03:08:59
TRACK 03 AUDIO
TITLE "J'Entends Siffler le Train"
PERFORMER "Hugues Aufray"
INDEX 00 07:02:03
INDEX 01 07:02:04
TRACK 04 AUDIO
TITLE "Laisse Moi Petite Fille"
PERFORMER "Hugues Aufray"
INDEX 00 10:23:12
INDEX 01 10:23:13
TRACK 05 AUDIO
TITLE "Les Portes du Penitencier"
PERFORMER "Hugues Aufray"
INDEX 00 15:22:49
INDEX 01 15:22:50
TRACK 06 AUDIO
TITLE "Des Que le Printemps Revient"
PERFORMER "Hugues Aufray"
INDEX 00 19:03:35
INDEX 01 19:03:36
TRACK 07 AUDIO
TITLE "Le Bateau de Papier"
PERFORMER "Hugues Aufray"
INDEX 00 23:09:06
INDEX 01 23:09:07
TRACK 08 AUDIO
TITLE "On Est les Rois"
PERFORMER "Hugues Aufray"
INDEX 00 26:56:11
INDEX 01 26:56:12
TRACK 09 AUDIO
TITLE "Les Crayons de Couleurs"
PERFORMER "Hugues Aufray"
INDEX 00 30:41:14
INDEX 01 30:41:15
TRACK 10 AUDIO
TITLE "Comme des Pierres Qui Roulent"
PERFORMER "Hugues Aufray"
INDEX 00 34:49:08
INDEX 01 34:49:09
TRACK 11 AUDIO
TITLE "Prends la Vie Comme Telle"
PERFORMER "Hugues Aufray"
INDEX 00 41:18:73
INDEX 01 41:18:74
TRACK 12 AUDIO
TITLE "Celine"
PERFORMER "Hugues Aufray"
INDEX 00 45:11:56
INDEX 01 45:11:57
TRACK 13 AUDIO
TITLE "Stewball"
PERFORMER "Hugues Aufray"
INDEX 00 49:16:08
INDEX 01 49:16:09
TRACK 14 AUDIO
TITLE "Le Grand Cercle de la Vie"
PERFORMER "Hugues Aufray"
INDEX 00 52:55:41
INDEX 01 52:55:42
TRACK 15 AUDIO
TITLE "Santiano"
PERFORMER "Hugues Aufray"
INDEX 00 57:37:26
INDEX 01 57:37:27
TRACK 16 AUDIO
TITLE "Le Siecle des Enfants"
PERFORMER "Hugues Aufray"
INDEX 00 61:20:41
INDEX 01 61:20:42
TRACK 17 AUDIO
TITLE "L' Hotel du Soleil Levant"
PERFORMER "Hugues Aufray"
INDEX 00 64:54:72
INDEX 01 64:54:73

VIDEO

___12 Céline
Zl4iaa-8Jfo
___13 Stewball
ppCPFZReivA
___14 Le grand cercle de la vie
08jAeCl98GI
___15 Santiano
SZiLKwTuvks

To download the file disable ad blocking, and reload the page.

disable adblock How to disable ad blocking?

Download by magnet link 421 MB Download Torrent

Login using:

Загрузка...

Similar topics

(Chanson française) Neleman - Il faut de tout - 2018, MP3, 320 kbps
 114 MB   0 | 0   27-Mar-18 21:45   3
(Pop, Chanson française) Axelle Red - Exil - 2018, MP3, 320 kbps
 93 MB   0 | 0   22-Mar-18 12:05   4


   
Current time is: 17-Dec 12:56 :: All times are UTC + 3