Jean-Patrick Capdevielle / Quand t'es dans le désert (Compilation)
Жанр: Variété française / Pop
Страна-производитель диска: France
Год издания: 2000
Издатель (лейбл): Sony Music Media
Страна: France
Аудиокодек: APE
Тип рипа: image+.cue
Битрейт аудио: lossless
Продолжительность: 54:45
Источник (релизер): WEB
Наличие сканов в содержимом раздачи: нет
Треклист:
01 Quand T'es Dans Le Désert
02 Señorita
03 Ce Côté De La Ville
04 Oh Chiquita
05 Tourne Tourne
06 C'est Dur D'être Un Héros
07 Barcelone
08 Au-Dessus Des Rues
09 40° A L'Ombre
10 Halloween
11 En D'ssous Du Pont
12 Qu'est-ce Qui Va Rester? (Quand Le Rock'n'roll Aura Cessé D'Exister)

Written-By – Jean-Patrick Capdevielle

Об исполнителе

Jean-Patrick Capdevielle est un auteur-compositeur-interprète français né le 19 décembre 1945 à Levallois-Perret.
Avant d'être chanteur, Jean-Patrick Capdevielle a été journaliste à SuperHebdo, Salut les copains (le magazine), Mademoiselle Âge Tendre, Actuel, puis directeur artistique. Dans les années 1960, il voyage aux États-Unis, puis vit à Londres, où il côtoie le "Swinging London" (notamment dans des clubs live tels que le Speakeasy et le Blaise's où il rencontre les Beatles, les Rolling Stones, Jimi Hendrix et d'autres rockers anglais), et il devient un ami proche d'Eric Clapton.
En 1970, il part s'établir aux Baléares, à Ibiza, où il s'adonne à la peinture et la composition musicale,. En 1978, il adresse à une maison de disques ses premières maquettes. Le 45 tours Solitude, qualifié de « reggae en français » et produit par Ketchup Music (label appartenant à William Sheller), rencontre alors un succès certain. Il signe ensuite un contrat chez CBS.
Quand t'es dans le Désert, énorme tube sorti en 1979, devient vite « l'hymne d'une génération », mais est aussi considéré comme une critique au vitriol du giscardisme. En effet, les paroles « Tous les rapaces du pouvoir menés par un gros clown sinistre plongent vers moi sur la musique d'un piètre accordéoniste » semblent désigner le premier ministre et le Président de la République en cette fin des années 1970 : Raymond Barre (le « gros clown sinistre ») et Valéry Giscard d'Estaing, connu pour sa pratique de l'accordéon (le « piètre accordéoniste »).
Les deux premiers albums, Les Enfants des Ténèbres et les Anges de la Rue (août 1979, sacré album de platine et vendu à 450 000 exemplaires en peu de temps), et Deux (1980), régénèrent le paysage rock français et sont toujours classés parmi les « 100 disques essentiels du rock français » (respectivement 27e et 55e place du classement du mensuel Rolling Stone, en février 2010).
À la croisée des influences américaines et anglaises, Capdevielle construit à travers ses premiers albums une œuvre singulière, portée par une voix rauque aux accents faubouriens, et des textes aux images sombres et poétiques, à la fois anar et visionnaires. Le tout sur des rythmiques inspirées, dont les guitares enlevées et les touches de saxo nous promènent de la scène londonienne des années 1960 aux clubs new-yorkais de la fin des années 1970. Ce style unique influencera la scène française, même si personne à ce jour ne peut réellement se réclamer son héritier.
Le premier album (réédité en CD fac-similé en novembre 2009 par Culture Factory) est suivi d'une tournée de concerts au printemps 1980, avec un passage à l'Olympia. Capdevielle enchaîne deux autres tournées : début 1981, avec un passage au Palais des Sports de Paris, puis à l'automne 1982, de nouveau avec un passage à l'Olympia.
Suivent, de 1982 à 2007, une série d'albums studio, où Jean-Patrick Capdevielle explore différents styles musicaux, dans une veine plus pop, parfois new-wave, mais également blues-rock (l'excellent Vertigo, 1992, enregistré à Nashville).
Depuis 2009, tout en continuant à écrire des textes pour d'autres (Ray Daxman, Philippe Deyrieu, etc.) et composer des morceaux pour lui-même, Jean-Patrick Capdevielle travaille sur un projet innovant de webradio, Maradioamoi

Раздачи (Iran / India / Algeria (Этник) \\ France & ... (Зарубежный шансон))

http://********.org/forum/search.php?uid=30821356

Турецкие раздачи

http://********.org/forum/search.php?uid=26748304

VIDEO

___01 Quand T'es Dans Le Désert

___02 Señorita

___06 C'est Dur D'être Un Héros
Torrent перезалит
В раздачу добавлены .log / .cue

Лог создания рипа

Exact Audio Copy V1.0 beta 2 from 29. April 2011
EAC extraction logfile from 28. June 2013, 22:58
Jean-Patrick Capdevielle / Quand t'es dans le Désert
Used drive : TSSTcorpDVD+-RW TS-L633J Adapter: 0 ID: 0
Read mode : SecureUtilize accurate stream : YesDefeat audio cache : YesMake use of C2 pointers : No
Read offset correction : 6Overread into Lead-In and Lead-Out : NoFill up missing offset samples with silence : YesDelete leading and trailing silent blocks : NoNull samples used in CRC calculations : NoUsed interface : Native Win32 interface for Win NT & 2000
Used output format : Monkey's Audio Lossless EncoderSelected bitrate : Normal Lossless CompressionQuality : HighAdd ID3 tag : NoCommand line compressor : C:\Program Files (x86)\Monkey's Audio\MAC.exeAdditional command line options : %source% %dest% -c3000
TOC of the extracted CD
Track | Start | Length | Start sector | End sector --------------------------------------------------------- 1 | 0:00.00 | 3:37.08 | 0 | 16282 2 | 3:37.08 | 5:41.66 | 16283 | 41923 3 | 9:18.74 | 4:53.66 | 41924 | 63964 4 | 14:12.65 | 4:31.49 | 63965 | 84338 5 | 18:44.39 | 3:48.26 | 84339 | 101464 6 | 22:32.65 | 4:14.08 | 101465 | 120522 7 | 26:46.73 | 5:39.21 | 120523 | 145968 8 | 32:26.19 | 4:10.69 | 145969 | 164787 9 | 36:37.13 | 4:08.51 | 164788 | 183438 10 | 40:45.64 | 3:40.48 | 183439 | 199986 11 | 44:26.37 | 5:53.29 | 199987 | 226490 12 | 50:19.66 | 4:25.28 | 226491 | 246393
Range status and errors
Selected range
Filename D:\SPLITTTTT\Jean-Patrick Capdevielle - Quand t'es dans le Désert.wav
Peak level 100.0 % Extraction speed 4.8 X Range quality 100.0 % Test CRC D74B096C Copy CRC D74B096C Copy OK
No errors occurred
AccurateRip summary
Track 1 not present in databaseTrack 2 not present in databaseTrack 3 not present in databaseTrack 4 not present in databaseTrack 5 not present in databaseTrack 6 not present in databaseTrack 7 not present in databaseTrack 8 not present in databaseTrack 9 not present in databaseTrack 10 not present in databaseTrack 11 not present in databaseTrack 12 not present in database
None of the tracks are present in the AccurateRip database
End of status report

Лог проверки качества

AUDIOCHECKER v2.0 beta (build 457) - by Dester - opdester@freemail.hu~~~~~~~~~~~~~~~~~~~~~~~~~~~~~~~~~~-=== DO NOT EDIT THIS FILE! ===-
Path: ...\SPLITTTTT
1 -=- Jean-Patrick Capdevielle - Quand t'es dans le Desert.ape -=- CDDA (99%)
32197364

(.CUE)

REM GENRE "Variete francaise / Pop"
REM DATE 2000
REM DISCID A80CD50C
REM COMMENT "ExactAudioCopy v1.0b2"
PERFORMER "Jean-Patrick Capdevielle"
TITLE "Quand t'es dans le Desert"
FILE "Jean-Patrick Capdevielle - Quand t'es dans le Desert.ape" WAVE
TRACK 01 AUDIO
TITLE "Quand t'es dans le desert"
PERFORMER "Jean-Patrick Capdevielle"
INDEX 01 00:00:00
TRACK 02 AUDIO
TITLE "Senorita"
PERFORMER "Jean-Patrick Capdevielle"
INDEX 01 03:37:08
TRACK 03 AUDIO
TITLE "Ce cote de la ville"
PERFORMER "Jean-Patrick Capdevielle"
INDEX 01 09:18:74
TRACK 04 AUDIO
TITLE "Oh Chiquita"
PERFORMER "Jean-Patrick Capdevielle"
INDEX 01 14:12:65
TRACK 05 AUDIO
TITLE "Tourne tourne"
PERFORMER "Jean-Patrick Capdevielle"
INDEX 01 18:44:39
TRACK 06 AUDIO
TITLE "C'est dur d'etre un heros"
PERFORMER "Jean-Patrick Capdevielle"
INDEX 01 22:32:65
TRACK 07 AUDIO
TITLE "Barcelone"
PERFORMER "Jean-Patrick Capdevielle"
INDEX 01 26:46:73
TRACK 08 AUDIO
TITLE "Au-dessus des rues"
PERFORMER "Jean-Patrick Capdevielle"
INDEX 01 32:26:19
TRACK 09 AUDIO
TITLE "40° a l'ombre"
PERFORMER "Jean-Patrick Capdevielle"
INDEX 01 36:37:13
TRACK 10 AUDIO
TITLE "Halloween"
PERFORMER "Jean-Patrick Capdevielle"
INDEX 01 40:45:64
TRACK 11 AUDIO
TITLE "En d'ssous du pont"
PERFORMER "Jean-Patrick Capdevielle"
INDEX 01 44:26:37
TRACK 12 AUDIO
TITLE "Qu'est ce qui va rester ? (quand le rock'n roll aura cesser d'exister)"
PERFORMER "Jean-Patrick Capdevielle"
INDEX 01 50:19:66

To download the file disable ad blocking, and reload the page.

disable adblock How to disable ad blocking?

Download by magnet link 362 MB Download Torrent

Login using:

Загрузка...

Similar topics

(Variété Française, Rock) Eddy Mitchell - Big Band - 2015, MP3, 320 kbps
 108 MB   0 | 0   16-May-17 22:17   1


   
Current time is: 16-Dec 19:07 :: All times are UTC + 3