François Valéry – Les Indispensables de François Valéry
Жанр: Chanson, Pop, Disco
Год издания: 2001
Издатель (лейбл): Pomme Music
Номер по каталогу: POM 953022
Страна исполнителя: France
Аудиокодек: FLAC (*.flac)
Тип рипа: tracks+.cue
Битрейт аудио: lossless
Продолжительность: 56:53
Rip by mcach, специально для ********.org
Наличие сканов в содержимом раздачи: нет
Треклист:
01. Emmanuelle (3:38)
02. Dream In Blue (3:35)
03. Chanson d'adieu (3:00)
04. Dinons ce soir en amoureux (3:19)
05. Une chanson d'été (3:10)
06. Chanteur pour une fille de 16 ans (3:19)
07. Oran, Juin 1962 (4:23)
08. Joy (4:12)
09. La loi d'amour (3:21)
10. Je voudrais être amoureux (3:05)
11. Elle danse Marie (4:14)
12. Qu'est-ce qu'on a dansé sur cette chanson (3:31)
13. Chez Lola (3:06)
14. Symphonie pour un coeur blessé (3:23)
15. Tu as gagné je t'aime (3:46)
16. Mon pote le DJ (3:52)
 

Лог создания рипа

X Lossless Decoder version 20130602 (143.2)
XLD extraction logfile from 2013-06-24 21:42:13 +0400
François Valéry / Les Indispensables de François Valery
Used drive : HL-DT-ST DVDRW GS31N (revision TA17)Media type : Pressed CD
Ripper mode : CDParanoia III 10.2Disable audio cache : OK for the drive with a cache less than 2750KiBMake use of C2 pointers : NORead offset correction : 667Max retry count : 100Gap status : Analyzed, Appended
TOC of the extracted CD Track | Start | Length | Start sector | End sector --------------------------------------------------------- 1 | 00:00:00 | 03:37:63 | 0 | 16337 2 | 03:37:63 | 03:34:41 | 16338 | 32428 3 | 07:12:29 | 03:00:06 | 32429 | 45934 4 | 10:12:35 | 03:18:74 | 45935 | 60858 5 | 13:31:34 | 03:10:05 | 60859 | 75113 6 | 16:41:39 | 03:19:25 | 75114 | 90063 7 | 20:00:64 | 04:23:05 | 90064 | 109793 8 | 24:23:69 | 04:11:41 | 109794 | 128659 9 | 28:35:35 | 03:20:42 | 128660 | 143701 10 | 31:56:02 | 03:04:51 | 143702 | 157552 11 | 35:00:53 | 04:13:48 | 157553 | 176575 12 | 39:14:26 | 03:30:69 | 176576 | 192394 13 | 42:45:20 | 03:05:66 | 192395 | 206335 14 | 45:51:11 | 03:23:34 | 206336 | 221594 15 | 49:14:45 | 03:46:37 | 221595 | 238581 16 | 53:01:07 | 03:52:29 | 238582 | 256010
AccurateRip Summary Disc not found in AccurateRip DB.
All Tracks Album gain : -3.22 dB Peak : 1.000000 Statistics Read error : 0 Skipped (treated as error) : 0 Edge jitter error (maybe fixed) : 0 Atom jitter error (maybe fixed) : 0 Drift error (maybe fixed) : 0 Dropped bytes error (maybe fixed) : 0 Duplicated bytes error (maybe fixed) : 0
Track 01 Filename : /Users/uchitel/Desktop/02/01 François Valéry - Emmanuelle.flac Pre-gap length : 00:02:00
Track gain : -3.32 dB Peak : 0.990234 CRC32 hash (test run) : 39E925F3 CRC32 hash : 39E925F3 CRC32 hash (skip zero) : C864E1A5 AccurateRip v1 signature : 328E16F3 AccurateRip v2 signature : 030FF134 ->Track not present in AccurateRip database. Statistics Read error : 0 Skipped (treated as error) : 0 Edge jitter error (maybe fixed) : 0 Atom jitter error (maybe fixed) : 0 Drift error (maybe fixed) : 0 Dropped bytes error (maybe fixed) : 0 Duplicated bytes error (maybe fixed) : 0 Inconsistency in error sectors : 0
Track 02 Filename : /Users/uchitel/Desktop/02/02 François Valéry - Dream In Blue.flac Pre-gap length : 00:00:60
Track gain : -4.38 dB Peak : 0.939880 CRC32 hash (test run) : 3FFED5BA CRC32 hash : 3FFED5BA CRC32 hash (skip zero) : D202991A AccurateRip v1 signature : 6F8E3F32 AccurateRip v2 signature : 10052E3C ->Track not present in AccurateRip database. Statistics Read error : 0 Skipped (treated as error) : 0 Edge jitter error (maybe fixed) : 0 Atom jitter error (maybe fixed) : 0 Drift error (maybe fixed) : 0 Dropped bytes error (maybe fixed) : 0 Duplicated bytes error (maybe fixed) : 0 Inconsistency in error sectors : 0
Track 03 Filename : /Users/uchitel/Desktop/02/03 François Valéry - Chanson d'adieu.flac Pre-gap length : 00:00:68
Track gain : -3.76 dB Peak : 0.758545 CRC32 hash (test run) : 6FB3A307 CRC32 hash : 6FB3A307 CRC32 hash (skip zero) : 86DF47E1 AccurateRip v1 signature : F6A6DD40 AccurateRip v2 signature : F2115E63 ->Track not present in AccurateRip database. Statistics Read error : 0 Skipped (treated as error) : 0 Edge jitter error (maybe fixed) : 0 Atom jitter error (maybe fixed) : 0 Drift error (maybe fixed) : 0 Dropped bytes error (maybe fixed) : 0 Duplicated bytes error (maybe fixed) : 0 Inconsistency in error sectors : 0
Track 04 Filename : /Users/uchitel/Desktop/02/04 François Valéry - Dinons ce soir en amoureux.flac Pre-gap length : 00:00:71
Track gain : -1.34 dB Peak : 0.747406 CRC32 hash (test run) : A1798F49 CRC32 hash : A1798F49 CRC32 hash (skip zero) : 5B5C9D6B AccurateRip v1 signature : 020D9AE4 AccurateRip v2 signature : 79D83725 ->Track not present in AccurateRip database. Statistics Read error : 0 Skipped (treated as error) : 0 Edge jitter error (maybe fixed) : 0 Atom jitter error (maybe fixed) : 0 Drift error (maybe fixed) : 0 Dropped bytes error (maybe fixed) : 0 Duplicated bytes error (maybe fixed) : 0 Inconsistency in error sectors : 0
Track 05 Filename : /Users/uchitel/Desktop/02/05 François Valéry - Une chanson d'été.flac Pre-gap length : 00:00:55
Track gain : -2.41 dB Peak : 0.922424 CRC32 hash (test run) : 754F4B63 CRC32 hash : 754F4B63 CRC32 hash (skip zero) : 969AB444 AccurateRip v1 signature : FE357117 AccurateRip v2 signature : 9C68855A ->Track not present in AccurateRip database. Statistics Read error : 0 Skipped (treated as error) : 0 Edge jitter error (maybe fixed) : 0 Atom jitter error (maybe fixed) : 0 Drift error (maybe fixed) : 0 Dropped bytes error (maybe fixed) : 0 Duplicated bytes error (maybe fixed) : 0 Inconsistency in error sectors : 0
Track 06 Filename : /Users/uchitel/Desktop/02/06 François Valéry - Chanteur pour une fille de 16 ans.flac Pre-gap length : 00:00:51
Track gain : -2.33 dB Peak : 0.981659 CRC32 hash (test run) : 22E0D0BD CRC32 hash : 22E0D0BD CRC32 hash (skip zero) : 86F32240 AccurateRip v1 signature : 7C47AEF0 AccurateRip v2 signature : 56CC20B4 ->Track not present in AccurateRip database. Statistics Read error : 0 Skipped (treated as error) : 0 Edge jitter error (maybe fixed) : 0 Atom jitter error (maybe fixed) : 0 Drift error (maybe fixed) : 0 Dropped bytes error (maybe fixed) : 0 Duplicated bytes error (maybe fixed) : 0 Inconsistency in error sectors : 0
Track 07 Filename : /Users/uchitel/Desktop/02/07 François Valéry - Oran, Juin 1962.flac Pre-gap length : 00:00:49
Track gain : -4.18 dB Peak : 0.999969 CRC32 hash (test run) : 21388F11 CRC32 hash : 21388F11 CRC32 hash (skip zero) : 70EA1F70 AccurateRip v1 signature : 28031133 AccurateRip v2 signature : F37BA51E ->Track not present in AccurateRip database. Statistics Read error : 0 Skipped (treated as error) : 0 Edge jitter error (maybe fixed) : 0 Atom jitter error (maybe fixed) : 0 Drift error (maybe fixed) : 0 Dropped bytes error (maybe fixed) : 0 Duplicated bytes error (maybe fixed) : 0 Inconsistency in error sectors : 0
Track 08 Filename : /Users/uchitel/Desktop/02/08 François Valéry - Joy.flac Pre-gap length : 00:00:45
Track gain : -3.68 dB Peak : 0.999969 CRC32 hash (test run) : 2C630490 CRC32 hash : 2C630490 CRC32 hash (skip zero) : 11AE9907 AccurateRip v1 signature : 1CEB54C4 AccurateRip v2 signature : 8DACB1EE ->Track not present in AccurateRip database. Statistics Read error : 0 Skipped (treated as error) : 0 Edge jitter error (maybe fixed) : 0 Atom jitter error (maybe fixed) : 0 Drift error (maybe fixed) : 0 Dropped bytes error (maybe fixed) : 0 Duplicated bytes error (maybe fixed) : 0 Inconsistency in error sectors : 0
Track 09 Filename : /Users/uchitel/Desktop/02/09 François Valéry - La loi d'amour.flac Pre-gap length : 00:00:47
Track gain : -3.08 dB Peak : 0.859528 CRC32 hash (test run) : 8281DFBC CRC32 hash : 8281DFBC CRC32 hash (skip zero) : ADCD3931 AccurateRip v1 signature : 550CC165 AccurateRip v2 signature : B3FDF0A8 ->Track not present in AccurateRip database. Statistics Read error : 0 Skipped (treated as error) : 0 Edge jitter error (maybe fixed) : 0 Atom jitter error (maybe fixed) : 0 Drift error (maybe fixed) : 0 Dropped bytes error (maybe fixed) : 0 Duplicated bytes error (maybe fixed) : 0 Inconsistency in error sectors : 0
Track 10 Filename : /Users/uchitel/Desktop/02/10 François Valéry - Je voudrais être amoureux.flac
Track gain : -1.49 dB Peak : 0.901306 CRC32 hash (test run) : 4A346EE2 CRC32 hash : 4A346EE2 CRC32 hash (skip zero) : 7405B7D4 AccurateRip v1 signature : 69F6A319 AccurateRip v2 signature : B3D5318B ->Track not present in AccurateRip database. Statistics Read error : 0 Skipped (treated as error) : 0 Edge jitter error (maybe fixed) : 0 Atom jitter error (maybe fixed) : 0 Drift error (maybe fixed) : 0 Dropped bytes error (maybe fixed) : 0 Duplicated bytes error (maybe fixed) : 0 Inconsistency in error sectors : 0
Track 11 Filename : /Users/uchitel/Desktop/02/11 François Valéry - Elle danse Marie.flac Pre-gap length : 00:00:50
Track gain : -2.35 dB Peak : 0.993530 CRC32 hash (test run) : 277ECF0C CRC32 hash : 277ECF0C CRC32 hash (skip zero) : 525502DC AccurateRip v1 signature : 23598E7D AccurateRip v2 signature : A8355161 ->Track not present in AccurateRip database. Statistics Read error : 0 Skipped (treated as error) : 0 Edge jitter error (maybe fixed) : 0 Atom jitter error (maybe fixed) : 0 Drift error (maybe fixed) : 0 Dropped bytes error (maybe fixed) : 0 Duplicated bytes error (maybe fixed) : 0 Inconsistency in error sectors : 0
Track 12 Filename : /Users/uchitel/Desktop/02/12 François Valéry - Qu'est-ce qu'on a dansé sur cette chanson.flac Pre-gap length : 00:01:02
Track gain : -2.92 dB Peak : 0.953217 CRC32 hash (test run) : A3C421CD CRC32 hash : A3C421CD CRC32 hash (skip zero) : 976DAA33 AccurateRip v1 signature : 7A38FCCA AccurateRip v2 signature : 00BA844E ->Track not present in AccurateRip database. Statistics Read error : 0 Skipped (treated as error) : 0 Edge jitter error (maybe fixed) : 0 Atom jitter error (maybe fixed) : 0 Drift error (maybe fixed) : 0 Dropped bytes error (maybe fixed) : 0 Duplicated bytes error (maybe fixed) : 0 Inconsistency in error sectors : 0
Track 13 Filename : /Users/uchitel/Desktop/02/13 François Valéry - Chez Lola.flac Pre-gap length : 00:00:62
Track gain : -3.95 dB Peak : 0.825165 CRC32 hash (test run) : AFFFA0E4 CRC32 hash : AFFFA0E4 CRC32 hash (skip zero) : 7F58316F AccurateRip v1 signature : 263AE3DC AccurateRip v2 signature : 6FB2EF36 ->Track not present in AccurateRip database. Statistics Read error : 0 Skipped (treated as error) : 0 Edge jitter error (maybe fixed) : 0 Atom jitter error (maybe fixed) : 0 Drift error (maybe fixed) : 0 Dropped bytes error (maybe fixed) : 0 Duplicated bytes error (maybe fixed) : 0 Inconsistency in error sectors : 0
Track 14 Filename : /Users/uchitel/Desktop/02/14 François Valéry - Symphonie pour un coeur blessé.flac
Track gain : -2.18 dB Peak : 0.839478 CRC32 hash (test run) : 9A59C0B1 CRC32 hash : 9A59C0B1 CRC32 hash (skip zero) : 1C458D9D AccurateRip v1 signature : 94EE8797 AccurateRip v2 signature : E5719609 ->Track not present in AccurateRip database. Statistics Read error : 0 Skipped (treated as error) : 0 Edge jitter error (maybe fixed) : 0 Atom jitter error (maybe fixed) : 0 Drift error (maybe fixed) : 0 Dropped bytes error (maybe fixed) : 0 Duplicated bytes error (maybe fixed) : 0 Inconsistency in error sectors : 0
Track 15 Filename : /Users/uchitel/Desktop/02/15 François Valéry - Tu as gagné je t'aime.flac Pre-gap length : 00:01:24
Track gain : -4.05 dB Peak : 1.000000 CRC32 hash (test run) : 0118CA88 CRC32 hash : 0118CA88 CRC32 hash (skip zero) : 10EADF5C AccurateRip v1 signature : B4684065 AccurateRip v2 signature : F4CE03F2 ->Track not present in AccurateRip database. Statistics Read error : 0 Skipped (treated as error) : 0 Edge jitter error (maybe fixed) : 0 Atom jitter error (maybe fixed) : 0 Drift error (maybe fixed) : 0 Dropped bytes error (maybe fixed) : 0 Duplicated bytes error (maybe fixed) : 0 Inconsistency in error sectors : 0
Track 16 Filename : /Users/uchitel/Desktop/02/16 François Valéry - Mon pote le DJ.flac Pre-gap length : 00:00:43
Track gain : -1.30 dB Peak : 1.000000 CRC32 hash (test run) : B0ED6E28 CRC32 hash : B0ED6E28 CRC32 hash (skip zero) : 9AD838EB AccurateRip v1 signature : 3A47EB1E AccurateRip v2 signature : C14AB2FD ->Track not present in AccurateRip database. Statistics Read error : 0 Skipped (treated as error) : 0 Edge jitter error (maybe fixed) : 0 Atom jitter error (maybe fixed) : 0 Drift error (maybe fixed) : 0 Dropped bytes error (maybe fixed) : 0 Duplicated bytes error (maybe fixed) : 0 Inconsistency in error sectors : 0
No errors occurred
End of status report

Содержание индексной карты (.CUE)

REM GENRE "Pop"REM DATE "2001"REM DISCID CB0D5510FILE "01. Emmanuelle.flac" WAVE TRACK 01 AUDIO ISRC FR20F7900730 INDEX 01 00:00:00 TRACK 02 AUDIO ISRC FRG978100030 INDEX 00 03:37:03FILE "02. Dream In Blue.flac" WAVE INDEX 01 00:00:00 TRACK 03 AUDIO ISRC FR20F8100090 INDEX 00 03:33:48FILE "03. Chanson d'adieu.flac" WAVE INDEX 01 00:00:00 TRACK 04 AUDIO ISRC FR20F7700580 INDEX 00 02:59:10FILE "04. Dinons ce soir en amoureux.flac" WAVE INDEX 01 00:00:00 TRACK 05 AUDIO ISRC FR20F8001270 INDEX 00 03:18:19FILE "05. Une chanson d'ete.flac" WAVE INDEX 01 00:00:00 TRACK 06 AUDIO ISRC FR20F7801080 INDEX 00 03:09:29FILE "06. Chanteur pour une fille de 16 ans.flac" WAVE INDEX 01 00:00:00 TRACK 07 AUDIO ISRC FR20F8200760 INDEX 00 03:18:51FILE "07. Oran, Juin 1962.flac" WAVE INDEX 01 00:00:00 TRACK 08 AUDIO ISRC FR20F8300100 INDEX 00 04:22:35FILE "08. Joy.flac" WAVE INDEX 01 00:00:00 TRACK 09 AUDIO ISRC FR20F7801130 INDEX 00 04:10:69FILE "09. La loi d'amour.flac" WAVE INDEX 01 00:00:00FILE "10. Je voudrais etre amoureux.flac" WAVE TRACK 10 AUDIO ISRC FR20F8300090 INDEX 01 00:00:00 TRACK 11 AUDIO ISRC FR20F8300370 INDEX 00 03:04:01FILE "11. Elle danse Marie.flac" WAVE INDEX 01 00:00:00 TRACK 12 AUDIO ISRC FR20F8001250 INDEX 00 04:12:46FILE "12. Qu'est-ce qu'on a danse sur cette chanson.flac" WAVE INDEX 01 00:00:00 TRACK 13 AUDIO ISRC FR20F8001110 INDEX 00 03:30:07FILE "13. Chez Lola.flac" WAVE INDEX 01 00:00:00FILE "14. Symphonie pour un coeur blesse.flac" WAVE TRACK 14 AUDIO ISRC FR20F8001260 INDEX 01 00:00:00 TRACK 15 AUDIO ISRC FR20F7901150 INDEX 00 03:22:10FILE "15. Tu as gagne je t'aime.flac" WAVE INDEX 01 00:00:00 TRACK 16 AUDIO ISRC FR20F8400480 INDEX 00 03:45:69FILE "16. Mon pote le DJ.flac" WAVE INDEX 01 00:00:00

Для скачивания файла отключите блокировку рекламы и перезагрузите страницу.

disable adblock Как отключить блокировку рекламы?

Скачать по магнет ссылке 386 MB 

Войти с помощью:

Похожие раздачи

Внимание! Контент 18+ если вы младше данного возраста, НЕ переходите по ссылке!!!


   
Текущее время: 14-Авг 19:38 :: Часовой пояс: UTC ± 0