Tété / Nu Là-Bas
Жанр: Folk - pop / Variété française / Rock
Страна-производитель диска: France
Год издания: 2013
Издатель (лейбл): Cinq 7
Страна: France
Аудиокодек: FLAC (*.flac)
Тип рипа: tracks
Битрейт аудио: lossless
Продолжительность: 42:24
Источник (релизер): WEB
Наличие сканов в содержимом раздачи: нет
Треклист:
01. Tété - L'ADN des anges [00:16]
02. Tété - Nus là-bas [02:49]
03. Tété - Ritournelle [03:30]
04. Tété - Comment te dire [03:17]
05. Tété - La bande son de ta vie [02:59]
06. Tété - De ce côté-ci du bonheur [03:22]
07. Tété - À l'ancienne [03:11]
08. Tété - On achève bien les regrets [00:15]
09. Tété - Dedans ma radio [02:52]
10. Tété - À cour ou jardin [03:00]
11. Tété - Marie Laveau [03:28]
12. Tété - Tes cheveux [03:41]
13. Tété - Houston [03:14]
14. Tété - Cadeau [02:27]
15. Tété - Les ruisseaux de la colère [03:29]
16. Tété - Rag pop (deluxe) [00:28]

Лог создания рипа

Exact Audio Copy V1.0 beta 3 from 29. August 2011
EAC extraction logfile from 7. May 2013, 16:33
Tété / Nu là-bas
Used drive : SlimtypeDVD A DS8A4SH Adapter: 0 ID: 1
Read mode : SecureUtilize accurate stream : YesDefeat audio cache : YesMake use of C2 pointers : No
Read offset correction : 6Overread into Lead-In and Lead-Out : NoFill up missing offset samples with silence : YesDelete leading and trailing silent blocks : NoNull samples used in CRC calculations : YesUsed interface : Native Win32 interface for Win NT & 2000Gap handling : Appended to previous track
Used output format : User Defined EncoderSelected bitrate : 1024 kBit/sQuality : HighAdd ID3 tag : NoCommand line compressor : C:\Program Files (x86)\Exact Audio Copy\FLAC\FLAC.EXEAdditional command line options : -8 -V -T "ARTIST=%artist%" -T "TITLE=%title%" -T "ALBUM=%albumtitle%" -T "DATE=%year%" -T "TRACKNUMBER=%tracknr%" -T "GENRE=%genre%" -T "PERFORMER=%albuminterpret%" -T "COMPOSER=%composer%" %haslyrics%--tag-from-file=LYRICS="%lyricsfile%"%haslyrics% -T "ALBUMARTIST=%albumartist%" -T "DISCNUMBER=%cdnumber%" -T "TOTALDISCS=%totalcds%" -T "TOTALTRACKS=%numtracks%" -T "COMMENT=%comment%" %source% -o %dest%
TOC of the extracted CD
Track | Start | Length | Start sector | End sector --------------------------------------------------------- 1 | 0:00.00 | 0:16.00 | 0 | 1199 2 | 0:16.00 | 2:49.15 | 1200 | 13889 3 | 3:05.15 | 3:30.15 | 13890 | 29654 4 | 6:35.30 | 3:17.24 | 29655 | 44453 5 | 9:52.54 | 2:59.63 | 44454 | 57941 6 | 12:52.42 | 3:22.52 | 57942 | 73143 7 | 16:15.19 | 3:11.32 | 73144 | 87500 8 | 19:26.51 | 0:15.57 | 87501 | 88682 9 | 19:42.33 | 2:52.23 | 88683 | 101605 10 | 22:34.56 | 3:00.23 | 101606 | 115128 11 | 25:35.04 | 3:28.33 | 115129 | 130761 12 | 29:03.37 | 3:41.22 | 130762 | 147358 13 | 32:44.59 | 3:14.66 | 147359 | 161974 14 | 35:59.50 | 2:27.11 | 161975 | 173010 15 | 38:26.61 | 3:29.20 | 173011 | 188705 16 | 41:56.06 | 0:28.25 | 188706 | 190830
Track 1
Filename C:\Users\KatZ\Desktop\Tété-Nu Là-Bas-CD-FLAC-2013-StarKy22\01 - L'ADN des anges.wav
Pre-gap length 0:00:02.00
Peak level 55.9 % Extraction speed 0.3 X Track quality 100.0 % Test CRC 12DBB728 Copy CRC 12DBB728 Track not present in AccurateRip database Copy OK
Track 2
Filename C:\Users\KatZ\Desktop\Tété-Nu Là-Bas-CD-FLAC-2013-StarKy22\02 - Nus là-bas.wav
Peak level 99.8 % Extraction speed 1.0 X Track quality 100.0 % Test CRC 14202263 Copy CRC 14202263 Track not present in AccurateRip database Copy OK
Track 3
Filename C:\Users\KatZ\Desktop\Tété-Nu Là-Bas-CD-FLAC-2013-StarKy22\03 - Ritournelle.wav
Pre-gap length 0:00:00.10
Peak level 99.8 % Extraction speed 1.2 X Track quality 100.0 % Test CRC 0272C46E Copy CRC 0272C46E Track not present in AccurateRip database Copy OK
Track 4
Filename C:\Users\KatZ\Desktop\Tété-Nu Là-Bas-CD-FLAC-2013-StarKy22\04 - Comment te dire.wav
Pre-gap length 0:00:00.38
Peak level 99.2 % Extraction speed 1.3 X Track quality 100.0 % Test CRC C8F493C7 Copy CRC C8F493C7 Track not present in AccurateRip database Copy OK
Track 5
Filename C:\Users\KatZ\Desktop\Tété-Nu Là-Bas-CD-FLAC-2013-StarKy22\05 - La bande son de ta vie.wav
Pre-gap length 0:00:00.14
Peak level 99.8 % Extraction speed 1.3 X Track quality 100.0 % Test CRC EBC7A7DF Copy CRC EBC7A7DF Track not present in AccurateRip database Copy OK
Track 6
Filename C:\Users\KatZ\Desktop\Tété-Nu Là-Bas-CD-FLAC-2013-StarKy22\06 - De ce côté-ci du bonheur.wav
Pre-gap length 0:00:00.17
Peak level 99.8 % Extraction speed 1.4 X Track quality 100.0 % Test CRC A0D5CB81 Copy CRC A0D5CB81 Track not present in AccurateRip database Copy OK
Track 7
Filename C:\Users\KatZ\Desktop\Tété-Nu Là-Bas-CD-FLAC-2013-StarKy22\07 - A l'ancienne.wav
Pre-gap length 0:00:00.02
Peak level 99.8 % Extraction speed 1.5 X Track quality 100.0 % Test CRC C9C5F60A Copy CRC C9C5F60A Track not present in AccurateRip database Copy OK
Track 8
Filename C:\Users\KatZ\Desktop\Tété-Nu Là-Bas-CD-FLAC-2013-StarKy22\08 - On achève bien les regrets.wav
Peak level 56.0 % Extraction speed 0.5 X Track quality 100.0 % Test CRC 306ED0F6 Copy CRC 306ED0F6 Track not present in AccurateRip database Copy OK
Track 9
Filename C:\Users\KatZ\Desktop\Tété-Nu Là-Bas-CD-FLAC-2013-StarKy22\09 - Dedans ma radio.wav
Peak level 99.8 % Extraction speed 1.3 X Track quality 99.9 % Test CRC D21BAA72 Copy CRC D21BAA72 Track not present in AccurateRip database Copy OK
Track 10
Filename C:\Users\KatZ\Desktop\Tété-Nu Là-Bas-CD-FLAC-2013-StarKy22\10 - A cour ou jardin.wav
Pre-gap length 0:00:00.02
Peak level 99.8 % Extraction speed 1.6 X Track quality 100.0 % Test CRC 77B06FE6 Copy CRC 77B06FE6 Track not present in AccurateRip database Copy OK
Track 11
Filename C:\Users\KatZ\Desktop\Tété-Nu Là-Bas-CD-FLAC-2013-StarKy22\11 - Marie Laveau.wav
Pre-gap length 0:00:00.01
Peak level 99.8 % Extraction speed 1.7 X Track quality 100.0 % Test CRC 5D824869 Copy CRC 5D824869 Track not present in AccurateRip database Copy OK
Track 12
Filename C:\Users\KatZ\Desktop\Tété-Nu Là-Bas-CD-FLAC-2013-StarKy22\12 - Tes cheveux.wav
Pre-gap length 0:00:00.01
Peak level 99.8 % Extraction speed 1.8 X Track quality 100.0 % Test CRC 4C8E36DF Copy CRC 4C8E36DF Track not present in AccurateRip database Copy OK
Track 13
Filename C:\Users\KatZ\Desktop\Tété-Nu Là-Bas-CD-FLAC-2013-StarKy22\13 - Houston.wav
Pre-gap length 0:00:00.32
Peak level 99.8 % Extraction speed 1.5 X Track quality 99.9 % Test CRC FDDF7385 Copy CRC FDDF7385 Track not present in AccurateRip database Copy OK
Track 14
Filename C:\Users\KatZ\Desktop\Tété-Nu Là-Bas-CD-FLAC-2013-StarKy22\14 - Cadeau.wav
Pre-gap length 0:00:00.14
Peak level 70.2 % Extraction speed 1.8 X Track quality 100.0 % Test CRC B1E1BDE9 Copy CRC B1E1BDE9 Track not present in AccurateRip database Copy OK
Track 15
Filename C:\Users\KatZ\Desktop\Tété-Nu Là-Bas-CD-FLAC-2013-StarKy22\15 - Les ruisseaux de la colère.wav
Pre-gap length 0:00:00.50
Peak level 99.8 % Extraction speed 1.9 X Track quality 100.0 % Test CRC E012962B Copy CRC E012962B Track not present in AccurateRip database Copy OK
Track 16
Filename C:\Users\KatZ\Desktop\Tété-Nu Là-Bas-CD-FLAC-2013-StarKy22\16 - Rag pop (deluxe).wav
Pre-gap length 0:00:00.01
Peak level 55.9 % Extraction speed 0.9 X Track quality 100.0 % Test CRC D6FDAD3B Copy CRC D6FDAD3B Track not present in AccurateRip database Copy OK
None of the tracks are present in the AccurateRip database
No errors occurred
End of status report
==== Log checksum 06CBD21916CBC61626071EDE1FEFF7B539902FECACB0E5EDBB92E3E90F8BFDE0 ====
------------------------------------------------------------
Exact Audio Copy V1.0 beta 3 from 29. August 2011
EAC extraction logfile from 7. May 2013, 16:33
Tété / Nu là-bas
Used drive : SlimtypeDVD A DS8A4SH Adapter: 0 ID: 1
Read mode : SecureUtilize accurate stream : YesDefeat audio cache : YesMake use of C2 pointers : No
Read offset correction : 6Overread into Lead-In and Lead-Out : NoFill up missing offset samples with silence : YesDelete leading and trailing silent blocks : NoNull samples used in CRC calculations : YesUsed interface : Native Win32 interface for Win NT & 2000Gap handling : Appended to previous track
Used output format : User Defined EncoderSelected bitrate : 1024 kBit/sQuality : HighAdd ID3 tag : NoCommand line compressor : C:\Program Files (x86)\Exact Audio Copy\FLAC\FLAC.EXEAdditional command line options : -8 -V -T "ARTIST=%artist%" -T "TITLE=%title%" -T "ALBUM=%albumtitle%" -T "DATE=%year%" -T "TRACKNUMBER=%tracknr%" -T "GENRE=%genre%" -T "PERFORMER=%albuminterpret%" -T "COMPOSER=%composer%" %haslyrics%--tag-from-file=LYRICS="%lyricsfile%"%haslyrics% -T "ALBUMARTIST=%albumartist%" -T "DISCNUMBER=%cdnumber%" -T "TOTALDISCS=%totalcds%" -T "TOTALTRACKS=%numtracks%" -T "COMMENT=%comment%" %source% -o %dest%
TOC of the extracted CD
Track | Start | Length | Start sector | End sector --------------------------------------------------------- 1 | 0:00.00 | 0:16.00 | 0 | 1199 2 | 0:16.00 | 2:49.15 | 1200 | 13889 3 | 3:05.15 | 3:30.15 | 13890 | 29654 4 | 6:35.30 | 3:17.24 | 29655 | 44453 5 | 9:52.54 | 2:59.63 | 44454 | 57941 6 | 12:52.42 | 3:22.52 | 57942 | 73143 7 | 16:15.19 | 3:11.32 | 73144 | 87500 8 | 19:26.51 | 0:15.57 | 87501 | 88682 9 | 19:42.33 | 2:52.23 | 88683 | 101605 10 | 22:34.56 | 3:00.23 | 101606 | 115128 11 | 25:35.04 | 3:28.33 | 115129 | 130761 12 | 29:03.37 | 3:41.22 | 130762 | 147358 13 | 32:44.59 | 3:14.66 | 147359 | 161974 14 | 35:59.50 | 2:27.11 | 161975 | 173010 15 | 38:26.61 | 3:29.20 | 173011 | 188705 16 | 41:56.06 | 0:28.25 | 188706 | 190830
Track 1
Filename C:\Users\KatZ\Desktop\Tété-Nu Là-Bas-CD-FLAC-2013-StarKy22\01 - L'ADN des anges.wav
Pre-gap length 0:00:02.00
Peak level 55.9 % Extraction speed 0.3 X Track quality 100.0 % Test CRC 12DBB728 Copy CRC 12DBB728 Track not present in AccurateRip database Copy OK
Track 2
Filename C:\Users\KatZ\Desktop\Tété-Nu Là-Bas-CD-FLAC-2013-StarKy22\02 - Nus là-bas.wav
Peak level 99.8 % Extraction speed 1.0 X Track quality 100.0 % Test CRC 14202263 Copy CRC 14202263 Track not present in AccurateRip database Copy OK
Track 3
Filename C:\Users\KatZ\Desktop\Tété-Nu Là-Bas-CD-FLAC-2013-StarKy22\03 - Ritournelle.wav
Pre-gap length 0:00:00.10
Peak level 99.8 % Extraction speed 1.2 X Track quality 100.0 % Test CRC 0272C46E Copy CRC 0272C46E Track not present in AccurateRip database Copy OK
Track 4
Filename C:\Users\KatZ\Desktop\Tété-Nu Là-Bas-CD-FLAC-2013-StarKy22\04 - Comment te dire.wav
Pre-gap length 0:00:00.38
Peak level 99.2 % Extraction speed 1.3 X Track quality 100.0 % Test CRC C8F493C7 Copy CRC C8F493C7 Track not present in AccurateRip database Copy OK
Track 5
Filename C:\Users\KatZ\Desktop\Tété-Nu Là-Bas-CD-FLAC-2013-StarKy22\05 - La bande son de ta vie.wav
Pre-gap length 0:00:00.14
Peak level 99.8 % Extraction speed 1.3 X Track quality 100.0 % Test CRC EBC7A7DF Copy CRC EBC7A7DF Track not present in AccurateRip database Copy OK
Track 6
Filename C:\Users\KatZ\Desktop\Tété-Nu Là-Bas-CD-FLAC-2013-StarKy22\06 - De ce côté-ci du bonheur.wav
Pre-gap length 0:00:00.17
Peak level 99.8 % Extraction speed 1.4 X Track quality 100.0 % Test CRC A0D5CB81 Copy CRC A0D5CB81 Track not present in AccurateRip database Copy OK
Track 7
Filename C:\Users\KatZ\Desktop\Tété-Nu Là-Bas-CD-FLAC-2013-StarKy22\07 - A l'ancienne.wav
Pre-gap length 0:00:00.02
Peak level 99.8 % Extraction speed 1.5 X Track quality 100.0 % Test CRC C9C5F60A Copy CRC C9C5F60A Track not present in AccurateRip database Copy OK
Track 8
Filename C:\Users\KatZ\Desktop\Tété-Nu Là-Bas-CD-FLAC-2013-StarKy22\08 - On achève bien les regrets.wav
Peak level 56.0 % Extraction speed 0.5 X Track quality 100.0 % Test CRC 306ED0F6 Copy CRC 306ED0F6 Track not present in AccurateRip database Copy OK
Track 9
Filename C:\Users\KatZ\Desktop\Tété-Nu Là-Bas-CD-FLAC-2013-StarKy22\09 - Dedans ma radio.wav
Peak level 99.8 % Extraction speed 1.3 X Track quality 99.9 % Test CRC D21BAA72 Copy CRC D21BAA72 Track not present in AccurateRip database Copy OK
Track 10
Filename C:\Users\KatZ\Desktop\Tété-Nu Là-Bas-CD-FLAC-2013-StarKy22\10 - A cour ou jardin.wav
Pre-gap length 0:00:00.02
Peak level 99.8 % Extraction speed 1.6 X Track quality 100.0 % Test CRC 77B06FE6 Copy CRC 77B06FE6 Track not present in AccurateRip database Copy OK
Track 11
Filename C:\Users\KatZ\Desktop\Tété-Nu Là-Bas-CD-FLAC-2013-StarKy22\11 - Marie Laveau.wav
Pre-gap length 0:00:00.01
Peak level 99.8 % Extraction speed 1.7 X Track quality 100.0 % Test CRC 5D824869 Copy CRC 5D824869 Track not present in AccurateRip database Copy OK
Track 12
Filename C:\Users\KatZ\Desktop\Tété-Nu Là-Bas-CD-FLAC-2013-StarKy22\12 - Tes cheveux.wav
Pre-gap length 0:00:00.01
Peak level 99.8 % Extraction speed 1.8 X Track quality 100.0 % Test CRC 4C8E36DF Copy CRC 4C8E36DF Track not present in AccurateRip database Copy OK
Track 13
Filename C:\Users\KatZ\Desktop\Tété-Nu Là-Bas-CD-FLAC-2013-StarKy22\13 - Houston.wav
Pre-gap length 0:00:00.32
Peak level 99.8 % Extraction speed 1.5 X Track quality 99.9 % Test CRC FDDF7385 Copy CRC FDDF7385 Track not present in AccurateRip database Copy OK
Track 14
Filename C:\Users\KatZ\Desktop\Tété-Nu Là-Bas-CD-FLAC-2013-StarKy22\14 - Cadeau.wav
Pre-gap length 0:00:00.14
Peak level 70.2 % Extraction speed 1.8 X Track quality 100.0 % Test CRC B1E1BDE9 Copy CRC B1E1BDE9 Track not present in AccurateRip database Copy OK
Track 15
Filename C:\Users\KatZ\Desktop\Tété-Nu Là-Bas-CD-FLAC-2013-StarKy22\15 - Les ruisseaux de la colère.wav
Pre-gap length 0:00:00.50
Peak level 99.8 % Extraction speed 1.9 X Track quality 100.0 % Test CRC E012962B Copy CRC E012962B Track not present in AccurateRip database Copy OK
Track 16
Filename C:\Users\KatZ\Desktop\Tété-Nu Là-Bas-CD-FLAC-2013-StarKy22\16 - Rag pop (deluxe).wav
Pre-gap length 0:00:00.01
Peak level 55.9 % Extraction speed 0.9 X Track quality 100.0 % Test CRC D6FDAD3B Copy CRC D6FDAD3B Track not present in AccurateRip database Copy OK
None of the tracks are present in the AccurateRip database
No errors occurred
End of status report
==== Log checksum 06CBD21916CBC61626071EDE1FEFF7B539902FECACB0E5EDBB92E3E90F8BFDE0 ====

Лог проверки качества

AUDIOCHECKER v2.0 beta (build 457) - by Dester - opdester@freemail.hu~~~~~~~~~~~~~~~~~~~~~~~~~~~~~~~~~~-=== DO NOT EDIT THIS FILE! ===-
Path: ...\new
01 -=- 01 - L`ADN des anges.flac -=- CDDA (100%)02 -=- 02 - Nus la-bas.flac -=- CDDA (100%)03 -=- 03 - Ritournelle.flac -=- CDDA (100%)04 -=- 04 - Comment te dire.flac -=- CDDA (100%)05 -=- 05 - La bande son de ta vie.flac -=- CDDA (100%)06 -=- 06 - De ce cote-ci du bonheur.flac -=- CDDA (100%)07 -=- 07 - A l`ancienne.flac -=- CDDA (100%)08 -=- 08 - On acheve bien les regrets.flac -=- CDDA (100%)09 -=- 09 - Dedans ma radio.flac -=- CDDA (100%)10 -=- 10 - A cour ou jardin.flac -=- CDDA (100%)11 -=- 11 - Marie Laveau.flac -=- CDDA (100%)12 -=- 12 - Tes cheveux.flac -=- CDDA (100%)13 -=- 13 - Houston.flac -=- CDDA (100%)14 -=- 14 - Cadeau.flac -=- CDDA (100%)15 -=- 15 - Les ruisseaux de la colere.flac -=- CDDA (100%)16 -=- 16 - Rag pop (deluxe).flac -=- CDDA (100%)
Summary 100,00% CDDA
93637588

Об исполнителе

Tété est un chanteur français, né à Dakar, au Sénégal, le 25 juillet 1975, d'une mère antillaise et d'un père sénégalais.
Tété, né à Dakar, au Sénégal, le 25 juillet 1975, de mère antillaise et de père sénégalais. Son prénom, d'origine africaine, signifie « le guide » en wolof. En 1977, il déménage à Bordeaux pour migrer trois ans plus tard à Saint-Dizier, en Haute-Marne, dans l'est de la France. Il y passera une grande partie de sa jeunesse. Il est alors bercé par les grands jazzmen et la pop des Beatles qu'écoute sa mère. Il commence à pratiquer la musique à l’âge de 9 ans et s’inscrit dans école de musique pour apprendre le solfège et le violon.
À 16 ans, il se retrouve quelque temps immobilisé par une jambe cassée. C’est alors qu’il joue de la guitare. Peu de temps lui suffit alors pour adopter l’instrument et créer ses premières compositions inspirées par Bob Dylan, Jimi Hendrix, Bob Marley, Lenny Kravitz mais aussi Serge Gainsbourg et Queen. Deux ans plus tard, il découvre Keziah Jones : c’est le détonateur.Cette révélation l’incite à se montrer au grand jour en chantant dans des bars.
Bac « éco » en poche, il choisit à la fac la filière scientifique de Nancy. Pendant ces quatre années d'études, Tété multiplie les expériences musicales. Il découvre le jeu collectif à travers le groupe Mohonese Be Honest avant de s’exercer en solo au Twin Peaks. Il y interprète ses références anglo-saxonnes ainsi que ses premières compositions en anglais puis en français. Il prend également des cours de chant.
Arrive alors, pour la plupart des gens, le moment de chercher du travail. Mais là n’est pas l’objectif de Tété qui préfère se mettre à jouer à plein temps dans les rues et les bars. Le meilleur moyen de pratiquer la guitare c'est de devenir guitariste.
Tété décide de faire des concerts de guitare à Paris à partir de 1998. C’est toujours en solo que ce guitariste autodidacte fait son chemin en écumant les cafés et les restaurants. La qualité de ses performances et l’efficacité du bouche à oreille lui offrirent un grand public. Il est alors remarqué par un musicien. Après 3 jours d’enregistrement, il sort en 1999 un disque contenant certaines musiques « les envies », « le meilleur des mondes » et « Dodeline ». La Fnac, intéressée, décide de le distribuer.
2000 est l’année importante de ce début de carrière. À 25 ans à peine, Tété est repéré par Epic. Il s’entoure également de deux nouvelles personnes : Evymoon, qu'il a rencontré lors de ses multiples performances scéniques, et Nicolas Picard, batteur et ami de longue date. Il commence alors les concerts avec (M, Louise Attaque, Femi Kuti, Tryo…). 115 concerts en un an, dont une participation remarquée aux Francofolies de La Rochelle. France Inter ne tarde pas à le programmer sur ses ondes. Le premier disque, Préambule, sort chez Epic en novembre 2000, précédant l’album L'Air de rien en janvier 2001.
Il débute alors une nouvelle année riche en concerts (le batteur suisse Alberto Malo ayant préalablement remplacé Nicolas Picard), des affiches partagées avec entre autres Patrice et Sanseverino, de nombreux festivals, quelques dates au Québec, le tout alterné par une poignée de séances de promotion. Un public grandissant, des journalistes charmés et une certaine reconnaissance du milieu professionnel, lui valent une première nomination aux Victoires de la Musique.
Entre Paris et Montréal, 2002 est l’heure du retour à l’écriture tout en écoutant de nombreuses musiques : Nina Simone, M, Mathieu Boogaerts, Jacques Dutronc, Ryan Adams, Tom Waits, Chris Whitley, les Cardigans, Björk, des musiques 60’s et 70’s, du hip-hop, du classique, de la musique jamaïcaine… Sans oublier ses lectures : Sartre, Pennac, Kerouac, Salinger, Alphonse Allais, etc
Après une petite année d’absence, de nouvelles chansons sont testées lors d’une mini tournée solo avant l’entrée en studio pour l’enregistrement du nouvel album À la faveur de l'automne. Cet album sort en octobre 2003. Tété est nommé aux Victoires de la musique en 2004 dans la catégorie "album révélation de l'année".
En 2006 Tété sort son quatrième album, Le Sacre des lemmings et Autres Contes de la lisière.
À partir de l'été 2008, Tété ou Dédé, tel est le nom de l’émission sur France 5. Tété et le pianiste-compositeur André Manoukian ont pris la route pour un voyage à la rencontre des héritiers du jazz, du blues, du folk, du hip-hop et du rock. Il y en a pour tous les goûts ! Ce road movie, réalisé en voiture, retrace les 4 étapes des deux musiciens à New York, Miami, La Nouvelle-Orléans, San Francisco . Ils remonteront chaque semaine ensemble et expliqueront les origines d’un style musical. Ils s’entretiendront avec des artistes lors de leur voyage.
En 2009, il pose sa voix, en duo avec Bensé, sur Dans Ma Soucoupe, titre du premier album de ce dernier.
En 2010 , il enregistre une chanson avec Joyce Jonathan, intitulée Sur Mes Gardes (également titre de l'album de la chanteuse).
Discographie
2000 : Préambule
Le Magicien
Cousin Willy
Aisé
Les Rallyes
Le Magicien (vidéoclip)
2001 : L'Air de rien
Le Meilleur des Mondes
Passage Brady
Love love love
Me ressourcer
Le Magicien
Dodeline
Le Bonheur
Cousin Willy
L'Air de rien
L'abominable Hyde
Honni soit
Les Envies
Aisé
Eleanor Rigby
2003 : Par monts et vallons
Le Meilleur des Mondes
Aisé
Speech
Une bonne paire de claques
Love love love
Les Envies
À la faveur de l'automne
Redemption song
Le Magicien
2003 : À la faveur de l'automne
À la faveur de l'automne
Emma Stanton
Le Songe de marie
La Ballade de Oogie Tsuggie
Les Matins de peu
Montréal
Ton absence
Le Retour d'Ootsie-Putsie
Une bonne paire de claques
Je l'appelle de mes vœux
La Pudeur
La Tchave
Inspiration et circonstances
Le Long de la grève
Routine
Ces grands moments de solitude (L'art délicat de passer pour un con)
Flou
2006 : Le Sacre des lemmings et Autres Contes de la lisière
L’aube des lemmings (interlude)
Fils de Cham
Anna Lee soleil
Madeleine Bas-de-laine
La relance
Comme feuillets au vent
Caroline oh yeah hey !
À la vie à la mort
Le sacre des lemmings (interlude)
À flanc de certitudes
Mon trésor
Par monts et vallons (le long de la route)
Les visages et les moments
La croisée des chemins
Le crépuscule des lemmings (interlude)
2010 : Le Premier Clair de l'aube
L'envie et le dédain
Le bal des boulets
36'70
Maudit blues
Les temps égarés
Le premier clair de l'aube
1770
Doux mojo
Ad libitum
Petite chanson
Serendipity 44
Bye-bye
2013 : Nu là-bas1
L'ADN des anges
Nus là-bas
Ritournelle
Comment te dire
La bande son de ta vie
De ce côté-ci du bonheur
A l'ancienne
On achève bien les regrets
Dedans ma radio
A cour ou jardin
Marie Laveau
Tes cheveux
Houston
Cadeau
Les ruisseaux de la colère
Rag pop (Deluxe)

(.CUE)

REM GENRE "Chanson franзaise"
REM DATE 2012
REM DISCID F409F010
REM COMMENT "ExactAudioCopy v1.0b3"
PERFORMER "Tйtй"
TITLE "Nu lа-bas"
FILE "01 - L'ADN des anges.wav" WAVE
TRACK 01 AUDIO
TITLE "L'ADN des anges"
PERFORMER "Tйtй"
ISRC FR6F31201980
INDEX 01 00:00:00
FILE "02 - Nus lа-bas.wav" WAVE
TRACK 02 AUDIO
TITLE "Nus lа-bas"
PERFORMER "Tйtй"
ISRC FR6F31201680
INDEX 01 00:00:00
FILE "03 - Ritournelle.wav" WAVE
TRACK 03 AUDIO
TITLE "Ritournelle"
PERFORMER "Tйtй"
ISRC FR6F31201670
PREGAP 00:00:08
INDEX 01 00:00:00
FILE "04 - Comment te dire.wav" WAVE
TRACK 04 AUDIO
TITLE "Comment te dire"
PERFORMER "Tйtй"
ISRC FR6F31201950
PREGAP 00:00:29
INDEX 01 00:00:00
FILE "05 - La bande son de ta vie.wav" WAVE
TRACK 05 AUDIO
TITLE "La bande son de ta vie"
PERFORMER "Tйtй"
ISRC FR6F31201690
PREGAP 00:00:11
INDEX 01 00:00:00
FILE "06 - De ce cфtй-ci du bonheur.wav" WAVE
TRACK 06 AUDIO
TITLE "De ce cфtй-ci du bonheur"
PERFORMER "Tйtй"
ISRC FR6F31201930
PREGAP 00:00:13
INDEX 01 00:00:00
FILE "07 - A l'ancienne.wav" WAVE
TRACK 07 AUDIO
TITLE "A l'ancienne"
PERFORMER "Tйtй"
ISRC FR6F31201880
PREGAP 00:00:02
INDEX 01 00:00:00
FILE "08 - On achиve bien les regrets.wav" WAVE
TRACK 08 AUDIO
TITLE "On achиve bien les regrets"
PERFORMER "Tйtй"
ISRC FR6F31201970
INDEX 01 00:00:00
FILE "09 - Dedans ma radio.wav" WAVE
TRACK 09 AUDIO
TITLE "Dedans ma radio"
PERFORMER "Tйtй"
ISRC FR6F31201860
INDEX 01 00:00:00
FILE "10 - A cour ou jardin.wav" WAVE
TRACK 10 AUDIO
TITLE "A cour ou jardin"
PERFORMER "Tйtй"
ISRC FR6F31201870
PREGAP 00:00:02
INDEX 01 00:00:00
FILE "11 - Marie Laveau.wav" WAVE
TRACK 11 AUDIO
TITLE "Marie Laveau"
PERFORMER "Tйtй"
ISRC FR6F31201920
PREGAP 00:00:01
INDEX 01 00:00:00
FILE "12 - Tes cheveux.wav" WAVE
TRACK 12 AUDIO
TITLE "Tes cheveux"
PERFORMER "Tйtй"
ISRC FR6F31201700
PREGAP 00:00:01
INDEX 01 00:00:00
FILE "13 - Houston.wav" WAVE
TRACK 13 AUDIO
TITLE "Houston"
PERFORMER "Tйtй"
ISRC FR6F31201900
PREGAP 00:00:24
INDEX 01 00:00:00
FILE "14 - Cadeau.wav" WAVE
TRACK 14 AUDIO
TITLE "Cadeau"
PERFORMER "Tйtй"
ISRC FR6F31201890
PREGAP 00:00:11
INDEX 01 00:00:00
FILE "15 - Les ruisseaux de la colиre.wav" WAVE
TRACK 15 AUDIO
TITLE "Les ruisseaux de la colиre"
PERFORMER "Tйtй"
ISRC FR6F31201940
PREGAP 00:00:38
INDEX 01 00:00:00
FILE "16 - Rag pop (deluxe).wav" WAVE
TRACK 16 AUDIO
TITLE "Rag pop (deluxe)"
PERFORMER "Tйtй"
ISRC FR6F31201990
PREGAP 00:00:01
INDEX 01 00:00:00

Раздачи (Iran / India / Algeria (Этник) \\ France & ... (Зарубежный шансон))

http://********.org/forum/search.php?uid=30821356

Турецкие раздачи

http://********.org/forum/search.php?uid=26748304

To download the file disable ad blocking, and reload the page.

disable adblock How to disable ad blocking?

Download by magnet link 277 MB Download Torrent

Login using:

Загрузка...

Similar topics



   
Current time is: 16-Dec 17:45 :: All times are UTC + 3