Anne Marie Almedal / The Siren and The Sage
Жанр: Pop, Chanson, Vocal
Страна-производитель диска: Norway
Год издания: 2007
Издатель (лейбл): Warner Music Norway
Номер по каталогу: 5051442-4055-2-1
Страна: Norway
Аудиокодек: FLAC (*.flac)
Тип рипа: tracks+.cue
Битрейт аудио: lossless
Продолжительность: 00:45:35
Источник (релизер): what.cd (by fuzzfolk)
Наличие сканов в содержимом раздачи: нет
Треклист:
01. The First Picture of You 03:49
02. Trouble 04:31
03. Monterosso 05:02
04. Since Yesterday 04:29
05. Joy 04:17
06. Scarlet 04:45
07. Heaven 04:42
08. Southern Sky 05:22
09. Morning '71 03:44
10. Listen 03:23
11. Happy Ending 01:32

Лог создания рипа

Exact Audio Copy V1.0 beta 3 from 29. August 2011
EAC extraction logfile from 1. June 2013, 13:46
Anne Marie Almedal / The Siren And The Sage
Used drive : HL-DT-STDVD+-RW GA11N Adapter: 0 ID: 1
Read mode : SecureUtilize accurate stream : YesDefeat audio cache : YesMake use of C2 pointers : No
Read offset correction : 667Overread into Lead-In and Lead-Out : NoFill up missing offset samples with silence : YesDelete leading and trailing silent blocks : NoNull samples used in CRC calculations : YesUsed interface : Native Win32 interface for Win NT & 2000Gap handling : Appended to previous track
Used output format : User Defined EncoderSelected bitrate : 896 kBit/sQuality : HighAdd ID3 tag : NoCommand line compressor : C:\Program Files (x86)\Exact Audio Copy\Flac\flac.exeAdditional command line options : -V -8 -T "artist=%artist%" -T "title=%title%" -T "album=%albumtitle%" -T "date=%year%" -T "tracknumber=%tracknr%" -T "genre=%genre%" %source%
TOC of the extracted CD
Track | Start | Length | Start sector | End sector --------------------------------------------------------- 1 | 0:00.00 | 3:48.40 | 0 | 17139 2 | 3:48.40 | 4:31.04 | 17140 | 37468 3 | 8:19.44 | 5:01.72 | 37469 | 60115 4 | 13:21.41 | 4:29.11 | 60116 | 80301 5 | 17:50.52 | 4:16.48 | 80302 | 99549 6 | 22:07.25 | 4:44.64 | 99550 | 120913 7 | 26:52.14 | 4:41.69 | 120914 | 142057 8 | 31:34.08 | 5:22.00 | 142058 | 166207 9 | 36:56.08 | 3:44.07 | 166208 | 183014 10 | 40:40.15 | 3:22.68 | 183015 | 198232 11 | 44:03.08 | 1:32.27 | 198233 | 205159
Track 1
Filename C:\EACrips\Anne Marie Almedal - 2007 - The Siren And The Sage\01 - The First Picture Of You.wav
Pre-gap length 0:00:02.00
Peak level 99.8 % Extraction speed 2.3 X Track quality 100.0 % Test CRC DB7E41E5 Copy CRC DB7E41E5 Accurately ripped (confidence 4) [5D751736] (AR v1) Copy OK
Track 2
Filename C:\EACrips\Anne Marie Almedal - 2007 - The Siren And The Sage\02 - Trouble.wav
Pre-gap length 0:00:04.76
Peak level 99.8 % Extraction speed 2.7 X Track quality 100.0 % Test CRC D3156480 Copy CRC D3156480 Accurately ripped (confidence 4) [FCFE2A6C] (AR v1) Copy OK
Track 3
Filename C:\EACrips\Anne Marie Almedal - 2007 - The Siren And The Sage\03 - Monterosso.wav
Pre-gap length 0:00:04.74
Peak level 99.8 % Extraction speed 3.0 X Track quality 100.0 % Test CRC 2A111AEC Copy CRC 2A111AEC Accurately ripped (confidence 4) [854C3B31] (AR v1) Copy OK
Track 4
Filename C:\EACrips\Anne Marie Almedal - 2007 - The Siren And The Sage\04 - Since Yesterday.wav
Pre-gap length 0:00:04.77
Peak level 99.8 % Extraction speed 3.1 X Track quality 100.0 % Test CRC 3B4C3223 Copy CRC 3B4C3223 Accurately ripped (confidence 4) [EBA33D6E] (AR v1) Copy OK
Track 5
Filename C:\EACrips\Anne Marie Almedal - 2007 - The Siren And The Sage\05 - Joy.wav
Pre-gap length 0:00:04.81
Peak level 99.8 % Extraction speed 2.9 X Track quality 99.9 % Test CRC 0DC62E9C Copy CRC 0DC62E9C Accurately ripped (confidence 4) [8CE7F0B5] (AR v1) Copy OK
Track 6
Filename C:\EACrips\Anne Marie Almedal - 2007 - The Siren And The Sage\06 - Scarlet.wav
Pre-gap length 0:00:04.76
Peak level 99.8 % Extraction speed 3.2 X Track quality 99.9 % Test CRC C1F733EF Copy CRC C1F733EF Accurately ripped (confidence 4) [073A7B2B] (AR v1) Copy OK
Track 7
Filename C:\EACrips\Anne Marie Almedal - 2007 - The Siren And The Sage\07 - Heaven.wav
Pre-gap length 0:00:04.76
Peak level 99.8 % Extraction speed 4.0 X Track quality 100.0 % Test CRC 8E1586D4 Copy CRC 8E1586D4 Accurately ripped (confidence 4) [CE848434] (AR v1) Copy OK
Track 8
Filename C:\EACrips\Anne Marie Almedal - 2007 - The Siren And The Sage\08 - Southern Sky.wav
Pre-gap length 0:00:04.76
Peak level 99.8 % Extraction speed 3.9 X Track quality 99.9 % Test CRC 86F6922B Copy CRC 86F6922B Accurately ripped (confidence 4) [415BC158] (AR v1) Copy OK
Track 9
Filename C:\EACrips\Anne Marie Almedal - 2007 - The Siren And The Sage\09 - Morning '71.wav
Pre-gap length 0:00:05.04
Peak level 99.8 % Extraction speed 3.8 X Track quality 99.9 % Test CRC 611DC3C1 Copy CRC 611DC3C1 Accurately ripped (confidence 4) [A48CCF3B] (AR v1) Copy OK
Track 10
Filename C:\EACrips\Anne Marie Almedal - 2007 - The Siren And The Sage\10 - Listen.wav
Pre-gap length 0:00:04.74
Peak level 99.8 % Extraction speed 4.4 X Track quality 100.0 % Test CRC C6CB28DE Copy CRC C6CB28DE Accurately ripped (confidence 4) [816218F3] (AR v1) Copy OK
Track 11
Filename C:\EACrips\Anne Marie Almedal - 2007 - The Siren And The Sage\11 - Happy Ending.wav
Pre-gap length 0:00:04.76
Peak level 99.8 % Extraction speed 3.7 X Track quality 100.0 % Test CRC 8131F284 Copy CRC 8131F284 Accurately ripped (confidence 4) [5E6D121C] (AR v1) Copy OK
All tracks accurately ripped
No errors occurred
End of status report
---- CUETools DB Plugin V2.1.3
[CTDB TOCID: X51Zb1.5D.XlOhfS33ATwPAURIY-] found, Submit result: X51Zb1.5D.XlOhfS33ATwPAURIY- has been confirmed[1910aeea] (3/3) Accurately ripped
==== Log checksum E9C1E6D1F1DBD132466C822BE4FB314887BD23AD14CD3EC130F2E79F5CC4236D ====

Содержание индексной карты (.CUE)

REM DATE 2007REM DISCID 7F0AAF0BREM COMMENT "ExactAudioCopy v1.0b3"PERFORMER "Anne Marie Almedal"TITLE "The Siren And The Sage"FILE "01 - The First Picture Of You.flac" WAVE TRACK 01 AUDIO TITLE "The First Picture Of You" PERFORMER "Anne Marie Almedal" INDEX 01 00:00:00 TRACK 02 AUDIO TITLE "Trouble" PERFORMER "Anne Marie Almedal" INDEX 00 03:43:58FILE "02 - Trouble.flac" WAVE INDEX 01 00:00:00 TRACK 03 AUDIO TITLE "Monterosso" PERFORMER "Anne Marie Almedal" INDEX 00 04:26:23FILE "03 - Monterosso.flac" WAVE INDEX 01 00:00:00 TRACK 04 AUDIO TITLE "Since Yesterday" PERFORMER "Anne Marie Almedal" INDEX 00 04:57:14FILE "04 - Since Yesterday.flac" WAVE INDEX 01 00:00:00 TRACK 05 AUDIO TITLE "Joy" PERFORMER "Anne Marie Almedal" INDEX 00 04:24:25FILE "05 - Joy.flac" WAVE INDEX 01 00:00:00 TRACK 06 AUDIO TITLE "Scarlet" PERFORMER "Anne Marie Almedal" INDEX 00 04:11:66FILE "06 - Scarlet.flac" WAVE INDEX 01 00:00:00 TRACK 07 AUDIO TITLE "Heaven" PERFORMER "Anne Marie Almedal" INDEX 00 04:40:07FILE "07 - Heaven.flac" WAVE INDEX 01 00:00:00 TRACK 08 AUDIO TITLE "Southern Sky" PERFORMER "Anne Marie Almedal" INDEX 00 04:37:12FILE "08 - Southern Sky.flac" WAVE INDEX 01 00:00:00 TRACK 09 AUDIO TITLE "Morning '71" PERFORMER "Anne Marie Almedal" INDEX 00 05:16:72FILE "09 - Morning '71.flac" WAVE INDEX 01 00:00:00 TRACK 10 AUDIO TITLE "Listen" PERFORMER "Anne Marie Almedal" INDEX 00 03:39:26FILE "10 - Listen.flac" WAVE INDEX 01 00:00:00 TRACK 11 AUDIO TITLE "Happy Ending" PERFORMER "Anne Marie Almedal" INDEX 00 03:18:11FILE "11 - Happy Ending.flac" WAVE INDEX 01 00:00:00

Об исполнителе (группе)

From Kristiansand in Norway, this is beautiful
pop/folk with a slightly electronic feel in the
production, done by Almedal's husband - Nicholas
Sillitoe (known for
Illumination/Chilluminati/various film music).
Anne Marie Almedal is mostly known as the angelic
voice of the avant garde "ambient pop"-band Velvet
Belly http://********.org/forum/viewtopic.php?t=4118573 & http://********.org/forum/viewtopic.php?t=4118570 , and in addition did a more electronic album
with Sillitoe under the moniker AM and the UV.

To download the file disable ad blocking, and reload the page.

disable adblock How to disable ad blocking?

Download by magnet link 267 MB Download Torrent

Login using:

Загрузка...

Similar topics



   
Current time is: 15-Dec 16:33 :: All times are UTC + 3