Anne Marie Almedal / Blue Sky Blue
Жанр: Pop, Chanson, Vocal
Страна-производитель диска: Norway
Год издания: 2010
Издатель (лейбл): +47
Номер по каталогу: i+47 10/007
Страна: Norway
Аудиокодек: FLAC (*.flac)
Тип рипа: tracks+.cue
Битрейт аудио: lossless
Продолжительность: 00:50:30
Источник (релизер): what.cd (by 30000000BC)
Наличие сканов в содержимом раздачи: нет
Треклист:
01. Safe from Harm 4:19
02. I Think I Love You 4:07
03. Show More Love 4:33
04. Alone to the Chill 3:49
05. Blue Sky Blue 3:46
06. The False Alarm 3:52
07. Paint It Black 5:27
08. Dawn Chorus 3:49
09. Gardengreen 4:13
10. White Cloud 4:44
11. Seize My Heart 3:59
12. Himmelblå (Bonus Track) 3:47

Лог создания рипа

X Lossless Decoder version 20100828 (120.6)
XLD extraction logfile from 2010-08-28 21:57:44 +0200
Anne Marie Almedal / Blue Sky Blue
Used drive : HL-DT-ST DVDRW GSA-S10N (revision BP10)
Use cdparanoia mode : YES (CDParanoia III 10.2 engine)Disable audio cache : OK for the drive with cache less than 2750KBMake use of C2 pointers : NORead offset correction : 667Max retry count : 100Gap status : Analyzed, Appended (except HTOA)
TOC of the extracted CD Track | Start | Length | Start sector | End sector --------------------------------------------------------- 1 | 00:00:00 | 04:19:06 | 0 | 19430 2 | 04:19:06 | 04:07:40 | 19431 | 37995 3 | 08:26:46 | 04:33:57 | 37996 | 58527 4 | 13:00:28 | 03:49:49 | 58528 | 75751 5 | 16:50:02 | 03:46:56 | 75752 | 92757 6 | 20:36:58 | 03:52:02 | 92758 | 110159 7 | 24:28:60 | 05:27:68 | 110160 | 134752 8 | 29:56:53 | 03:49:43 | 134753 | 151970 9 | 33:46:21 | 04:13:00 | 151971 | 170945 10 | 37:59:21 | 04:44:03 | 170946 | 192248 11 | 42:43:24 | 03:59:54 | 192249 | 210227 12 | 46:43:03 | 03:47:56 | 210228 | 227308
All Tracks Album gain : -8.55 dB Peak : 0.988556
Track 01 Filename : /Users/jon/Music/rips/Anne Marie Almedal - 2010 - Blue Sky Blue/01 - Safe From Harm.flac Pre-gap length : 00:02:00
Track gain : -7.45 dB Peak : 0.971100 CRC32 hash (test run) : 192F5DC3 CRC32 hash : 192F5DC3 CRC32 hash (skip zero) : D8E6A8D9 AccurateRip signature : 87674152 ->Track not present in AccurateRip database. Statistics Read error : 0 Skipped (treated as error) : 0 Edge jitter error (maybe fixed) : 0 Atom jitter error (maybe fixed) : 0 Drift error (maybe fixed) : 0 Dropped bytes error (maybe fixed) : 0 Duplicated bytes error (maybe fixed) : 0 Inconsistency in error sectors : 0
Track 02 Filename : /Users/jon/Music/rips/Anne Marie Almedal - 2010 - Blue Sky Blue/02 - I Think I Love You.flac Pre-gap length : 00:02:46
Track gain : -9.33 dB Peak : 0.988556 CRC32 hash (test run) : A3BA9724 CRC32 hash : A3BA9724 CRC32 hash (skip zero) : 7E6BB4DD AccurateRip signature : 3F537B3D ->Track not present in AccurateRip database. Statistics Read error : 0 Skipped (treated as error) : 0 Edge jitter error (maybe fixed) : 0 Atom jitter error (maybe fixed) : 0 Drift error (maybe fixed) : 0 Dropped bytes error (maybe fixed) : 0 Duplicated bytes error (maybe fixed) : 0 Inconsistency in error sectors : 0
Track 03 Filename : /Users/jon/Music/rips/Anne Marie Almedal - 2010 - Blue Sky Blue/03 - Show More Love.flac Pre-gap length : 00:02:45
Track gain : -7.15 dB Peak : 0.971954 CRC32 hash (test run) : 1BB37F2E CRC32 hash : 1BB37F2E CRC32 hash (skip zero) : 1030A0EF AccurateRip signature : D30FCEFF ->Track not present in AccurateRip database. Statistics Read error : 0 Skipped (treated as error) : 0 Edge jitter error (maybe fixed) : 0 Atom jitter error (maybe fixed) : 0 Drift error (maybe fixed) : 0 Dropped bytes error (maybe fixed) : 0 Duplicated bytes error (maybe fixed) : 0 Inconsistency in error sectors : 0
Track 04 Filename : /Users/jon/Music/rips/Anne Marie Almedal - 2010 - Blue Sky Blue/04 - Alone To The Chill.flac Pre-gap length : 00:10:14
Track gain : -6.54 dB Peak : 0.988556 CRC32 hash (test run) : B3FF394A CRC32 hash : B3FF394A CRC32 hash (skip zero) : 77B991C3 AccurateRip signature : 2DC2419C ->Track not present in AccurateRip database. Statistics Read error : 0 Skipped (treated as error) : 0 Edge jitter error (maybe fixed) : 0 Atom jitter error (maybe fixed) : 0 Drift error (maybe fixed) : 0 Dropped bytes error (maybe fixed) : 0 Duplicated bytes error (maybe fixed) : 0 Inconsistency in error sectors : 0
Track 05 Filename : /Users/jon/Music/rips/Anne Marie Almedal - 2010 - Blue Sky Blue/05 - Blue Sky Blue.flac Pre-gap length : 00:02:44
Track gain : -8.80 dB Peak : 0.893188 CRC32 hash (test run) : 72778949 CRC32 hash : 72778949 CRC32 hash (skip zero) : 824EE0F5 AccurateRip signature : 9B68121C ->Track not present in AccurateRip database. Statistics Read error : 0 Skipped (treated as error) : 0 Edge jitter error (maybe fixed) : 0 Atom jitter error (maybe fixed) : 0 Drift error (maybe fixed) : 0 Dropped bytes error (maybe fixed) : 0 Duplicated bytes error (maybe fixed) : 0 Inconsistency in error sectors : 0
Track 06 Filename : /Users/jon/Music/rips/Anne Marie Almedal - 2010 - Blue Sky Blue/06 - The False Alarm.flac Pre-gap length : 00:02:57
Track gain : -7.37 dB Peak : 0.988495 CRC32 hash (test run) : DAB9B2FF CRC32 hash : DAB9B2FF CRC32 hash (skip zero) : E390D0A9 AccurateRip signature : DC351DF1 ->Track not present in AccurateRip database. Statistics Read error : 0 Skipped (treated as error) : 0 Edge jitter error (maybe fixed) : 0 Atom jitter error (maybe fixed) : 0 Drift error (maybe fixed) : 0 Dropped bytes error (maybe fixed) : 0 Duplicated bytes error (maybe fixed) : 0 Inconsistency in error sectors : 0
Track 07 Filename : /Users/jon/Music/rips/Anne Marie Almedal - 2010 - Blue Sky Blue/07 - Paint It Black.flac Pre-gap length : 00:02:46
Track gain : -8.65 dB Peak : 0.988556 CRC32 hash (test run) : 403F3B23 CRC32 hash : 403F3B23 CRC32 hash (skip zero) : 9345FF1E AccurateRip signature : E511E748 ->Track not present in AccurateRip database. Statistics Read error : 0 Skipped (treated as error) : 0 Edge jitter error (maybe fixed) : 0 Atom jitter error (maybe fixed) : 0 Drift error (maybe fixed) : 0 Dropped bytes error (maybe fixed) : 0 Duplicated bytes error (maybe fixed) : 0 Inconsistency in error sectors : 0
Track 08 Filename : /Users/jon/Music/rips/Anne Marie Almedal - 2010 - Blue Sky Blue/08 - Dawn Chorus.flac Pre-gap length : 00:02:47
Track gain : -7.54 dB Peak : 0.988556 CRC32 hash (test run) : B83966C5 CRC32 hash : B83966C5 CRC32 hash (skip zero) : 8ABC04E3 AccurateRip signature : ADDA4887 ->Track not present in AccurateRip database. Statistics Read error : 0 Skipped (treated as error) : 0 Edge jitter error (maybe fixed) : 0 Atom jitter error (maybe fixed) : 0 Drift error (maybe fixed) : 0 Dropped bytes error (maybe fixed) : 0 Duplicated bytes error (maybe fixed) : 0 Inconsistency in error sectors : 0
Track 09 Filename : /Users/jon/Music/rips/Anne Marie Almedal - 2010 - Blue Sky Blue/09 - Gardengreen.flac Pre-gap length : 00:02:45
Track gain : -8.21 dB Peak : 0.988556 CRC32 hash (test run) : E6E11EB7 CRC32 hash : E6E11EB7 CRC32 hash (skip zero) : DC0C3931 AccurateRip signature : 95C86BDC ->Track not present in AccurateRip database. Statistics Read error : 0 Skipped (treated as error) : 0 Edge jitter error (maybe fixed) : 0 Atom jitter error (maybe fixed) : 0 Drift error (maybe fixed) : 0 Dropped bytes error (maybe fixed) : 0 Duplicated bytes error (maybe fixed) : 0 Inconsistency in error sectors : 0
Track 10 Filename : /Users/jon/Music/rips/Anne Marie Almedal - 2010 - Blue Sky Blue/10 - White Cloud.flac Pre-gap length : 00:02:39
Track gain : -9.28 dB Peak : 0.985809 CRC32 hash (test run) : 4CB633E3 CRC32 hash : 4CB633E3 CRC32 hash (skip zero) : D1D7F672 AccurateRip signature : 298DD5B4 ->Track not present in AccurateRip database. Statistics Read error : 0 Skipped (treated as error) : 0 Edge jitter error (maybe fixed) : 0 Atom jitter error (maybe fixed) : 0 Drift error (maybe fixed) : 0 Dropped bytes error (maybe fixed) : 0 Duplicated bytes error (maybe fixed) : 0 Inconsistency in error sectors : 0
Track 11 Filename : /Users/jon/Music/rips/Anne Marie Almedal - 2010 - Blue Sky Blue/11 - Seize My Heart.flac Pre-gap length : 00:02:49
Track gain : -8.75 dB Peak : 0.988556 CRC32 hash (test run) : 8441391B CRC32 hash : 8441391B CRC32 hash (skip zero) : 03D894F5 AccurateRip signature : 63ED91EB ->Track not present in AccurateRip database. Statistics Read error : 0 Skipped (treated as error) : 0 Edge jitter error (maybe fixed) : 0 Atom jitter error (maybe fixed) : 0 Drift error (maybe fixed) : 0 Dropped bytes error (maybe fixed) : 0 Duplicated bytes error (maybe fixed) : 0 Inconsistency in error sectors : 0
Track 12 Filename : /Users/jon/Music/rips/Anne Marie Almedal - 2010 - Blue Sky Blue/12 - Himmelblå.flac Pre-gap length : 00:03:62
Track gain : -8.53 dB Peak : 0.893311 CRC32 hash (test run) : 83AAFE43 CRC32 hash : 83AAFE43 CRC32 hash (skip zero) : 634ABD3B AccurateRip signature : BB5D600F ->Track not present in AccurateRip database. Statistics Read error : 0 Skipped (treated as error) : 0 Edge jitter error (maybe fixed) : 0 Atom jitter error (maybe fixed) : 0 Drift error (maybe fixed) : 0 Dropped bytes error (maybe fixed) : 0 Duplicated bytes error (maybe fixed) : 0 Inconsistency in error sectors : 0
No errors occurred
End of status report

Содержание индексной карты (.CUE)

TITLE "Blue Sky Blue"PERFORMER "Anne Marie Almedal"REM GENRE "Pop"REM DATE 2010REM DISCNUMBER 1REM TOTALDISCS 1REM DISCID 9A0BD60CFILE "01 - Safe From Harm.wav" WAVE TRACK 01 AUDIO TITLE "Safe From Harm" ISRC NODAJ1002010 INDEX 01 00:00:00 TRACK 02 AUDIO TITLE "I Think I Love You" ISRC NODAJ1002020 INDEX 00 04:16:35FILE "02 - I Think I Love You.wav" WAVE INDEX 01 00:00:00 TRACK 03 AUDIO TITLE "Show More Love" ISRC NODAJ1002030 INDEX 00 04:04:70FILE "03 - Show More Love.wav" WAVE INDEX 01 00:00:00 TRACK 04 AUDIO TITLE "Alone To The Chill" ISRC NODAJ1002040 INDEX 00 04:23:43FILE "04 - Alone To The Chill.wav" WAVE INDEX 01 00:00:00 TRACK 05 AUDIO TITLE "Blue Sky Blue" ISRC NODAJ0701120 INDEX 00 03:47:05FILE "05 - Blue Sky Blue.wav" WAVE INDEX 01 00:00:00 TRACK 06 AUDIO TITLE "The False Alarm" ISRC NODAJ1002050 INDEX 00 03:43:74FILE "06 - The False Alarm.wav" WAVE INDEX 01 00:00:00 TRACK 07 AUDIO TITLE "Paint It Black" ISRC NODAJ1002060 INDEX 00 03:49:31FILE "07 - Paint It Black.wav" WAVE INDEX 01 00:00:00 TRACK 08 AUDIO TITLE "Dawn Chorus" ISRC NODAJ1002070 INDEX 00 05:25:21FILE "08 - Dawn Chorus.wav" WAVE INDEX 01 00:00:00 TRACK 09 AUDIO TITLE "Gardengreen" ISRC NODAJ1002080 INDEX 00 03:46:73FILE "09 - Gardengreen.wav" WAVE INDEX 01 00:00:00 TRACK 10 AUDIO TITLE "White Cloud" ISRC NODAJ1002190 INDEX 00 04:10:36FILE "10 - White Cloud.wav" WAVE INDEX 01 00:00:00 TRACK 11 AUDIO TITLE "Seize My Heart" ISRC NODAJ0701121 INDEX 00 04:41:29FILE "11 - Seize My Heart.wav" WAVE INDEX 01 00:00:00 TRACK 12 AUDIO TITLE "Himmelblå" ISRC NODAJ0701121 INDEX 00 03:55:67FILE "12 - Himmelblå.wav" WAVE INDEX 01 00:00:00

Об исполнителе (группе)

Something special for music lovers...
Anne Marie Almedal, the folk-pop femme fatale and soundtrack maestro with a voice so beautiful that time stands still...
After years of wonder, fronting the art-pop band Velvet Belly, Anne Marie returns centre stage with a hotly-tipped new album ”Blue Sky Blue” and stunning concert film ”Live At Aladdin”.
Following up from her soon-to-be-classic album ”The Siren and The Sage” in 2007, her massive hit theme-song to Norway ́s most watched TV drama ever ”Himmelblå”...
Anne Marie has once again teamed up with producer and film-composer Nicholas Sillitoe, recording a wonderful new collection of songs in both London and Kristiansand.
”Blue Sky Blue” also features the one and only Danny Thompson, the legendary british bassist who has played with the all-time who ́s who of folk-pop...Nick Drake, John Martyn, Kate Bush, Talk Talk, Everything But The Girl...
Timeless songs, timeless music, and a voice to haunt you...
Anne Marie will be giving a rare live performance with Danny Thompson at the Hove Festival this summer, already tipped in the British press to be one of the best festivals in Europe!

To download the file disable ad blocking, and reload the page.

disable adblock How to disable ad blocking?

Download by magnet link 313 MB Download Torrent

Login using:

Similar topics



   
Current time is: 18-Oct 05:36 :: All times are UTC ± 0