Italia amore Mio
Жанр: Chanson
Страна-производитель диска: Italia
Год издания: 2012
Издатель (лейбл): Sony music
Номер по каталогу: 88691972842
Страна: Italia
Аудиокодек: FLAC (*.flac)
Тип рипа: image+.cue
Битрейт аудио: lossless
Продолжительность: 01:48:08
Источник (релизер): Собственный рип
Наличие сканов в содержимом раздачи: да

Треклист:CD 1

CD 1: Various - Italia amore mio
01. Domenico Modugno / Nel blu dipinto di blu [0:02:01.07]
02. Renato Rascel / Arrivederci Roma [0:03:31.49]
03. Gino Del Vescovo / Torna a Surriento [0:03:19.56]
04. Domenico Modugno / Piove [0:02:21.62]
05. Stelvio Cipriani / Anonimo Veneziano [0:05:32.02]
06. Marino Marini / Marina [0:02:57.41]
07. Tony Renis / Quando Quando Quando [0:02:43.38]
08. Domenico Modugno / Amara terra mia [0:03:17.39]
09. Gino Del Vescovo / O sole mio [0:03:10.07]
10. Umberto Bindi / Arrivederci [0:02:14.20]
11. Gianni Morandi / Parla piu piano [0:02:59.42]
12. Jimmy Fontana / Che Sara [0:03:17.61][/pre]

CD 2

CD 2: Various - Italia amore mio
01. Marino Marini / La piu bella del mondo [0:03:04.58]
02. Nilla Pizzi / Grazie dei fiori [0:04:10.66]
03. Lando Fiorini / Roma nun fa la stupida stasera [0:02:43.31]
04. Gino Del Vescovo / Funiculi funicula [0:02:31.27]
05. Nini Rosso / Non ti scordar di me [0:02:46.05]
06. Nilla Pizzi / Mamma [0:02:37.26]
07. Gino Del Vescovo / Santa Lucia [0:03:01.24]
08. Fausto Papetti / Amore scusami [0:02:51.02]
09. Gianni Morandi / Tu che M`hai preso il cuor [0:02:33.00]
10. Tony Renis / Grande grande grande [0:04:07.68]
11. Nicola Di Bari / Paese [0:03:56.01]
12. Gabriella Ferri / Sempre [0:02:52.50]

CD 3

CD 3: Various - Italia amore mio
01. Quartetto Cetra / Nella vecchia fattoria [0:02:44.61]
02. Marino Marini / Guarda che luna [0:02:20.46]
03. Vittorio de Sica / Munasterio `e santa chiara [0:03:56.73]
04. Teddy Reno / Piccolissima serenata [0:02:37.35]
05. Bruno Quirinetta / Voga voga cocola [0:02:28.19]
06. Quartetto Cetra / Ciao mama [0:02:11.26]
07. Nicola Arigliano / A tazza `e caffe [0:02:18.54]
08. Alida Chelli / Sinno me moro [0:02:21.35]
09. Sofia Loren / Che m`e `mparato a ffa [0:03:09.23]
10. Nini Rosso / La ballata della tromba [0:02:57.24]
11. Ernesto Bonino / Piccola Italy [0:03:05.03]
12. Teddy Reno / In cerca di te [0:03:16.60]

Лог создания рипаОтчёт EAC CD 1

Exact Audio Copy V1.0 beta 3 from 29. August 2011
Отчёт EAC об извлечении, выполненном 31. мая 2013, 20:38
Various / Italia amore mio
Дисковод: MATSHITADVD-RAM UJ890AS Adapter: 0 ID: 1
Режим чтения : ДостоверностьИспользование точного потока : ДаОтключение кэша аудио : ДаИспользование указателей C2 : Нет
Коррекция смещения при чтении : 102Способность читать области Lead-in и Lead-out : НетЗаполнение пропущенных сэмплов тишиной : ДаУдаление блоков с тишиной в начале и конце : НетПри вычислениях CRC использовались нулевые сэмплы : ДаИнтерфейс : Встроенный Win32-интерфейс для Win NT/2000
Выходной формат : Внутренние WAV-операцииФормат сэмплов : 44.100 Гц; 16 бит; стерео
TOC извлечённого CD
Трек | Старт | Длительность | Начальный сектор | Конечный сектор --------------------------------------------------------------------- 1 | 0:00.00 | 2:01.07 | 0 | 9081 2 | 2:01.07 | 3:31.49 | 9082 | 24955 3 | 5:32.56 | 3:19.56 | 24956 | 39936 4 | 8:52.37 | 2:21.62 | 39937 | 50573 5 | 11:14.24 | 5:32.02 | 50574 | 75475 6 | 16:46.26 | 2:57.41 | 75476 | 88791 7 | 19:43.67 | 2:43.38 | 88792 | 101054 8 | 22:27.30 | 3:17.39 | 101055 | 115868 9 | 25:44.69 | 3:10.07 | 115869 | 130125 10 | 28:55.01 | 2:14.20 | 130126 | 140195 11 | 31:09.21 | 2:59.42 | 140196 | 153662 12 | 34:08.63 | 3:17.61 | 153663 | 168498
Характеристики диапазона извлечения и сообщения об ошибках
Выбранный диапазон
Имя файла D:\Загрузка\Italia amore mio\CD 1\Various - Italia amore mio.wav
Пиковый уровень 99.4 % Скорость извлечения 2.2 X Качество диапазона 99.9 % CRC теста 99BF5470 CRC копии 99BF5470 Копирование... OK
Ошибок не произошло
AccurateRip: сводка
Трек 1 отсутствует в базе данныхТрек 2 отсутствует в базе данныхТрек 3 отсутствует в базе данныхТрек 4 отсутствует в базе данныхТрек 5 отсутствует в базе данныхТрек 6 отсутствует в базе данныхТрек 7 отсутствует в базе данныхТрек 8 отсутствует в базе данныхТрек 9 отсутствует в базе данныхТрек 10 отсутствует в базе данныхТрек 11 отсутствует в базе данныхТрек 12 отсутствует в базе данных
Ни одного трека нет в базе AccurateRip
Конец отчёта

Отчёт EAC CD 2

Exact Audio Copy V1.0 beta 3 from 29. August 2011
Отчёт EAC об извлечении, выполненном 31. мая 2013, 22:08
Various / Italia amore mio
Дисковод: MATSHITADVD-RAM UJ890AS Adapter: 0 ID: 1
Режим чтения : ДостоверностьИспользование точного потока : ДаОтключение кэша аудио : ДаИспользование указателей C2 : Нет
Коррекция смещения при чтении : 102Способность читать области Lead-in и Lead-out : НетЗаполнение пропущенных сэмплов тишиной : ДаУдаление блоков с тишиной в начале и конце : НетПри вычислениях CRC использовались нулевые сэмплы : ДаИнтерфейс : Встроенный Win32-интерфейс для Win NT/2000
Выходной формат : Внутренние WAV-операцииФормат сэмплов : 44.100 Гц; 16 бит; стерео
TOC извлечённого CD
Трек | Старт | Длительность | Начальный сектор | Конечный сектор --------------------------------------------------------------------- 1 | 0:00.00 | 3:04.58 | 0 | 13857 2 | 3:04.58 | 4:10.66 | 13858 | 32673 3 | 7:15.49 | 2:43.31 | 32674 | 44929 4 | 9:59.05 | 2:31.27 | 44930 | 56281 5 | 12:30.32 | 2:46.05 | 56282 | 68736 6 | 15:16.37 | 2:37.26 | 68737 | 80537 7 | 17:53.63 | 3:01.24 | 80538 | 94136 8 | 20:55.12 | 2:51.02 | 94137 | 106963 9 | 23:46.14 | 2:33.00 | 106964 | 118438 10 | 26:19.14 | 4:07.68 | 118439 | 137031 11 | 30:27.07 | 3:56.01 | 137032 | 154732 12 | 34:23.08 | 2:52.50 | 154733 | 167682
Характеристики диапазона извлечения и сообщения об ошибках
Выбранный диапазон
Имя файла D:\Загрузка\Italia amore mio\CD 2\Various - Italia amore mio.wav
Пиковый уровень 100.0 % Скорость извлечения 2.2 X Качество диапазона 100.0 % CRC теста F33908C4 CRC копии F33908C4 Копирование... OK
Ошибок не произошло
AccurateRip: сводка
Трек 1 отсутствует в базе данныхТрек 2 отсутствует в базе данныхТрек 3 отсутствует в базе данныхТрек 4 отсутствует в базе данныхТрек 5 отсутствует в базе данныхТрек 6 отсутствует в базе данныхТрек 7 отсутствует в базе данныхТрек 8 отсутствует в базе данныхТрек 9 отсутствует в базе данныхТрек 10 отсутствует в базе данныхТрек 11 отсутствует в базе данныхТрек 12 отсутствует в базе данных
Ни одного трека нет в базе AccurateRip
Конец отчёта

Отчёт EAC CD 3

Exact Audio Copy V1.0 beta 3 from 29. August 2011
Отчёт EAC об извлечении, выполненном 31. мая 2013, 23:00
Various / Italia amore mio
Дисковод: MATSHITADVD-RAM UJ890AS Adapter: 0 ID: 1
Режим чтения : ДостоверностьИспользование точного потока : ДаОтключение кэша аудио : ДаИспользование указателей C2 : Нет
Коррекция смещения при чтении : 102Способность читать области Lead-in и Lead-out : НетЗаполнение пропущенных сэмплов тишиной : ДаУдаление блоков с тишиной в начале и конце : НетПри вычислениях CRC использовались нулевые сэмплы : ДаИнтерфейс : Встроенный Win32-интерфейс для Win NT/2000
Выходной формат : Внутренние WAV-операцииФормат сэмплов : 44.100 Гц; 16 бит; стерео
TOC извлечённого CD
Трек | Старт | Длительность | Начальный сектор | Конечный сектор --------------------------------------------------------------------- 1 | 0:00.00 | 2:44.61 | 0 | 12360 2 | 2:44.61 | 2:20.46 | 12361 | 22906 3 | 5:05.32 | 3:56.73 | 22907 | 40679 4 | 9:02.30 | 2:37.35 | 40680 | 52489 5 | 11:39.65 | 2:28.19 | 52490 | 63608 6 | 14:08.09 | 2:11.26 | 63609 | 73459 7 | 16:19.35 | 2:18.54 | 73460 | 83863 8 | 18:38.14 | 2:21.35 | 83864 | 94473 9 | 20:59.49 | 3:09.23 | 94474 | 108671 10 | 24:08.72 | 2:57.24 | 108672 | 121970 11 | 27:06.21 | 3:05.03 | 121971 | 135848 12 | 30:11.24 | 3:16.60 | 135849 | 150608
Характеристики диапазона извлечения и сообщения об ошибках
Выбранный диапазон
Имя файла D:\Загрузка\Italia amore mio\CD 3\Various - Italia amore mio.wav
Пиковый уровень 100.0 % Скорость извлечения 2.2 X Качество диапазона 100.0 % CRC теста C4EA704A CRC копии C4EA704A Копирование... OK
Ошибок не произошло
AccurateRip: сводка
Трек 1 отсутствует в базе данныхТрек 2 отсутствует в базе данныхТрек 3 отсутствует в базе данныхТрек 4 отсутствует в базе данныхТрек 5 отсутствует в базе данныхТрек 6 отсутствует в базе данныхТрек 7 отсутствует в базе данныхТрек 8 отсутствует в базе данныхТрек 9 отсутствует в базе данныхТрек 10 отсутствует в базе данныхТрек 11 отсутствует в базе данныхТрек 12 отсутствует в базе данных
Ни одного трека нет в базе AccurateRip
Конец отчёта

Содержание индексной карты (.CUE)CD 1

REM DATE 2012REM DISCID 9408C60CREM COMMENT "ExactAudioCopy v1.0b3"PERFORMER "Various"TITLE "Italia amore mio"FILE "Various - Italia amore mio.wav" WAVE TRACK 01 AUDIO TITLE "Nel blu dipinto di blu" PERFORMER "Domenico Modugno" FLAGS DCP INDEX 01 00:00:00 TRACK 02 AUDIO TITLE "Arrivederci Roma" PERFORMER "Renato Rascel" FLAGS DCP INDEX 01 02:01:07 TRACK 03 AUDIO TITLE "Torna a Surriento" PERFORMER "Gino Del Vescovo" FLAGS DCP INDEX 01 05:32:56 TRACK 04 AUDIO TITLE "Piove" PERFORMER "Domenico Modugno" FLAGS DCP INDEX 01 08:52:37 TRACK 05 AUDIO TITLE "Anonimo Veneziano" PERFORMER "Stelvio Cipriani" FLAGS DCP INDEX 01 11:14:24 TRACK 06 AUDIO TITLE "Marina" PERFORMER "Marino Marini" FLAGS DCP INDEX 01 16:46:26 TRACK 07 AUDIO TITLE "Quando Quando Quando" PERFORMER "Tony Renis" FLAGS DCP INDEX 01 19:43:67 TRACK 08 AUDIO TITLE "Amara terra mia" PERFORMER "Domenico Modugno" FLAGS DCP INDEX 01 22:27:30 TRACK 09 AUDIO TITLE "O sole mio" PERFORMER "Gino Del Vescovo" FLAGS DCP INDEX 01 25:44:69 TRACK 10 AUDIO TITLE "Arrivederci" PERFORMER "Umberto Bindi" FLAGS DCP INDEX 01 28:55:01 TRACK 11 AUDIO TITLE "Parla piu piano" PERFORMER "Gianni Morandi" FLAGS DCP INDEX 01 31:09:21 TRACK 12 AUDIO TITLE "Che Sara" PERFORMER "Jimmy Fontana" FLAGS DCP INDEX 01 34:08:63

CD 2

REM DATE 2012REM DISCID A108BB0CREM COMMENT "ExactAudioCopy v1.0b3"PERFORMER "Various"TITLE "Italia amore mio"FILE "Various - Italia amore mio.wav" WAVE TRACK 01 AUDIO TITLE "La piu bella del mondo" PERFORMER "Marino Marini" FLAGS DCP INDEX 01 00:00:00 TRACK 02 AUDIO TITLE "Grazie dei fiori" PERFORMER "Nilla Pizzi" FLAGS DCP INDEX 01 03:04:58 TRACK 03 AUDIO TITLE "Roma nun fa la stupida stasera" PERFORMER "Lando Fiorini" FLAGS DCP INDEX 01 07:15:49 TRACK 04 AUDIO TITLE "Funiculi funicula" PERFORMER "Gino Del Vescovo" FLAGS DCP INDEX 01 09:59:05 TRACK 05 AUDIO TITLE "Non ti scordar di me" PERFORMER "Nini Rosso" FLAGS DCP INDEX 01 12:30:32 TRACK 06 AUDIO TITLE "Mamma" PERFORMER "Nilla Pizzi" FLAGS DCP INDEX 01 15:16:37 TRACK 07 AUDIO TITLE "Santa Lucia" PERFORMER "Gino Del Vescovo" FLAGS DCP INDEX 01 17:53:63 TRACK 08 AUDIO TITLE "Amore scusami" PERFORMER "Fausto Papetti" FLAGS DCP INDEX 01 20:55:12 TRACK 09 AUDIO TITLE "Tu che M`hai preso il cuor" PERFORMER "Gianni Morandi" FLAGS DCP INDEX 01 23:46:14 TRACK 10 AUDIO TITLE "Grande grande grande" PERFORMER "Tony Renis" FLAGS DCP INDEX 01 26:19:14 TRACK 11 AUDIO TITLE "Paese" PERFORMER "Nicola Di Bari" FLAGS DCP INDEX 01 30:27:07 TRACK 12 AUDIO TITLE "Sempre" PERFORMER "Gabriella Ferri" FLAGS DCP INDEX 01 34:23:08

CD 3

REM GENRE ChansonREM DATE 2012REM DISCID 8307D80CREM COMMENT "ExactAudioCopy v1.0b3"PERFORMER "Various"TITLE "Italia amore mio"FILE "Various - Italia amore mio.wav" WAVE TRACK 01 AUDIO TITLE "Nella vecchia fattoria" PERFORMER "Quartetto Cetra" FLAGS DCP INDEX 01 00:00:00 TRACK 02 AUDIO TITLE "Guarda che luna" PERFORMER "Marino Marini" FLAGS DCP INDEX 01 02:44:61 TRACK 03 AUDIO TITLE "Munasterio `e santa chiara" PERFORMER "Vittorio de Sica" FLAGS DCP INDEX 01 05:05:32 TRACK 04 AUDIO TITLE "Piccolissima serenata" PERFORMER "Teddy Reno" FLAGS DCP INDEX 01 09:02:30 TRACK 05 AUDIO TITLE "Voga voga cocola" PERFORMER "Bruno Quirinetta" FLAGS DCP INDEX 01 11:39:65 TRACK 06 AUDIO TITLE "Ciao mama" PERFORMER "Quartetto Cetra" FLAGS DCP INDEX 01 14:08:09 TRACK 07 AUDIO TITLE "A tazza `e caffe" PERFORMER "Nicola Arigliano" FLAGS DCP INDEX 01 16:19:35 TRACK 08 AUDIO TITLE "Sinno me moro" PERFORMER "Alida Chelli" FLAGS DCP INDEX 01 18:38:14 TRACK 09 AUDIO TITLE " Che m`e `mparato a ffa" PERFORMER "Sofia Loren" FLAGS DCP INDEX 01 20:59:49 TRACK 10 AUDIO TITLE "La ballata della tromba" PERFORMER "Nini Rosso" FLAGS DCP INDEX 01 24:08:72 TRACK 11 AUDIO TITLE "Piccola Italy" PERFORMER "Ernesto Bonino" FLAGS DCP INDEX 01 27:06:21 TRACK 12 AUDIO TITLE "In cerca di te" PERFORMER "Teddy Reno" FLAGS DCP INDEX 01 30:11:24

Для скачивания файла отключите блокировку рекламы и перезагрузите страницу.

disable adblock Как отключить блокировку рекламы?

Скачать по магнет ссылке 681 MB 

Войти с помощью:

Загрузка...
Загрузка...

Похожие раздачи

(Pop) VA - Italo Hits - Canzoni D\'Amore (3CD) - 2007, MP3 (tracks), 320 kbps
 421 MB   0 | 0   06-Июн-17 23:22   1
(French Chanson) Barbara Carlotti - L\'ideal - 2008, FLAC (image+.cue) lossless
 214 MB   0 | 0   30-Апр-17 21:46   0


   
Текущее время: 14-Авг 15:25 :: Часовой пояс: UTC ± 0