Reinhard Mey / 18 Albums
Жанр: Pop, Chanson
Страна-производитель диска: Germany
Год издания: 1970-2010
Издатель (лейбл): EMI (Universal)
Страна: Germany
Аудиокодек: FLAC (*.flac)
Тип рипа: image+.cue
Битрейт аудио: lossless
Источник (релизер): мой рип
Наличие сканов в содержимом раздачи: нет

Albums2010 Mairegen

Треклист:
Reinhard Mey - "Mairegen" (2010)
Tracks: 14
Total time: 61:03
Year: 2010
Disc-ID: misc / bd0e550e
1. Antje 5:08
2. Das erste Mal 5:59
3. Gegen den Wind 3:46
4. Gute Seele 6:01
5. Ficus Benjamini 4:52
6. Nachtflug 4:11
7. Drachenblut 4:10
8. Mairegen 3:20
9. Rotten Radish Skiffle Guys 3:45
10. Larissas Traum 4:53
11. Spring auf den blanken Stein 3:48
12. Das Butterbrot 4:56
13. Wir sind eins 4:10
14. Was keiner wagt 2:04

Лог создания рипа

Exact Audio Copy V1.0 beta 3 from 29. August 2011
EAC extraction logfile from 12. March 2013, 20:15
Reinhard Mey / Mairegen
Used drive : PLEXTOR DVDR PX-712A Adapter: 1 ID: 0
Read mode : SecureUtilize accurate stream : YesDefeat audio cache : YesMake use of C2 pointers : No
Read offset correction : 30Overread into Lead-In and Lead-Out : NoFill up missing offset samples with silence : YesDelete leading and trailing silent blocks : NoNull samples used in CRC calculations : YesUsed interface : Native Win32 interface for Win NT & 2000
Used output format : Internal WAV RoutinesSample format : 44.100 Hz; 16 Bit; Stereo
TOC of the extracted CD
Track | Start | Length | Start sector | End sector --------------------------------------------------------- 1 | 0:00.00 | 5:08.53 | 0 | 23152 2 | 5:08.53 | 5:59.17 | 23153 | 50094 3 | 11:07.70 | 3:46.49 | 50095 | 67093 4 | 14:54.44 | 6:01.48 | 67094 | 94216 5 | 20:56.17 | 4:52.21 | 94217 | 116137 6 | 25:48.38 | 4:11.00 | 116138 | 134962 7 | 29:59.38 | 4:10.74 | 134963 | 153786 8 | 34:10.37 | 3:20.44 | 153787 | 168830 9 | 37:31.06 | 3:45.39 | 168831 | 185744 10 | 41:16.45 | 4:53.01 | 185745 | 207720 11 | 46:09.46 | 3:48.40 | 207721 | 224860 12 | 49:58.11 | 4:56.67 | 224861 | 247127 13 | 54:55.03 | 4:10.02 | 247128 | 265879 14 | 59:05.05 | 2:04.51 | 265880 | 275230
Range status and errors
Selected range
Filename C:\Halle\Reinhard Mey - Mairegen.wav
Peak level 99.8 % Extraction speed 10.5 X Range quality 100.0 % Test CRC D9AE2D1D Copy CRC D9AE2D1D Copy OK
No errors occurred
AccurateRip summary
Track 1 accurately ripped (confidence 12) [FAD0EC6B] (AR v2)Track 2 accurately ripped (confidence 12) [09A528B9] (AR v2)Track 3 accurately ripped (confidence 12) [0863DADB] (AR v2)Track 4 accurately ripped (confidence 12) [E2B4534D] (AR v2)Track 5 accurately ripped (confidence 12) [0BC91164] (AR v2)Track 6 accurately ripped (confidence 12) [2BA7DFBD] (AR v2)Track 7 accurately ripped (confidence 12) [1C86DA33] (AR v2)Track 8 accurately ripped (confidence 12) [0C5A93CA] (AR v2)Track 9 accurately ripped (confidence 12) [37B357C4] (AR v2)Track 10 accurately ripped (confidence 12) [81C1349D] (AR v2)Track 11 accurately ripped (confidence 12) [9B8C36CD] (AR v2)Track 12 accurately ripped (confidence 12) [D7945087] (AR v2)Track 13 accurately ripped (confidence 12) [3B65B34C] (AR v2)Track 14 accurately ripped (confidence 12) [40B279EE] (AR v2)
All tracks accurately ripped
End of status report
==== Log checksum 7CADB32C16C1749E8732BEA8312B30B024A6EBDC359904ECC85F973336AA7725 ====

Лог проверки качества

-----------------------
DON'T MODIFY THIS FILE
-----------------------
PERFORMER: auCDtect Task Manager, ver. 1.5.1RC6 build 1.5.1.7Copyright (c) 2008-2010 y-soft. All rights reservedhttp://y-soft.org
ANALYZER: auCDtect: CD records authenticity detector, version 0.8.2Copyright (c) 2004 Oleg Berngardt. All rights reserved.Copyright (c) 2004 Alexander Djourik. All rights reserved.
FILE: Reinhard Mey - Mairegen.flac Size: 329203207 Hash: 49B8DA76F45E7D6498FAE9477601532E Accuracy: -m0 Conclusion: CDDA 99% Signature: C398417A97AD1910F8620D1B0253A95EB563DCEA
[CUETools log; Date: 24.03.2013 16:17:21; Version: 2.1.4][CTDB TOCID: _8mrTy6EpevhSjWroak0vr2xfRE-] found.Track | CTDB Status 1 | (34/35) Accurately ripped 2 | (35/35) Accurately ripped 3 | (35/35) Accurately ripped 4 | (35/35) Accurately ripped 5 | (35/35) Accurately ripped 6 | (35/35) Accurately ripped 7 | (35/35) Accurately ripped 8 | (35/35) Accurately ripped 9 | (35/35) Accurately ripped 10 | (34/35) Accurately ripped 11 | (35/35) Accurately ripped 12 | (35/35) Accurately ripped 13 | (35/35) Accurately ripped 14 | (35/35) Accurately ripped[AccurateRip ID: 0021cbbc-01627c47-bd0e550e] found.Track [ CRC | V2 ] Status 01 [ebc57631|fad0ec6b] (51+12/63) Accurately ripped 02 [3debe646|09a528b9] (52+12/64) Accurately ripped 03 [d546faab|0863dadb] (53+12/65) Accurately ripped 04 [71db94ce|e2b4534d] (52+12/64) Accurately ripped 05 [5789accc|0bc91164] (52+12/64) Accurately ripped 06 [8478b5f0|2ba7dfbd] (52+12/64) Accurately ripped 07 [599e0339|1c86da33] (52+12/64) Accurately ripped 08 [4d626bef|0c5a93ca] (52+12/64) Accurately ripped 09 [bfdcace3|37b357c4] (52+12/64) Accurately ripped 10 [2ac1c2ac|81c1349d] (51+12/63) Accurately ripped 11 [135144a4|9b8c36cd] (52+12/64) Accurately ripped 12 [be005fc7|d7945087] (52+12/64) Accurately ripped 13 [2f524425|3b65b34c] (52+12/64) Accurately ripped 14 [716c1c5b|40b279ee] (52+12/64) Accurately ripped
Track Peak [ CRC32 ] [W/O NULL] [ LOG ] -- 99,8 [D9AE2D1D] [C53FE6BD] CRC32 01 97,9 [22269EF4] [54E98086] 02 97,7 [A1FA67EE] [C2A17C1F] 03 98,6 [26E494D8] [662C2858] 04 97,9 [427B154B] [273113B8] 05 97,8 [7A822118] [DB788374] 06 98,1 [89CCD47A] [36352F1B] 07 97,7 [165E4E42] [D5E6343C] 08 97,8 [33B00E84] [8D885061] 09 99,5 [CB5FB310] [8F8127A3] 10 99,8 [B11C35EB] [20BF8F1A] 11 97,9 [AAC52564] [9087856B] 12 97,7 [405DCAE6] [D64D08E6] 13 97,7 [27D729BB] [0FCE2F2E] 14 97,7 [7E8453BB] [E377DF5D]

2007 Bunter Hund

Треклист:
Reinhard Mey - "Bunter Hund" (2007)
Tracks: 14
Total time: 71:55
Year: 2007
Disc-ID: rock / e310e00e
1. Sommer 52 3:02
2. Der Fischer und der Boss 6:13
3. Wotan und Wolf 5:59
4. Bunter Hund 4:02
5. Ich bin verliebt in meine Sekretärin 2:58
6. Drei Kisten Kindheit 5:39
7. Drei Jahre und ein Tag 6:29
8. Danke, liebe gute Fee 5:22
9. Ich brauche einen Sommelier 3:40
10. Friedrichstraße 5:10
11. Kai 5:49
12. Große Schwester 4:25
13. Schraders Filmpalast 5:14
14. Le Temps des cerises 7:53

Лог создания рипа

Exact Audio Copy V1.0 beta 3 from 29. August 2011
EAC extraction logfile from 14. March 2013, 16:37
Reinhard Mey / Bunter Hund
Used drive : PLEXTOR DVDR PX-712A Adapter: 1 ID: 0
Read mode : SecureUtilize accurate stream : YesDefeat audio cache : YesMake use of C2 pointers : No
Read offset correction : 30Overread into Lead-In and Lead-Out : NoFill up missing offset samples with silence : YesDelete leading and trailing silent blocks : NoNull samples used in CRC calculations : YesUsed interface : Native Win32 interface for Win NT & 2000
Used output format : Internal WAV RoutinesSample format : 44.100 Hz; 16 Bit; Stereo
TOC of the extracted CD
Track | Start | Length | Start sector | End sector --------------------------------------------------------- 1 | 0:00.00 | 3:02.04 | 0 | 13653 2 | 3:02.04 | 6:13.06 | 13654 | 41634 3 | 9:15.10 | 5:59.11 | 41635 | 68570 4 | 15:14.21 | 4:02.50 | 68571 | 86770 5 | 19:16.71 | 2:58.40 | 86771 | 100160 6 | 22:15.36 | 5:39.31 | 100161 | 125616 7 | 27:54.67 | 6:29.09 | 125617 | 154800 8 | 34:24.01 | 5:22.16 | 154801 | 178966 9 | 39:46.17 | 3:40.31 | 178967 | 195497 10 | 43:26.48 | 5:10.65 | 195498 | 218812 11 | 48:37.38 | 5:49.23 | 218813 | 245010 12 | 54:26.61 | 4:25.64 | 245011 | 264949 13 | 58:52.50 | 5:14.38 | 264950 | 288537 14 | 64:07.13 | 7:53.13 | 288538 | 324025
Range status and errors
Selected range
Filename C:\Halle\Reinhard Mey - Bunter Hund.wav
Peak level 99.8 % Extraction speed 8.1 X Range quality 99.9 % Test CRC 1E1973C9 Copy CRC 1E1973C9 Copy OK
No errors occurred
AccurateRip summary
Track 1 accurately ripped (confidence 5) [B8A8ABE6] (AR v2)Track 2 accurately ripped (confidence 5) [810A2406] (AR v2)Track 3 accurately ripped (confidence 5) [2E8430E7] (AR v2)Track 4 accurately ripped (confidence 5) [C03895B0] (AR v2)Track 5 accurately ripped (confidence 5) [C98C31FA] (AR v2)Track 6 accurately ripped (confidence 5) [D305F49A] (AR v2)Track 7 accurately ripped (confidence 5) [EAF2421A] (AR v2)Track 8 accurately ripped (confidence 5) [6C16069F] (AR v2)Track 9 accurately ripped (confidence 5) [D998463F] (AR v2)Track 10 accurately ripped (confidence 5) [B4B394C1] (AR v2)Track 11 accurately ripped (confidence 5) [4207E4F0] (AR v2)Track 12 accurately ripped (confidence 5) [F38A1C7B] (AR v2)Track 13 accurately ripped (confidence 5) [A8F8966B] (AR v2)Track 14 accurately ripped (confidence 5) [6A8B545A] (AR v2)
All tracks accurately ripped
End of status report
==== Log checksum 31FF0AA5299357345BC225F2E8572C399B64ACB23A4E1EC86865ACA361DA5B08 ====

Лог проверки качества

-----------------------
DON'T MODIFY THIS FILE
-----------------------
PERFORMER: auCDtect Task Manager, ver. 1.5.1RC6 build 1.5.1.7Copyright (c) 2008-2010 y-soft. All rights reservedhttp://y-soft.org
ANALYZER: auCDtect: CD records authenticity detector, version 0.8.2Copyright (c) 2004 Oleg Berngardt. All rights reserved.Copyright (c) 2004 Alexander Djourik. All rights reserved.
FILE: Reinhard Mey - Bunter Hund.flac Size: 387528353 Hash: 2BE5F65BAEDAFC610E492B9ED0BF58F8 Accuracy: -m0 Conclusion: CDDA 100% Signature: 87FF8936987BAC7D37FB28778C438B3687B3084C
[CUETools log; Date: 24.03.2013 16:08:34; Version: 2.1.4][CTDB TOCID: mxibrM6tC5oul35C2PCSmfTZt0M-] found.Track | CTDB Status 1 | (25/25) Accurately ripped 2 | (24/25) Accurately ripped 3 | (25/25) Accurately ripped 4 | (25/25) Accurately ripped 5 | (25/25) Accurately ripped 6 | (25/25) Accurately ripped 7 | (25/25) Accurately ripped 8 | (25/25) Accurately ripped 9 | (24/25) Accurately ripped 10 | (25/25) Accurately ripped 11 | (25/25) Accurately ripped 12 | (24/25) Accurately ripped 13 | (25/25) Accurately ripped 14 | (24/25) Accurately ripped[AccurateRip ID: 002333c5-017af7ec-e310e00e] found.Track [ CRC | V2 ] Status 01 [73830720|b8a8abe6] (51+05/66) Accurately ripped 02 [50a61ca5|810a2406] (53+05/68) Accurately ripped 03 [4a54afa8|2e8430e7] (53+05/68) Accurately ripped 04 [a51d9139|c03895b0] (54+05/69) Accurately ripped 05 [507fcef1|c98c31fa] (54+05/69) Accurately ripped 06 [ce060bf3|d305f49a] (53+05/68) Accurately ripped 07 [a4833a20|eaf2421a] (52+05/67) Accurately ripped 08 [89ca1414|6c16069f] (51+05/66) Accurately ripped 09 [b73c2c6c|d998463f] (53+05/68) Accurately ripped 10 [f4ec44d3|b4b394c1] (52+05/67) Accurately ripped 11 [e63dd15d|4207e4f0] (52+05/67) Accurately ripped 12 [e50404d7|f38a1c7b] (52+05/67) Accurately ripped 13 [490502ec|a8f8966b] (52+05/67) Accurately ripped 14 [5a43a8ec|6a8b545a] (49+05/64) Accurately rippedOffsetted by -664: 01 [9be262c1] (10/66) Accurately ripped 02 [41e72c8a] (10/68) Accurately ripped 03 [d4cfa6d1] (10/68) Accurately ripped 04 [e3b3c24a] (10/69) Accurately ripped 05 [cb40b2f6] (10/69) Accurately ripped 06 [9ca8b767] (10/68) Accurately ripped 07 [60cedb9d] (10/67) Accurately ripped 08 [b1f955f3] (10/66) Accurately ripped 09 [ff9906f2] (10/68) Accurately ripped 10 [f2236f93] (10/67) Accurately ripped 11 [ddc0ab56] (10/67) Accurately ripped 12 [fab260fc] (10/67) Accurately ripped 13 [155ea76b] (10/67) Accurately ripped 14 [f894cce0] (10/64) Accurately ripped
Track Peak [ CRC32 ] [W/O NULL] [ LOG ] -- 99,8 [1E1973C9] [E8FDBBF9] CRC32 01 97,9 [07926E0E] [E56E7DA1] 02 99,8 [6B537729] [0430FD14] 03 98,6 [57B0D634] [DCD89245] 04 98,7 [D9015C47] [A4F4C7CD] 05 98,6 [75022C7F] [7F0C0E49] 06 98,4 [3841DAA4] [DA51D351] 07 98,1 [B4A48964] [F267E1A7] 08 98,2 [526BCC0B] [8C89FC4A] 09 98,9 [AADEDED2] [B18540D8] 10 98,6 [A6EC86A7] [154B2520] 11 98,7 [A96D8FE2] [E114280B] 12 99,3 [7FADF82D] [03FDD909] 13 98,8 [F335818C] [C8D57E39] 14 98,1 [03ACCF95] [12FD87FB]

2004 Nanga Parbat

Треклист:
Reinhard Mey - "Nanga Parbat" (2004)
Tracks: 13
Total time: 63:09
Year: 2004
Disc-ID: misc / c40ed10d
1. Alles O.K. in Guantánamo Bay 3:43
2. Douce France 7:09
3. Ich kann! 3:57
4. Spider man 3:08
5. Friedhof 4:06
6. Sven 4:13
7. Hundgebet 4:45
8. Die Waffen nieder! 4:27
9. Ich glaube nicht 4:34
10. Ich liege bei dir 5:49
11. Kennst du die kleinen, nicht wirklich nützlichen Gegenstände? 3:59
12. Nanga Parbat 9:22
13. Sommerende 3:57

Лог создания рипа

Exact Audio Copy V1.0 beta 3 from 29. August 2011
EAC extraction logfile from 20. March 2013, 12:09
Reinhard Mey / Nanga Parbat
Used drive : PLEXTOR CD-R PX-W4012A Adapter: 2 ID: 1
Read mode : SecureUtilize accurate stream : YesDefeat audio cache : YesMake use of C2 pointers : No
Read offset correction : 98Overread into Lead-In and Lead-Out : NoFill up missing offset samples with silence : YesDelete leading and trailing silent blocks : NoNull samples used in CRC calculations : YesUsed interface : Native Win32 interface for Win NT & 2000
Used output format : Internal WAV RoutinesSample format : 44.100 Hz; 16 Bit; Stereo
TOC of the extracted CD
Track | Start | Length | Start sector | End sector --------------------------------------------------------- 1 | 0:00.00 | 3:43.70 | 0 | 16794 2 | 3:43.70 | 7:09.00 | 16795 | 48969 3 | 10:52.70 | 3:57.70 | 48970 | 66814 4 | 14:50.65 | 3:08.40 | 66815 | 80954 5 | 17:59.30 | 4:06.00 | 80955 | 99404 6 | 22:05.30 | 4:13.50 | 99405 | 118429 7 | 26:19.05 | 4:45.07 | 118430 | 139811 8 | 31:04.12 | 4:27.65 | 139812 | 159901 9 | 35:32.02 | 4:34.18 | 159902 | 180469 10 | 40:06.20 | 5:49.12 | 180470 | 206656 11 | 45:55.32 | 3:59.10 | 206657 | 224591 12 | 49:54.42 | 9:22.28 | 224592 | 266769 13 | 59:16.70 | 3:56.05 | 266770 | 284474
Range status and errors
Selected range
Filename D:\Reinhard Mey - Nanga Parbat.wav
Peak level 98.8 % Extraction speed 12.9 X Range quality 100.0 % Test CRC 2430824E Copy CRC 2430824E Copy OK
No errors occurred
AccurateRip summary
Track 1 accurately ripped (confidence 2) [22E23269] (AR v2)Track 2 accurately ripped (confidence 2) [FD04BFA1] (AR v2)Track 3 accurately ripped (confidence 2) [DDB4A288] (AR v2)Track 4 accurately ripped (confidence 2) [F48F379F] (AR v2)Track 5 accurately ripped (confidence 2) [3B0B3E75] (AR v2)Track 6 accurately ripped (confidence 2) [A27EEB3A] (AR v2)Track 7 accurately ripped (confidence 2) [707B0C62] (AR v2)Track 8 accurately ripped (confidence 2) [F7D34792] (AR v2)Track 9 accurately ripped (confidence 2) [B525AAE9] (AR v2)Track 10 accurately ripped (confidence 2) [779C0BC1] (AR v2)Track 11 accurately ripped (confidence 2) [7DC2828E] (AR v2)Track 12 accurately ripped (confidence 5) [A7CE05F7] (AR v1)Track 13 accurately ripped (confidence 5) [C9486FA7] (AR v1)
All tracks accurately ripped
End of status report
==== Log checksum BFA706F826949BA9D1F7A9B661716A7A156919ED4DC0FB33EDC97A020F0FA176 ====

Лог проверки качества

-----------------------
DON'T MODIFY THIS FILE
-----------------------
PERFORMER: auCDtect Task Manager, ver. 1.5.1RC6 build 1.5.1.7Copyright (c) 2008-2010 y-soft. All rights reservedhttp://y-soft.org
ANALYZER: auCDtect: CD records authenticity detector, version 0.8.2Copyright (c) 2004 Oleg Berngardt. All rights reserved.Copyright (c) 2004 Alexander Djourik. All rights reserved.
FILE: Reinhard Mey - Nanga Parbat.flac Size: 372247559 Hash: A342D01AFD8F22F4703684A0068587DB Accuracy: -m0 Conclusion: CDDA 99% Signature: 1757E27F1372CDD20C19757888D182D3CB5F6787
[CUETools log; Date: 24.03.2013 16:00:07; Version: 2.1.4][CTDB TOCID: M2DI94zJlPIrtZjOyWhSuqsuSxE-] found.Track | CTDB Status 1 | ( 8/12) Accurately ripped 2 | ( 8/12) Accurately ripped 3 | ( 7/12) Accurately ripped 4 | ( 8/12) Accurately ripped 5 | ( 8/12) Accurately ripped 6 | ( 8/12) Accurately ripped 7 | ( 7/12) Accurately ripped, or (1/12) differs in 3 samples @01:35:37 8 | ( 7/12) Accurately ripped, or (1/12) differs in 179 samples @00:11:30-00:11:31,01:41:30-01:41:31 9 | ( 7/12) Accurately ripped 10 | ( 7/12) Accurately ripped 11 | ( 8/12) Accurately ripped 12 | ( 7/12) Accurately ripped 13 | ( 8/12) Accurately ripped[AccurateRip ID: 001ce6a0-0122d251-c40ed10d] found.Track [ CRC | V2 ] Status 01 [15e0367f|22e23269] (5+2/7) Accurately ripped 02 [df94745b|fd04bfa1] (5+2/7) Accurately ripped 03 [de9e920a|ddb4a288] (5+2/7) Accurately ripped 04 [498e9783|f48f379f] (5+2/7) Accurately ripped 05 [6ede5b6b|3b0b3e75] (5+2/7) Accurately ripped 06 [89c1d94d|a27eeb3a] (5+2/7) Accurately ripped 07 [70bac0bf|707b0c62] (5+2/7) Accurately ripped 08 [0222af19|f7d34792] (5+2/7) Accurately ripped 09 [86dc6ecc|b525aae9] (5+2/7) Accurately ripped 10 [f5bbbfca|779c0bc1] (5+2/7) Accurately ripped 11 [c99f5897|7dc2828e] (5+2/7) Accurately ripped 12 [a7ce05f7|ea0f6a39] (5+0/5) Accurately ripped 13 [c9486fa7|b20bd1f8] (5+0/5) Accurately ripped
Track Peak [ CRC32 ] [W/O NULL] [ LOG ] -- 98,8 [2430824E] [1921A21B] CRC32 01 98,8 [9CB9CA93] [D2E784C8] 02 98,8 [2351152D] [90DF5717] 03 98,8 [8A08105F] [36A98CC5] 04 98,8 [7D128041] [F1BC8EA9] 05 98,8 [B8D5A874] [E706A917] 06 98,8 [99BACC57] [7EA7B9EC] 07 98,8 [9B34C4A1] [D7F48A7A] 08 98,8 [E14947FA] [44DBA84D] 09 98,8 [AF3A0021] [CA9D3861] 10 98,8 [028410EA] [46C2D729] 11 98,8 [16D187CE] [E9B64E73] 12 98,8 [8B540B01] [F7476332] 13 78,5 [EE16EFB5] [13F48BEA]

2002 Rüm Hart

Треклист:
Reinhard Mey - "Rüm Hart" (2002)
Tracks: 13
Total time: 61:03
Year: 2002
Disc-ID: misc / aa0e550d
1. Rüm Hart 6:28
2. Immer mehr 3:48
3. Der kleine Wiesel 5:09
4. Die Blitzlichter machen uns zu Idioten 4:02
5. Aber heute 4:50
6. Neulich in der Dessous-Abteilung 4:16
7. Weißt du noch, Etienne? 6:52
8. Gernegroß 3:33
9. Frei! 4:59
10. Faust in der Hand 4:18
11. Schwere Wetter 4:00
12. Ich singe um mein Leben 3:46
13. Mein Land 5:02

Лог создания рипа

Exact Audio Copy V1.0 beta 3 from 29. August 2011
EAC extraction logfile from 22. March 2013, 16:24
Reinhard Mey / Rüm Hart
Used drive : PLEXTOR CD-R PX-W4012A Adapter: 1 ID: 0
Read mode : SecureUtilize accurate stream : YesDefeat audio cache : YesMake use of C2 pointers : No
Read offset correction : 98Overread into Lead-In and Lead-Out : NoFill up missing offset samples with silence : YesDelete leading and trailing silent blocks : NoNull samples used in CRC calculations : YesUsed interface : Native Win32 interface for Win NT & 2000
Used output format : Internal WAV RoutinesSample format : 44.100 Hz; 16 Bit; Stereo
TOC of the extracted CD
Track | Start | Length | Start sector | End sector --------------------------------------------------------- 1 | 0:00.00 | 6:28.30 | 0 | 29129 2 | 6:28.30 | 3:48.45 | 29130 | 46274 3 | 10:17.00 | 5:09.12 | 46275 | 69461 4 | 15:26.12 | 4:02.35 | 69462 | 87646 5 | 19:28.47 | 4:50.23 | 87647 | 109419 6 | 24:18.70 | 4:16.65 | 109420 | 128684 7 | 28:35.60 | 6:52.12 | 128685 | 159596 8 | 35:27.72 | 3:33.70 | 159597 | 175641 9 | 39:01.67 | 4:59.63 | 175642 | 198129 10 | 44:01.55 | 4:18.30 | 198130 | 217509 11 | 48:20.10 | 4:00.55 | 217510 | 235564 12 | 52:20.65 | 3:46.40 | 235565 | 252554 13 | 56:07.30 | 5:01.67 | 252555 | 275196
Range status and errors
Selected range
Filename C:\Halle\Reinhard Mey - Ruem Hart.wav
Peak level 99.9 % Extraction speed 13.2 X Range quality 99.9 % Test CRC 8A11148C Copy CRC 8A11148C Copy OK
No errors occurred
AccurateRip summary
Track 1 accurately ripped (confidence 5) [1DE36966] (AR v2)Track 2 accurately ripped (confidence 5) [66AC26C7] (AR v2)Track 3 accurately ripped (confidence 5) [00FA1493] (AR v2)Track 4 accurately ripped (confidence 5) [C701C27A] (AR v2)Track 5 accurately ripped (confidence 5) [368BD9CE] (AR v2)Track 6 accurately ripped (confidence 5) [65F57E26] (AR v2)Track 7 accurately ripped (confidence 5) [C9AFB0A5] (AR v2)Track 8 accurately ripped (confidence 5) [580AA660] (AR v2)Track 9 accurately ripped (confidence 5) [AE9D7B7D] (AR v2)Track 10 accurately ripped (confidence 5) [5A6F5525] (AR v2)Track 11 accurately ripped (confidence 5) [91395AAD] (AR v2)Track 12 accurately ripped (confidence 5) [5EBC6E04] (AR v2)Track 13 accurately ripped (confidence 5) [5A2A8640] (AR v2)
All tracks accurately ripped
End of status report
==== Log checksum DB3B6181CD696F5126B1A8E0716B7605C9EE3517E10129B560381C182DE89100 ====

Лог проверки качества

-----------------------
DON'T MODIFY THIS FILE
-----------------------
PERFORMER: auCDtect Task Manager, ver. 1.5.1RC6 build 1.5.1.7Copyright (c) 2008-2010 y-soft. All rights reservedhttp://y-soft.org
ANALYZER: auCDtect: CD records authenticity detector, version 0.8.2Copyright (c) 2004 Oleg Berngardt. All rights reserved.Copyright (c) 2004 Alexander Djourik. All rights reserved.
FILE: Reinhard Mey - Ruem Hart.flac Size: 372465359 Hash: 17CC4E6B2B7CA0CFD47D706422FA115A Accuracy: -m0 Conclusion: CDDA 100% Signature: 618C6FF8706D726C07D9125C296F7AD25F59A8DB
[CUETools log; Date: 24.03.2013 15:57:26; Version: 2.1.4][CTDB TOCID: W..H6qSCvFh6aQ.pozdlla.09tY-] found.Track | CTDB Status 1 | (23/23) Accurately ripped 2 | (23/23) Accurately ripped 3 | (23/23) Accurately ripped 4 | (23/23) Accurately ripped 5 | (23/23) Accurately ripped 6 | (23/23) Accurately ripped 7 | (23/23) Accurately ripped 8 | (23/23) Accurately ripped 9 | (23/23) Accurately ripped 10 | (23/23) Accurately ripped 11 | (22/23) Accurately ripped 12 | (23/23) Accurately ripped 13 | (22/23) Accurately ripped[AccurateRip ID: 001e492f-012c0f3d-aa0e550d] found.Track [ CRC | V2 ] Status 01 [c1c013d8|1de36966] (47+05/52) Accurately ripped 02 [6f4c20c9|66ac26c7] (47+05/52) Accurately ripped 03 [22aae625|00fa1493] (48+05/53) Accurately ripped 04 [9a516ab4|c701c27a] (47+05/52) Accurately ripped 05 [1a0a3c3b|368bd9ce] (47+05/52) Accurately ripped 06 [2e7e758a|65f57e26] (48+05/53) Accurately ripped 07 [533f0617|c9afb0a5] (47+05/52) Accurately ripped 08 [f227152e|580aa660] (47+05/52) Accurately ripped 09 [c20c260a|ae9d7b7d] (46+05/51) Accurately ripped 10 [66ff8b9b|5a6f5525] (46+05/51) Accurately ripped 11 [b9c78ece|91395aad] (47+05/52) Accurately ripped 12 [97dc9b7d|5ebc6e04] (47+05/52) Accurately ripped 13 [838911ad|5a2a8640] (46+05/51) Accurately ripped
Track Peak [ CRC32 ] [W/O NULL] [ LOG ] -- 99,9 [8A11148C] [799F746E] CRC32 01 99,9 [FF291185] [CD3A0893] 02 99,9 [63C51A00] [2848E332] 03 99,9 [593D130E] [3A65CCAD] 04 99,9 [CB26196E] [1DECB5E2] 05 99,9 [C78E812B] [F826D015] 06 99,9 [3DC6857C] [E8FE3B0A] 07 79,3 [EF4B8FBD] [29C36D8E] 08 99,9 [D2AF29A0] [894F30F6] 09 99,9 [D4491A87] [C3736EE3] 10 99,9 [671FB29C] [C28F0387] 11 99,9 [452075E5] [8AF59DD0] 12 99,9 [10531FA7] [D73E16EF] 13 97,7 [8F39C6ED] [D4B0FD18]

2000 Einhandsegler

Треклист:
Reinhard Mey - "Einhandsegler" (2000)
Tracks: 14
Total time: 75:05
Year: 2000
Disc-ID: folk / c611a00e
1. Ich bring' dich durch die Nacht 5:12
2. Heimatlos 4:32
3. Doktor Berenthal kommt 6:33
4. Serafina 7:13
5. Paradies 5:33
6. Chet 3:50
7. Kurti 4:03
8. Wenn ich betrunken bin 5:19
9. Einhandsegler 4:52
10. Der Marder 4:08
11. Erbarme dich 7:27
12. Das war ein guter Tag 6:22
13. Das wahre Leben 4:30
14. Laß Liebe auf uns regnen 5:31

Лог создания рипа

Exact Audio Copy V1.0 beta 3 from 29. August 2011
EAC extraction logfile from 14. March 2013, 18:02
Reinhard Mey / Einhandsegler
Used drive : PLEXTOR DVDR PX-712A Adapter: 1 ID: 0
Read mode : SecureUtilize accurate stream : YesDefeat audio cache : YesMake use of C2 pointers : No
Read offset correction : 30Overread into Lead-In and Lead-Out : NoFill up missing offset samples with silence : YesDelete leading and trailing silent blocks : NoNull samples used in CRC calculations : YesUsed interface : Native Win32 interface for Win NT & 2000
Used output format : Internal WAV RoutinesSample format : 44.100 Hz; 16 Bit; Stereo
TOC of the extracted CD
Track | Start | Length | Start sector | End sector --------------------------------------------------------- 1 | 0:00.00 | 5:12.47 | 0 | 23446 2 | 5:12.47 | 4:32.28 | 23447 | 43874 3 | 9:45.00 | 6:33.70 | 43875 | 73419 4 | 16:18.70 | 7:13.52 | 73420 | 105946 5 | 23:32.47 | 5:33.10 | 105947 | 130931 6 | 29:05.57 | 3:50.40 | 130932 | 148221 7 | 32:56.22 | 4:03.10 | 148222 | 166456 8 | 36:59.32 | 5:19.10 | 166457 | 190391 9 | 42:18.42 | 4:52.40 | 190392 | 212331 10 | 47:11.07 | 4:08.73 | 212332 | 231004 11 | 51:20.05 | 7:27.60 | 231005 | 264589 12 | 58:47.65 | 6:22.35 | 264590 | 293274 13 | 65:10.25 | 4:30.65 | 293275 | 313589 14 | 69:41.15 | 5:31.15 | 313590 | 338429
Range status and errors
Selected range
Filename C:\Halle\Reinhard Mey - Einhandsegler.wav
Peak level 99.0 % Extraction speed 8.4 X Range quality 100.0 % Test CRC 918B8C95 Copy CRC 918B8C95 Copy OK
No errors occurred
AccurateRip summary
Track 1 accurately ripped (confidence 5) [64EAA1AE] (AR v2)Track 2 accurately ripped (confidence 5) [562B053B] (AR v2)Track 3 accurately ripped (confidence 5) [B4858961] (AR v2)Track 4 accurately ripped (confidence 5) [7A9625E6] (AR v2)Track 5 accurately ripped (confidence 5) [693E6680] (AR v2)Track 6 accurately ripped (confidence 5) [0176F5BF] (AR v2)Track 7 accurately ripped (confidence 5) [97571EA5] (AR v2)Track 8 accurately ripped (confidence 5) [7C0362F0] (AR v2)Track 9 accurately ripped (confidence 5) [B3CB3FF8] (AR v2)Track 10 accurately ripped (confidence 5) [BBC19722] (AR v2)Track 11 accurately ripped (confidence 5) [D0DB2C72] (AR v2)Track 12 accurately ripped (confidence 5) [1EE5330C] (AR v2)Track 13 accurately ripped (confidence 5) [C0686BE5] (AR v2)Track 14 accurately ripped (confidence 5) [17863024] (AR v2)
All tracks accurately ripped
End of status report
==== Log checksum F3FE71CA598D798378C4F2E8A7F94189DCEC78D9D21A91ED12B313F2F55C2479 ====

Лог проверки качества

-----------------------
DON'T MODIFY THIS FILE
-----------------------
PERFORMER: auCDtect Task Manager, ver. 1.5.1RC6 build 1.5.1.7Copyright (c) 2008-2010 y-soft. All rights reservedhttp://y-soft.org
ANALYZER: auCDtect: CD records authenticity detector, version 0.8.2Copyright (c) 2004 Oleg Berngardt. All rights reserved.Copyright (c) 2004 Alexander Djourik. All rights reserved.
FILE: Reinhard Mey - Einhandsegler.flac Size: 475339067 Hash: 68FF144F26593B29596757F515EB1711 Accuracy: -m0 Conclusion: CDDA 100% Signature: 687318D342DF627409A72BE109D6E896A0C2E6B5
[CUETools log; Date: 24.03.2013 15:53:40; Version: 2.1.4][CTDB TOCID: sZRaAdxF8cA25bpRGU16QgNBpBE-] found.Track | CTDB Status 1 | (27/27) Accurately ripped 2 | (26/27) Accurately ripped 3 | (27/27) Accurately ripped 4 | (26/27) Accurately ripped 5 | (27/27) Accurately ripped 6 | (27/27) Accurately ripped 7 | (27/27) Accurately ripped 8 | (27/27) Accurately ripped 9 | (26/27) Accurately ripped 10 | (27/27) Accurately ripped 11 | (26/27) Accurately ripped 12 | (26/27) Accurately ripped 13 | (25/27) Accurately ripped 14 | (27/27) Accurately ripped[AccurateRip ID: 0026b1ea-019bd1cd-c611a00e] found.Track [ CRC | V2 ] Status 01 [69c59d46|64eaa1ae] (62+05/67) Accurately ripped 02 [25b01f29|562b053b] (61+05/66) Accurately ripped 03 [edac4c96|b4858961] (60+05/65) Accurately ripped 04 [fdc41cc7|7a9625e6] (61+05/66) Accurately ripped 05 [49bc0800|693e6680] (61+05/66) Accurately ripped 06 [bf0d0928|0176f5bf] (62+05/67) Accurately ripped 07 [70c52e92|97571ea5] (61+05/66) Accurately ripped 08 [b45da329|7c0362f0] (62+05/67) Accurately ripped 09 [bf3fe108|b3cb3ff8] (61+05/66) Accurately ripped 10 [1aa0af04|bbc19722] (61+05/66) Accurately ripped 11 [6bd9cb86|d0db2c72] (63+05/68) Accurately ripped 12 [1d45bacf|1ee5330c] (62+05/67) Accurately ripped 13 [11d9e22e|c0686be5] (60+05/65) Accurately ripped 14 [104e7f2a|17863024] (56+05/61) Accurately ripped
Track Peak [ CRC32 ] [W/O NULL] [ LOG ] -- 99,0 [918B8C95] [B0F14BA2] CRC32 01 98,9 [E9FBEC89] [D5BB3CA4] 02 99,0 [20920BBF] [F4895893] 03 99,0 [29B27F54] [66AF2427] 04 98,9 [3A90ECB5] [0445F777] 05 87,8 [9CEA0914] [CAAD0C75] 06 94,1 [155C439F] [2AA5859E] 07 99,0 [DC3DB999] [9EAF60BA] 08 92,2 [168D6CDC] [CDB9B17F] 09 98,9 [CA2207B3] [0EC2B6BB] 10 98,9 [8F32D7FE] [CB85C0F1] 11 98,9 [C03BB0B1] [FEF1DCDD] 12 98,9 [F2ED91E5] [5D34CA87] 13 98,9 [B06B9B26] [2BF152F1] 14 98,8 [277A9755] [F6332EE9]

1996 Leuchtfeuer

Треклист:
Reinhard Mey - "Leuchtfeuer" (1996)
Tracks: 15
Total time: 73:34
Year: 1996
Disc-ID: folk / cd11440f
1. Altes Kind 3:20
2. Sei wachsam 5:08
3. Kati und Sandy 5:43
4. Tierpolizei 3:50
5. Mein roter Bär 5:21
6. Drei Stühle 3:24
7. Pöter 4:48
8. Irgendein Depp bohrt irgendwo ... 4:20
9. Alle rennen 3:35
10. Ein und Alles 5:07
11. Kaspar 5:52
12. Gib mir Musik! 5:11
13. Lilienthals Traum 7:52
14. Nein, ich laß Dich nicht allein 5:27
15. Ohne Dich 4:36

Лог создания рипа

Exact Audio Copy V1.0 beta 3 from 29. August 2011
EAC extraction logfile from 14. March 2013, 16:58
Reinhard Mey / Leuchtfeuer
Used drive : PLEXTOR DVDR PX-712A Adapter: 1 ID: 0
Read mode : SecureUtilize accurate stream : YesDefeat audio cache : YesMake use of C2 pointers : No
Read offset correction : 30Overread into Lead-In and Lead-Out : NoFill up missing offset samples with silence : YesDelete leading and trailing silent blocks : NoNull samples used in CRC calculations : YesUsed interface : Native Win32 interface for Win NT & 2000
Used output format : Internal WAV RoutinesSample format : 44.100 Hz; 16 Bit; Stereo
TOC of the extracted CD
Track | Start | Length | Start sector | End sector --------------------------------------------------------- 1 | 0:00.00 | 3:20.02 | 0 | 15001 2 | 3:20.02 | 5:08.18 | 15002 | 38119 3 | 8:28.20 | 5:43.00 | 38120 | 63844 4 | 14:11.20 | 3:50.12 | 63845 | 81106 5 | 18:01.32 | 5:21.40 | 81107 | 105221 6 | 23:22.72 | 3:24.55 | 105222 | 120576 7 | 26:47.52 | 4:48.58 | 120577 | 142234 8 | 31:36.35 | 4:20.50 | 142235 | 161784 9 | 35:57.10 | 3:35.62 | 161785 | 177971 10 | 39:32.72 | 5:07.50 | 177972 | 201046 11 | 44:40.47 | 5:52.28 | 201047 | 227474 12 | 50:33.00 | 5:11.37 | 227475 | 250836 13 | 55:44.37 | 7:52.48 | 250837 | 286284 14 | 63:37.10 | 5:27.47 | 286285 | 310856 15 | 69:04.57 | 4:36.00 | 310857 | 331556
Range status and errors
Selected range
Filename C:\Halle\Reinhard Mey - Leuchtfeuer.wav
Peak level 97.3 % Extraction speed 8.4 X Range quality 100.0 % Test CRC 5DDA13E4 Copy CRC 5DDA13E4 Copy OK
No errors occurred
AccurateRip summary
Track 1 accurately ripped (confidence 44) [B5776727] (AR v1)Track 2 accurately ripped (confidence 44) [64E90CF0] (AR v1)Track 3 accurately ripped (confidence 45) [E40BB78E] (AR v1)Track 4 accurately ripped (confidence 41) [C2A61EB6] (AR v1)Track 5 accurately ripped (confidence 44) [B6B08414] (AR v1)Track 6 accurately ripped (confidence 45) [1DD8B1F2] (AR v1)Track 7 accurately ripped (confidence 44) [5744059E] (AR v1)Track 8 accurately ripped (confidence 43) [E128E9C6] (AR v1)Track 9 accurately ripped (confidence 42) [2F87B76A] (AR v1)Track 10 accurately ripped (confidence 45) [BDF79E2A] (AR v1)Track 11 accurately ripped (confidence 44) [3D33C6DA] (AR v1)Track 12 accurately ripped (confidence 43) [1108D472] (AR v1)Track 13 accurately ripped (confidence 43) [861AD226] (AR v1)Track 14 accurately ripped (confidence 44) [0BCE68EE] (AR v1)Track 15 accurately ripped (confidence 42) [1E2D1349] (AR v1)
All tracks accurately ripped
End of status report
==== Log checksum D686A0B94C23D5A7DC2CBA2B211DE0A545D585EE756D959457CF08DE0BF17AE1 ====

Лог проверки качества

-----------------------
DON'T MODIFY THIS FILE
-----------------------
PERFORMER: auCDtect Task Manager, ver. 1.5.1RC6 build 1.5.1.7Copyright (c) 2008-2010 y-soft. All rights reservedhttp://y-soft.org
ANALYZER: auCDtect: CD records authenticity detector, version 0.8.2Copyright (c) 2004 Oleg Berngardt. All rights reserved.Copyright (c) 2004 Alexander Djourik. All rights reserved.
FILE: Reinhard Mey - Leuchtfeuer.flac Size: 385226780 Hash: 8BF5E43DDE94AB8BDEC89609A5DF4D7B Accuracy: -m0 Conclusion: CDDA 100% Signature: 731B46654030C19D2A5BC5E86E7E3BB679E8610A
[CUETools log; Date: 24.03.2013 15:27:40; Version: 2.1.4][CTDB TOCID: TQQdMlWC8s7dKO0.hvQV6BpJQRk-] found.Track | CTDB Status 1 | (20/20) Accurately ripped 2 | (20/20) Accurately ripped 3 | (20/20) Accurately ripped 4 | (19/20) Accurately ripped 5 | (19/20) Accurately ripped 6 | (20/20) Accurately ripped 7 | (20/20) Accurately ripped 8 | (20/20) Accurately ripped 9 | (20/20) Accurately ripped 10 | (20/20) Accurately ripped 11 | (20/20) Accurately ripped 12 | (20/20) Accurately ripped 13 | (20/20) Accurately ripped 14 | (19/20) Accurately ripped 15 | (20/20) Accurately ripped[AccurateRip ID: 00265c03-01b7f1ab-cd11440f] found.Track [ CRC | V2 ] Status 01 [b5776727|6ba57327] (44+00/47) Accurately ripped 02 [64e90cf0|d3e2cc67] (44+00/47) Accurately ripped 03 [e40bb78e|f6c7ff7a] (45+00/48) Accurately ripped 04 [c2a61eb6|4a7e0acf] (41+00/44) Accurately ripped 05 [b6b08414|31f9a747] (44+00/47) Accurately ripped 06 [1dd8b1f2|0b4ae1c5] (45+00/48) Accurately ripped 07 [5744059e|c4fbd747] (44+00/47) Accurately ripped 08 [e128e9c6|a9c0d56d] (43+00/46) Accurately ripped 09 [2f87b76a|5628222d] (42+00/45) Accurately ripped 10 [bdf79e2a|d39c6118] (45+00/48) Accurately ripped 11 [3d33c6da|c84aa70b] (44+00/47) Accurately ripped 12 [1108d472|da5ab47c] (43+00/46) Accurately ripped 13 [861ad226|191accae] (43+00/46) Accurately ripped 14 [0bce68ee|96203919] (44+00/47) Accurately ripped 15 [1e2d1349|40acea90] (42+00/45) Accurately rippedOffsetted by 12: 01 [29ce9373] (03/47) Accurately ripped 02 [5b46b4e0] (03/47) Accurately ripped 03 [0410d356] (03/48) Accurately ripped 04 [4d78c4e6] (03/44) Accurately ripped 05 [675177bc] (03/47) Accurately ripped 06 [4285ff92] (03/48) Accurately ripped 07 [ce48164e] (03/47) Accurately ripped 08 [c4548e26] (03/46) Accurately ripped 09 [1a6e715a] (03/45) Accurately ripped 10 [01cb39da] (03/48) Accurately ripped 11 [2c6417c2] (03/47) Accurately ripped 12 [e5639c32] (03/46) Accurately ripped 13 [8619c73e] (03/46) Accurately ripped 14 [0f9592c6] (03/47) Accurately ripped 15 [a7ce4795] (03/45) Accurately ripped
Track Peak [ CRC32 ] [W/O NULL] [ LOG ] -- 97,3 [5DDA13E4] [6A1D7964] CRC32 01 93,3 [BF748E1F] [51E633EB] 02 96,7 [73F2BF0D] [8BF34EB7] 03 96,4 [700FED58] [620A2748] 04 97,3 [F1D548D9] [62CA3614] 05 95,0 [B4FD790B] [B79EAF3E] 06 94,0 [D36E9491] [03F4F268] 07 92,0 [03E89835] [E37EC987] 08 89,1 [160C39AF] [D182C602] 09 92,6 [ACFB18A9] [87102AB6] 10 96,5 [47FD2154] [AE81A3EE] 11 95,0 [D4313799] [EA81D819] 12 96,3 [DD67314C] [593C6E1F] 13 92,3 [9DD7E6B8] [DDDF403F] 14 91,3 [54FADC5B] [0510E03D] 15 95,3 [85921A7C] [FD168EFB]

1994 Immer weiter

Треклист:
Reinhard Mey - "Immer weiter" (1994)
Tracks: 14
Total time: 67:06
Year: 1994
Disc-ID: folk / ec0fbe0e
1. 51er Kapitän 5:56
2. Vernunft breitet sich aus über die Bundesrepublik Deutschland 7:14
3. Meine Freundin, meine Frau 3:54
4. Ich liebe meine Küche 3:56
5. Willkommen an Bord 5:33
6. Hasengebet 3:51
7. Frieden 5:39
8. Ich möchte! 5:20
9. Der unendliche Tango der Deutschen Rechtschreibung 3:10
10. Maikäfer fliege 4:07
11. Die Kinder von Izieu 5:10
12. Selig sind die Verrückten 5:50
13. Leb wohl, adieu, gute Nacht 5:43
14. ... und tschüs! 1:43

Лог создания рипа

Exact Audio Copy V1.0 beta 3 from 29. August 2011
EAC extraction logfile from 12. March 2013, 21:34
Reinhard Mey / Immer weiter
Used drive : PLEXTOR DVDR PX-712A Adapter: 1 ID: 0
Read mode : SecureUtilize accurate stream : YesDefeat audio cache : YesMake use of C2 pointers : No
Read offset correction : 30Overread into Lead-In and Lead-Out : NoFill up missing offset samples with silence : YesDelete leading and trailing silent blocks : NoNull samples used in CRC calculations : YesUsed interface : Native Win32 interface for Win NT & 2000
Used output format : Internal WAV RoutinesSample format : 44.100 Hz; 16 Bit; Stereo
TOC of the extracted CD
Track | Start | Length | Start sector | End sector --------------------------------------------------------- 1 | 0:00.00 | 5:56.15 | 0 | 26714 2 | 5:56.15 | 7:14.20 | 26715 | 59284 3 | 13:10.35 | 3:54.20 | 59285 | 76854 4 | 17:04.55 | 3:56.40 | 76855 | 94594 5 | 21:01.20 | 5:33.25 | 94595 | 119594 6 | 26:34.45 | 3:51.72 | 119595 | 136991 7 | 30:26.42 | 5:39.30 | 136992 | 162446 8 | 36:05.72 | 5:20.20 | 162447 | 186466 9 | 41:26.17 | 3:10.48 | 186467 | 200764 10 | 44:36.65 | 4:07.22 | 200765 | 219311 11 | 48:44.12 | 5:10.25 | 219312 | 242586 12 | 53:54.37 | 5:50.00 | 242587 | 268836 13 | 59:44.37 | 5:43.23 | 268837 | 294584 14 | 65:27.60 | 1:42.55 | 294585 | 302289
Range status and errors
Selected range
Filename C:\Halle\Matthias Reim\Reinhard Mey - Immer weiter.wav
Peak level 100.0 % Extraction speed 11.0 X Range quality 100.0 % Test CRC 4CB173FD Copy CRC 4CB173FD Copy OK
No errors occurred
AccurateRip summary
Track 1 cannot be verified as accurate (confidence 25) [5BE9A89D], AccurateRip returned [37D17724] (AR v2)Track 2 cannot be verified as accurate (confidence 25) [517BFA7B], AccurateRip returned [E4C5572A] (AR v2)Track 3 cannot be verified as accurate (confidence 25) [BE0E92CD], AccurateRip returned [324A8969] (AR v2)Track 4 cannot be verified as accurate (confidence 25) [FBB5231E], AccurateRip returned [EDC0DC21] (AR v2)Track 5 cannot be verified as accurate (confidence 25) [6C8637B9], AccurateRip returned [E3B46EA5] (AR v2)Track 6 cannot be verified as accurate (confidence 25) [9C3D5AC9], AccurateRip returned [E99A924C] (AR v2)Track 7 cannot be verified as accurate (confidence 25) [0F6A12E3], AccurateRip returned [F19D4D30] (AR v2)Track 8 cannot be verified as accurate (confidence 25) [1791E7C8], AccurateRip returned [51AD69E3] (AR v2)Track 9 cannot be verified as accurate (confidence 26) [2C5F16A8], AccurateRip returned [612056DA] (AR v2)Track 10 cannot be verified as accurate (confidence 25) [9E8DA4D0], AccurateRip returned [9A15ACBA] (AR v2)Track 11 cannot be verified as accurate (confidence 25) [ED663BB7], AccurateRip returned [FE5249F2] (AR v2)Track 12 cannot be verified as accurate (confidence 24) [67D4348C], AccurateRip returned [3EEC3D31] (AR v2)Track 13 cannot be verified as accurate (confidence 25) [01E1C355], AccurateRip returned [423FE092] (AR v2)Track 14 cannot be verified as accurate (confidence 21) [B51319BC], AccurateRip returned [C522F211] (AR v2)
No tracks could be verified as accurateYou may have a different pressing from the one(s) in the database
End of status report
==== Log checksum 053B4FA1FACB068D7775F33E6F5ACFBF06309318DE62B3EFAE33A01B14307A5F ====

Лог проверки качества

-----------------------
DON'T MODIFY THIS FILE
-----------------------
PERFORMER: auCDtect Task Manager, ver. 1.5.1RC6 build 1.5.1.7Copyright (c) 2008-2010 y-soft. All rights reservedhttp://y-soft.org
ANALYZER: auCDtect: CD records authenticity detector, version 0.8.2Copyright (c) 2004 Oleg Berngardt. All rights reserved.Copyright (c) 2004 Alexander Djourik. All rights reserved.
FILE: Reinhard Mey - Immer weiter.flac Size: 438273917 Hash: 53A7201B6C0A9702312AF161D8D5AFDF Accuracy: -m0 Conclusion: CDDA 99% Signature: 0C4806C26C721D51A4917A79B4F7FA4A79D9EC78
[CUETools log; Date: 24.03.2013 15:24:26; Version: 2.1.4][CTDB TOCID: 0Y3v6_qEWL9dGVlF8CF7h85dePg-] found.Track | CTDB Status 1 | (18/18) Accurately ripped 2 | (18/18) Accurately ripped 3 | (18/18) Accurately ripped 4 | (18/18) Accurately ripped 5 | (18/18) Accurately ripped 6 | (18/18) Accurately ripped 7 | (18/18) Accurately ripped 8 | (18/18) Accurately ripped 9 | (18/18) Accurately ripped 10 | (18/18) Accurately ripped 11 | (18/18) Accurately ripped 12 | (17/18) Accurately ripped 13 | (17/18) Accurately ripped 14 | (17/18) Accurately ripped[AccurateRip ID: 00247d1f-017fc439-ec0fbe0e] found.Track [ CRC | V2 ] Status 01 [7b33e938|5be9a89d] (00+00/46) No match 02 [78f6cb9f|517bfa7b] (00+00/48) No match 03 [0f111a58|be0e92cd] (00+00/47) No match 04 [928005f2|fbb5231e] (00+00/47) No match 05 [ab11255d|6c8637b9] (00+00/47) No match 06 [01a8f54a|9c3d5ac9] (00+00/47) No match 07 [b547f0df|0f6a12e3] (00+00/47) No match 08 [ab3f6b7f|1791e7c8] (00+00/47) No match 09 [45cf5124|2c5f16a8] (00+00/48) No match 10 [007065ef|9e8da4d0] (00+00/47) No match 11 [86c4e231|ed663bb7] (00+00/47) No match 12 [84dfd9ff|67d4348c] (00+00/45) No match 13 [a72d4b01|01e1c355] (00+00/47) No match 14 [5612ba47|b51319bc] (00+00/43) No matchOffsetted by -823: 01 [8f67fce8] (02/46) Accurately ripped 02 [325cdd50] (02/48) Accurately ripped 03 [0c170dba] (02/47) Accurately ripped 04 [cb807e27] (02/47) Accurately ripped 05 [83f95db8] (02/47) Accurately ripped 06 [d0e3a2b1] (02/47) Accurately ripped 07 [73f8273b] (02/47) Accurately ripped 08 [5b97f3a5] (02/47) Accurately ripped 09 [35156dd8] (02/48) Accurately ripped 10 [672494e7] (02/47) Accurately ripped 11 [dbd0e8d5] (02/47) Accurately ripped 12 [fffb7537] (02/45) Accurately ripped 13 [10fce9c1] (02/47) Accurately ripped 14 [97709f08] (02/43) Accurately rippedOffsetted by -682: 01 [37d17724] (25/46) Accurately ripped 02 [e4c5572a] (25/48) Accurately ripped 03 [324a8969] (25/47) Accurately ripped 04 [edc0dc21] (25/47) Accurately ripped 05 [e3b46ea5] (25/47) Accurately ripped 06 [e99a924c] (25/47) Accurately ripped 07 [f19d4d30] (25/47) Accurately ripped 08 [51ad69e3] (25/47) Accurately ripped 09 [612056da] (26/48) Accurately ripped 10 [9a15acba] (25/47) Accurately ripped 11 [fe5249f2] (25/47) Accurately ripped 12 [3eec3d31] (24/45) Accurately ripped 13 [423fe092] (25/47) Accurately ripped 14 [c522f211] (21/43) Accurately rippedOffsetted by -147: 01 [acd48f58] (12/46) Accurately ripped 02 [7f5c8b29] (13/48) Accurately ripped 03 [67c57e51] (12/47) Accurately ripped 04 [766ceb17] (12/47) Accurately ripped 05 [6554bb10] (13/47) Accurately ripped 06 [129f8ed0] (12/47) Accurately ripped 07 [38e4e853] (12/47) Accurately ripped 08 [04a6cef9] (12/47) Accurately ripped 09 [a5ec74ed] (12/48) Accurately ripped 10 [ba5c2629] (12/47) Accurately ripped 11 [ed50dd8c] (12/47) Accurately ripped 12 [89dcd9a9] (12/45) Accurately ripped 13 [8aba08b8] (12/47) Accurately ripped 14 [b0f8dab7] (12/43) Accurately rippedOffsetted by -38: 01 [1855b6e9] (05/46) Accurately ripped 02 [8bb41b91] (06/48) Accurately ripped 03 [16c0d3e0] (06/47) Accurately ripped 04 [323f6661] (06/47) Accurately ripped 05 [374825e4] (05/47) Accurately ripped 06 [07d2f199] (06/47) Accurately ripped 07 [c282680f] (06/47) Accurately ripped 08 [80c4679c] (06/47) Accurately ripped 09 [b26d3a0a] (06/48) Accurately ripped 10 [65f5d898] (06/47) Accurately ripped 11 [c03a6e62] (06/47) Accurately ripped 12 [ddebe82e] (05/45) Accurately ripped 13 [de3235ad] (06/47) Accurately ripped 14 [6df4a71b] (06/43) Accurately ripped
Track Peak [ CRC32 ] [W/O NULL] [ LOG ] -- 100,0 [4CB173FD] [7320D47E] CRC32 01 99,8 [DE1D8E0C] [447662AC] 02 96,8 [BBDB028D] [6B0C0464] 03 94,2 [4818799C] [A636786C] 04 99,7 [59716600] [5B2E146A] 05 100,0 [091760A7] [63728792] 06 94,2 [EAA9749A] [ACD4CBC5] 07 94,3 [2D0B64AF] [D695E010] 08 99,7 [B42168CA] [5638DB8A] 09 96,3 [2126BC3A] [5E549833] 10 94,2 [3D3805BF] [7912B4AB] 11 99,6 [827211AD] [480F4382] 12 99,5 [84020CAB] [D3E1198D] 13 99,5 [261077E4] [F35BFAF0] 14 99,6 [5542ADB6] [87DD25A6]

1992 Alles geht!

Треклист:
Reinhard Mey - "Alles geht!" (1992)
Tracks: 13
Total time: 53:21
Year: 1992
Disc-ID: folk / be0c850d
1. Du bist ein Riese, Max! 3:51
2. Ich liebe dich 3:33
3. Grenze 3:33
4. Peter 6:18
5. Die Würde des Schweins ist unantastbar! 4:15
6. Dunkler Rum 3:45
7. Das Etikett 5:11
8. Elternabend 2:19
9. 3. Oktober '91 4:06
10. 50! Was, jetzt schon? 3:42
11. Das Sauwetterlied 3:40
12. Ich liebe das Ende der Saison 5:39
13. Ich liebe dich (Piano Version) 3:29

Лог создания рипа

Exact Audio Copy V1.0 beta 3 from 29. August 2011
EAC extraction logfile from 2. May 2013, 9:47
Reinhard Mey / Alles geht!
Used drive : PLEXTOR DVDR PX-712A Adapter: 1 ID: 0
Read mode : SecureUtilize accurate stream : YesDefeat audio cache : YesMake use of C2 pointers : No
Read offset correction : 30Overread into Lead-In and Lead-Out : NoFill up missing offset samples with silence : YesDelete leading and trailing silent blocks : NoNull samples used in CRC calculations : YesUsed interface : Native Win32 interface for Win NT & 2000
Used output format : Internal WAV RoutinesSample format : 44.100 Hz; 16 Bit; Stereo
TOC of the extracted CD
Track | Start | Length | Start sector | End sector --------------------------------------------------------- 1 | 0:00.00 | 3:51.12 | 0 | 17336 2 | 3:51.12 | 3:33.65 | 17337 | 33376 3 | 7:25.02 | 3:33.35 | 33377 | 49386 4 | 10:58.37 | 6:18.38 | 49387 | 77774 5 | 17:17.00 | 4:15.27 | 77775 | 96926 6 | 21:32.27 | 3:45.28 | 96927 | 113829 7 | 25:17.55 | 5:11.15 | 113830 | 137169 8 | 30:28.70 | 2:19.17 | 137170 | 147611 9 | 32:48.12 | 4:06.38 | 147612 | 166099 10 | 36:54.50 | 3:42.42 | 166100 | 182791 11 | 40:37.17 | 3:40.20 | 182792 | 199311 12 | 44:17.37 | 5:39.25 | 199312 | 224761 13 | 49:56.62 | 3:28.68 | 224762 | 240429
Range status and errors
Selected range
Filename H:\Razdachi\Reinhard Mey\1992 Alles geht\Reinhard Mey - Alles geht.wav
Peak level 100.0 % Extraction speed 10.4 X Range quality 100.0 % Test CRC 64B69CEF Copy CRC 64B69CEF Copy OK
No errors occurred
AccurateRip summary
Track 1 accurately ripped (confidence 4) [267ACED6] (AR v2)Track 2 accurately ripped (confidence 4) [CCD4E50B] (AR v2)Track 3 accurately ripped (confidence 4) [E6C8F146] (AR v2)Track 4 accurately ripped (confidence 4) [BFC5CA1E] (AR v2)Track 5 accurately ripped (confidence 4) [BFD53A11] (AR v2)Track 6 accurately ripped (confidence 4) [5A741A69] (AR v2)Track 7 accurately ripped (confidence 4) [E42ED53D] (AR v2)Track 8 accurately ripped (confidence 4) [A4E6CB56] (AR v2)Track 9 accurately ripped (confidence 4) [6C25A8A9] (AR v2)Track 10 accurately ripped (confidence 4) [0F0559AC] (AR v2)Track 11 accurately ripped (confidence 4) [8A8637D7] (AR v2)Track 12 accurately ripped (confidence 4) [E858EA5F] (AR v2)Track 13 accurately ripped (confidence 4) [4729C6AA] (AR v2)
All tracks accurately ripped
End of status report
==== Log checksum 9F8502F48FF509772A081103DCDE564C96AE709783E05A3FCC830AB01DCA0128 ====

Лог проверки качества

-----------------------
DON'T MODIFY THIS FILE
-----------------------
PERFORMER: auCDtect Task Manager, ver. 1.5.1RC6 build 1.5.1.7Copyright (c) 2008-2010 y-soft. All rights reservedhttp://y-soft.org
ANALYZER: auCDtect: CD records authenticity detector, version 0.8.2Copyright (c) 2004 Oleg Berngardt. All rights reserved.Copyright (c) 2004 Alexander Djourik. All rights reserved.
FILE: Reinhard Mey - Alles geht.flac Size: 282426558 Hash: 312E831C556D9F88FEF848EB0C9625BD Accuracy: -m0 Conclusion: CDDA 100% Signature: 46CDAFBFF0B17D9BD7A81D50A0D9209876E0828B
[CUETools log; Date: 02.05.2013 09:54:03; Version: 2.1.4][CTDB TOCID: zD0nayRcTmEOtKyLMQdqLR2ZBXM-] found.Track | CTDB Status 1 | (21/21) Accurately ripped 2 | (20/21) Accurately ripped 3 | (20/21) Accurately ripped 4 | (20/21) Accurately ripped 5 | (20/21) Accurately ripped 6 | (20/21) Accurately ripped 7 | (20/21) Accurately ripped 8 | (21/21) Accurately ripped 9 | (21/21) Accurately ripped 10 | (20/21) Accurately ripped 11 | (21/21) Accurately ripped 12 | (20/21) Accurately ripped 13 | (20/21) Accurately ripped[AccurateRip ID: 0019bd1b-01018533-be0c850d] found.Track [ CRC | V2 ] Status 01 [cf18abbc|267aced6] (31+04/51) Accurately ripped 02 [bae10c16|ccd4e50b] (30+04/49) Accurately ripped 03 [7d5aac34|e6c8f146] (27+04/47) Accurately ripped 04 [496dd6c6|bfc5ca1e] (30+04/49) Accurately ripped 05 [8dfdc428|bfd53a11] (31+04/51) Accurately ripped 06 [c7cbe1f5|5a741a69] (30+04/50) Accurately ripped 07 [44a18d9b|e42ed53d] (30+04/50) Accurately ripped 08 [67d26f57|a4e6cb56] (29+04/49) Accurately ripped 09 [bcce91e5|6c25a8a9] (30+04/49) Accurately ripped 10 [52c7bd45|0f0559ac] (32+04/51) Accurately ripped 11 [e71d4ef0|8a8637d7] (31+04/51) Accurately ripped 12 [43dd9c49|e858ea5f] (30+04/47) Accurately ripped 13 [793251ba|4729c6aa] (30+04/49) Accurately rippedOffsetted by -113: 01 [cafdb81c] (16/51) Accurately ripped 02 [02e4f2eb] (15/49) Accurately ripped 03 [74b13076] (16/47) Accurately ripped 04 [ed636184] (15/49) Accurately ripped 05 [5f853a07] (16/51) Accurately ripped 06 [2428f026] (16/50) Accurately ripped 07 [bda6a099] (16/50) Accurately ripped 08 [7c90a06a] (16/49) Accurately ripped 09 [7a2d0b6d] (15/49) Accurately ripped 10 [e5ffa445] (15/51) Accurately ripped 11 [4c0cfefd] (16/51) Accurately ripped 12 [c1b948ed] (13/47) Accurately ripped 13 [b461c43a] (15/49) Accurately ripped
Track Peak [ CRC32 ] [W/O NULL] [ LOG ] -- 100,0 [64B69CEF] [C5FC4770] CRC32 01 100,0 [99E91628] [2ED2C461] 02 95,5 [0F0EBDA1] [7F85320E] 03 95,5 [085542B7] [5CCF77C0] 04 97,7 [B7C359EB] [4D13AFA8] 05 100,0 [413E381B] [733E924E] 06 93,3 [BF900779] [4753E6FC] 07 100,0 [AC9BED2F] [6C522C00] 08 91,7 [A67C5020] [95B201BE] 09 79,7 [AF2EB5E9] [9803A181] 10 88,2 [2CD13995] [BDE6367C] 11 93,8 [CA0156EB] [0359FEEE] 12 95,5 [48A66683] [0D7FF78C] 13 93,3 [1867E065] [5EC8175B]

1990 Farben

Треклист:
Reinhard Mey - "Farben" (1990)
Tracks: 12
Total time: 49:14
Year: 1990
Disc-ID: misc / 8a0b8f0c
1. Mein Berlin 6:21
2. Kleines Mädchen 3:47
3. Wahlsonntag 2:22
4. Allein 5:29
5. In Lucianos Restaurant 2:44
6. Mein Dorf am Ende der Welt 3:44
7. Alle Soldaten woll'n nach Haus 6:07
8. Zwischen allen Stühlen 2:50
9. Ich hab' meine Rostlaube tiefergelegt 4:04
10. Die Kinderhosenballade 2:32
11. Golf November 4:33
12. Wir 4:41

Лог создания рипа

Exact Audio Copy V1.0 beta 3 from 29. August 2011
EAC extraction logfile from 12. March 2013, 20:00
Reinhard Mey / Farben
Used drive : PLEXTOR DVDR PX-712A Adapter: 1 ID: 0
Read mode : SecureUtilize accurate stream : YesDefeat audio cache : YesMake use of C2 pointers : No
Read offset correction : 30Overread into Lead-In and Lead-Out : NoFill up missing offset samples with silence : YesDelete leading and trailing silent blocks : NoNull samples used in CRC calculations : YesUsed interface : Native Win32 interface for Win NT & 2000
Used output format : Internal WAV RoutinesSample format : 44.100 Hz; 16 Bit; Stereo
TOC of the extracted CD
Track | Start | Length | Start sector | End sector --------------------------------------------------------- 1 | 0:00.00 | 6:21.67 | 0 | 28641 2 | 6:21.67 | 3:47.15 | 28642 | 45681 3 | 10:09.07 | 2:22.00 | 45682 | 56331 4 | 12:31.07 | 5:29.68 | 56332 | 81074 5 | 18:01.00 | 2:44.72 | 81075 | 93446 6 | 20:45.72 | 3:44.40 | 93447 | 110286 7 | 24:30.37 | 6:07.70 | 110287 | 137881 8 | 30:38.32 | 2:50.13 | 137882 | 150644 9 | 33:28.45 | 4:04.40 | 150645 | 168984 10 | 37:33.10 | 2:32.00 | 168985 | 180384 11 | 40:05.10 | 4:33.40 | 180385 | 200899 12 | 44:38.50 | 4:41.17 | 200900 | 221991
Range status and errors
Selected range
Filename C:\Halle\Reinhard Mey - Farben.wav
Peak level 100.0 % Extraction speed 9.9 X Range quality 100.0 % Test CRC 9E70DF94 Copy CRC 9E70DF94 Copy OK
No errors occurred
AccurateRip summary
Track 1 accurately ripped (confidence 19) [0BAB8395] (AR v1)Track 2 accurately ripped (confidence 19) [6F3B2828] (AR v1)Track 3 accurately ripped (confidence 19) [0D04C4A8] (AR v1)Track 4 accurately ripped (confidence 18) [4AC6A29F] (AR v1)Track 5 accurately ripped (confidence 18) [D9AFE34D] (AR v1)Track 6 accurately ripped (confidence 18) [04E17062] (AR v1)Track 7 accurately ripped (confidence 18) [6C0C9520] (AR v1)Track 8 accurately ripped (confidence 19) [AC72818F] (AR v1)Track 9 accurately ripped (confidence 19) [70222FFC] (AR v1)Track 10 accurately ripped (confidence 19) [C1770266] (AR v1)Track 11 accurately ripped (confidence 19) [1E8B79D1] (AR v1)Track 12 accurately ripped (confidence 19) [6CDB3B05] (AR v1)
All tracks accurately ripped
End of status report
==== Log checksum 9399998677B3CFC6864EDB98DBF091E0B2B48B109522802C0AC260B012AC2A2C ====

Лог проверки качества

-----------------------
DON'T MODIFY THIS FILE
-----------------------
PERFORMER: auCDtect Task Manager, ver. 1.5.1RC6 build 1.5.1.7Copyright (c) 2008-2010 y-soft. All rights reservedhttp://y-soft.org
ANALYZER: auCDtect: CD records authenticity detector, version 0.8.2Copyright (c) 2004 Oleg Berngardt. All rights reserved.Copyright (c) 2004 Alexander Djourik. All rights reserved.
FILE: Reinhard Mey - Farben.flac Size: 267725719 Hash: DBC656EADB67E22F6FC9E784B9DDCEA3 Accuracy: -m0 Conclusion: CDDA 100% Signature: 8EC56121414DFE6B910BC27FBF22961E18D88D71
[CUETools log; Date: 24.03.2013 12:58:21; Version: 2.1.4][CTDB TOCID: NHKOq.3fibXKLcjXwH3FURF5nws-] found.Track | CTDB Status 1 | (14/14) Accurately ripped 2 | (14/14) Accurately ripped 3 | (14/14) Accurately ripped 4 | (13/14) Accurately ripped 5 | (14/14) Accurately ripped 6 | (12/14) Accurately ripped 7 | (14/14) Accurately ripped 8 | (14/14) Accurately ripped 9 | (14/14) Accurately ripped 10 | (14/14) Accurately ripped 11 | (13/14) Accurately ripped 12 | (12/14) Accurately ripped[AccurateRip ID: 0016869e-00cf53a7-8a0b8f0c] found.Track [ CRC | V2 ] Status 01 [0bab8395|05a690d0] (19+00/32) Accurately ripped 02 [6f3b2828|b78adee6] (19+00/31) Accurately ripped 03 [0d04c4a8|754a2da8] (19+00/33) Accurately ripped 04 [4ac6a29f|6aab91b3] (18+00/31) Accurately ripped 05 [d9afe34d|74ac1f4a] (18+00/30) Accurately ripped 06 [04e17062|0061510e] (18+00/30) Accurately ripped 07 [6c0c9520|72fc1167] (18+00/32) Accurately ripped 08 [ac72818f|b5ef013d] (19+00/32) Accurately ripped 09 [70222ffc|184545f3] (19+00/32) Accurately ripped 10 [c1770266|fd9b5076] (19+00/31) Accurately ripped 11 [1e8b79d1|505f09d4] (19+00/32) Accurately ripped 12 [6cdb3b05|5aa67e1f] (19+00/31) Accurately rippedOffsetted by -305: 01 [fe21dfa6] (07/32) Accurately ripped 02 [8b26b604] (06/31) Accurately ripped 03 [2753ab57] (08/33) Accurately ripped 04 [bc5ba31e] (07/31) Accurately ripped 05 [fade76fc] (07/30) Accurately ripped 06 [78286b49] (07/30) Accurately ripped 07 [005c5bec] (08/32) Accurately ripped 08 [08cf8f76] (07/32) Accurately ripped 09 [537c9654] (07/32) Accurately ripped 10 [73c79fcd] (06/31) Accurately ripped 11 [ed593f67] (07/32) Accurately ripped 12 [0adaa69a] (07/31) Accurately rippedOffsetted by 434: 01 [c0166623] (04/32) Accurately ripped 02 [a58237b0] (04/31) Accurately ripped 03 [48f2809a] (04/33) Accurately ripped 04 [1b4e19f1] (04/31) Accurately ripped 05 [98d8353f] (03/30) Accurately ripped 06 [74fdb264] (03/30) Accurately ripped 07 [56b367c8] (04/32) Accurately ripped 08 [649cad91] (04/32) Accurately ripped 09 [095e67cc] (04/32) Accurately ripped 10 [b06d3768] (04/31) Accurately ripped 11 [d42e6fc5] (04/32) Accurately ripped 12 [0f8df871] (03/31) Accurately ripped
Track Peak [ CRC32 ] [W/O NULL] [ LOG ] -- 100,0 [9E70DF94] [315CF6A7] CRC32 01 100,0 [23C7C96B] [EA09940C] 02 83,5 [C386C44B] [5B8C29F8] 03 99,9 [E7290357] [0C436923] 04 91,5 [EAF46832] [35D8EDBA] 05 99,9 [89D98E82] [36E40B82] 06 95,5 [1F424D75] [823C550A] 07 100,0 [FA0C3DA1] [EB13ED29] 08 89,7 [36145265] [6BD8EFA5] 09 95,5 [8DCC73ED] [4623EF8B] 10 92,7 [961F6A97] [2851B367] 11 80,6 [CF4E6A52] [984ADE9C] 12 92,8 [9784B982] [42D3BDA1]

1988 Balladen

Треклист:
Reinhard Mey - "Balladen" (1988)
Tracks: 12
Total time: 48:00
Year: 1988
Disc-ID: folk / 9c0b420c
1. Bei Hempels unterm Bett 3:35
2. In diesem, unsrem Lande 4:00
3. Das letzte Abenteuer 4:05
4. Die Body-Building-Ballade 3:36
5. Fünf Gartennelken 1:55
6. Aller guten Dinge sind drei 3:14
7. Hab' Dank für Deine Zeit 3:50
8. Das Meer 3:56
9. Die Mauern meiner Zeit 3:31
10. Lulu 3:11
11. Welch ein glücklicher Mann 2:54
12. Die Eisenbahnballade 10:13

Лог создания рипа

Exact Audio Copy V1.0 beta 3 from 29. August 2011
EAC extraction logfile from 19. March 2013, 15:23
Reinhard Mey / Balladen
Used drive : PLEXTOR DVDR PX-712A Adapter: 1 ID: 0
Read mode : SecureUtilize accurate stream : YesDefeat audio cache : YesMake use of C2 pointers : No
Read offset correction : 30Overread into Lead-In and Lead-Out : NoFill up missing offset samples with silence : YesDelete leading and trailing silent blocks : NoNull samples used in CRC calculations : YesUsed interface : Native Win32 interface for Win NT & 2000
Used output format : Internal WAV RoutinesSample format : 44.100 Hz; 16 Bit; Stereo
TOC of the extracted CD
Track | Start | Length | Start sector | End sector --------------------------------------------------------- 1 | 0:00.33 | 3:35.22 | 33 | 16179 2 | 3:35.55 | 4:00.03 | 16180 | 34182 3 | 7:35.58 | 4:05.00 | 34183 | 52557 4 | 11:40.58 | 3:36.00 | 52558 | 68757 5 | 15:16.58 | 1:55.00 | 68758 | 77382 6 | 17:11.58 | 3:14.00 | 77383 | 91932 7 | 20:25.58 | 3:50.72 | 91933 | 109254 8 | 24:16.55 | 3:56.03 | 109255 | 126957 9 | 28:12.58 | 3:31.00 | 126958 | 142782 10 | 31:43.58 | 3:11.00 | 142783 | 157107 11 | 34:54.58 | 2:54.72 | 157108 | 170229 12 | 37:49.55 | 10:12.53 | 170230 | 216182
Range status and errors
Selected range
Filename C:\Halle\Reinhard Mey - Balladen.wav
Peak level 90.3 % Extraction speed 3.6 X Range quality 99.9 % Test CRC E82B5B5D Copy CRC E82B5B5D Copy OK
No errors occurred
AccurateRip summary
Track 1 accurately ripped (confidence 26) [18402AC2] (AR v1)Track 2 accurately ripped (confidence 28) [3F01A25A] (AR v1)Track 3 accurately ripped (confidence 28) [97F259E0] (AR v1)Track 4 accurately ripped (confidence 27) [50B55197] (AR v1)Track 5 accurately ripped (confidence 27) [B7C47F24] (AR v1)Track 6 accurately ripped (confidence 28) [0744C86B] (AR v1)Track 7 accurately ripped (confidence 27) [BDA59802] (AR v1)Track 8 accurately ripped (confidence 27) [4CA31E01] (AR v1)Track 9 accurately ripped (confidence 27) [163FB0AB] (AR v1)Track 10 accurately ripped (confidence 27) [44BF7B6E] (AR v1)Track 11 accurately ripped (confidence 27) [0A7576EF] (AR v1)Track 12 accurately ripped (confidence 26) [CF5110A9] (AR v1)
All tracks accurately ripped
End of status report
==== Log checksum 056D93C236F97DC11BA757717B1A1689DF400A9039EB5E78E74DE8569171021D ====

Лог проверки качества

-----------------------
DON'T MODIFY THIS FILE
-----------------------
PERFORMER: auCDtect Task Manager, ver. 1.5.1RC6 build 1.5.1.7Copyright (c) 2008-2010 y-soft. All rights reservedhttp://y-soft.org
ANALYZER: auCDtect: CD records authenticity detector, version 0.8.2Copyright (c) 2004 Oleg Berngardt. All rights reserved.Copyright (c) 2004 Alexander Djourik. All rights reserved.
FILE: Reinhard Mey - Balladen.flac Size: 269740132 Hash: 25F51438F7BF472C8EBEAF0164827A90 Accuracy: -m0 Conclusion: CDDA 100% Signature: 73D8C4AA57ED1E963E916889E52C414EBA9AB312
[CUETools log; Date: 24.03.2013 12:47:30; Version: 2.1.4]Pregap length 00:00:33.[CTDB TOCID: bNNihDvhUAORUOd.KYlOfg90kUg-] found.Track | CTDB Status 1 | (0/4) No match 2 | (0/4) No match 3 | (0/4) No match 4 | (0/4) No match 5 | (0/4) No match 6 | (0/4) No match 7 | (0/4) No match 8 | (0/4) No match 9 | (0/4) No match 10 | (0/4) No match 11 | (0/4) No match 12 | (0/4) No match[AccurateRip ID: 001347b9-00b46614-9c0b420c] found.Track [ CRC | V2 ] Status 01 [18402ac2|d3afe244] (26+00/31) Accurately ripped 02 [3f01a25a|cd590a9c] (28+00/33) Accurately ripped 03 [97f259e0|72eafff1] (28+00/33) Accurately ripped 04 [50b55197|887e09df] (27+00/32) Accurately ripped 05 [b7c47f24|f2ccd426] (27+00/32) Accurately ripped 06 [0744c86b|a72d37c1] (28+00/33) Accurately ripped 07 [bda59802|12b7cb59] (27+00/32) Accurately ripped 08 [4ca31e01|9ea95a15] (27+00/32) Accurately ripped 09 [163fb0ab|116dfc39] (27+00/32) Accurately ripped 10 [44bf7b6e|e3591e49] (27+00/32) Accurately ripped 11 [0a7576ef|ff0056aa] (27+00/32) Accurately ripped 12 [cf5110a9|d02a7b49] (26+00/31) Accurately rippedOffsetted by 716: 01 [fce5c692] (05/31) Accurately ripped 02 [dac31636] (05/33) Accurately ripped 03 [c6ba166c] (05/33) Accurately ripped 04 [528bb967] (05/32) Accurately ripped 05 [32bf09e0] (05/32) Accurately ripped 06 [78431973] (05/33) Accurately ripped 07 [737e405e] (05/32) Accurately ripped 08 [de9eb99d] (05/32) Accurately ripped 09 [a30bd6bb] (05/32) Accurately ripped 10 [d88520e6] (05/32) Accurately ripped 11 [97616d87] (05/32) Accurately ripped 12 [96b62f66] (05/31) Accurately ripped
Track Peak [ CRC32 ] [W/O NULL] [ LOG ] -- 90,3 [E82B5B5D] [9AC1D2CD] CRC32 01 82,6 [AB738FAD] [BDBAC1B2] 02 82,6 [3B8C2B4F] [C4FAF120] 03 80,2 [8B5FB0C8] [9AC25C1D] 04 82,8 [BEF61D74] [A42F3338] 05 69,3 [050E74F4] [427D0230] 06 81,0 [57B79E6B] [F7C0AF4E] 07 86,7 [F20BCECD] [68D65E16] 08 84,6 [24504626] [F3744D14] 09 69,1 [5A768936] [ADB3D352] 10 86,4 [E7419F21] [B5A8F5A9] 11 84,0 [D55EE05C] [976DDC5C] 12 90,3 [DF5C36BE] [B3C82D25]

1970 (1987) Aus meinem Tagebuch

Треклист:
Reinhard Mey - "Aus meinem Tagebuch" (1987)
Tracks: 12
Total time: 40:42
Year: 1970
Disc-ID: misc / 97098f0c
1. Die Ballade vom Pfeifer 3:43
2. In meinem Garten 3:32
3. Du, meine Freundin 2:56
4. Abgesang 3:00
5. Vertreterbesuch 2:27
6. Trilogie auf Frau Pohl 5:25
7. Aus meinem Tagebuch 3:02
8. Das Lied von der Spieluhr 3:39
9. Noch einmal hab' ich gelernt 2:43
10. Wirklich schon wieder ein Jahr 2:58
11. Komm, gieß' mein Glas noch einmal ein 4:15
12. Grüß dich, Gestern 3:02

Лог создания рипа

Exact Audio Copy V1.0 beta 3 from 29. August 2011
EAC extraction logfile from 14. March 2013, 17:34
Reinhard Mey / Aus meinem Tagebuch
Used drive : PLEXTOR DVDR PX-712A Adapter: 1 ID: 0
Read mode : SecureUtilize accurate stream : YesDefeat audio cache : YesMake use of C2 pointers : No
Read offset correction : 30Overread into Lead-In and Lead-Out : NoFill up missing offset samples with silence : YesDelete leading and trailing silent blocks : NoNull samples used in CRC calculations : YesUsed interface : Native Win32 interface for Win NT & 2000
Used output format : Internal WAV RoutinesSample format : 44.100 Hz; 16 Bit; Stereo
TOC of the extracted CD
Track | Start | Length | Start sector | End sector --------------------------------------------------------- 1 | 0:00.32 | 3:43.48 | 32 | 16804 2 | 3:44.05 | 3:32.25 | 16805 | 32729 3 | 7:16.30 | 2:56.52 | 32730 | 45981 4 | 10:13.07 | 3:00.25 | 45982 | 59506 5 | 13:13.32 | 2:27.05 | 59507 | 70536 6 | 15:40.37 | 5:25.00 | 70537 | 94911 7 | 21:05.37 | 3:02.70 | 94912 | 108631 8 | 24:08.32 | 3:39.50 | 108632 | 125106 9 | 27:48.07 | 2:43.50 | 125107 | 137381 10 | 30:31.57 | 2:58.00 | 137382 | 150731 11 | 33:29.57 | 4:15.25 | 150732 | 169881 12 | 37:45.07 | 3:02.25 | 169882 | 183556
Range status and errors
Selected range
Filename C:\Halle\Reinhard Mey - Aus meinem Tagebuch.wav
Peak level 100.0 % Extraction speed 6.9 X Range quality 100.0 % Test CRC 66FD3384 Copy CRC 66FD3384 Copy OK
No errors occurred
AccurateRip summary
Track 1 accurately ripped (confidence 2) [5FED117B] (AR v2)Track 2 accurately ripped (confidence 2) [B9EF9A1B] (AR v2)Track 3 accurately ripped (confidence 2) [281DB06E] (AR v2)Track 4 accurately ripped (confidence 2) [AC3A48C9] (AR v2)Track 5 accurately ripped (confidence 2) [0D55E89E] (AR v2)Track 6 accurately ripped (confidence 2) [0B1E1298] (AR v2)Track 7 accurately ripped (confidence 2) [2E97F6C3] (AR v2)Track 8 accurately ripped (confidence 2) [8BB68AA6] (AR v2)Track 9 accurately ripped (confidence 2) [45ABA040] (AR v2)Track 10 accurately ripped (confidence 2) [713AE4A7] (AR v2)Track 11 accurately ripped (confidence 2) [44938C81] (AR v2)Track 12 accurately ripped (confidence 2) [F7BA2816] (AR v2)
All tracks accurately ripped
End of status report
==== Log checksum E162C74B1C4C396A3FC1880D40EF9CA9EA74A79FDA593D07B1BFD94780F2B47E ====

Лог проверки качества

-----------------------
DON'T MODIFY THIS FILE
-----------------------
PERFORMER: auCDtect Task Manager, ver. 1.5.1RC6 build 1.5.1.7Copyright (c) 2008-2010 y-soft. All rights reservedhttp://y-soft.org
ANALYZER: auCDtect: CD records authenticity detector, version 0.8.2Copyright (c) 2004 Oleg Berngardt. All rights reserved.Copyright (c) 2004 Alexander Djourik. All rights reserved.
FILE: Reinhard Mey - Aus meinem Tagebuch.flac Size: 205808406 Hash: B565BEB8905DF48E0D47DAC49C0A97F1 Accuracy: -m0 Conclusion: CDDA 99% Signature: 58348D38422CB1F55BA24147592906EB0FC7D493
[CUETools log; Date: 23.03.2013 21:54:34; Version: 2.1.4]Pregap length 00:00:32.[CTDB TOCID: FvVNGvY_ov4XRq4JRLmxSTZWZdk-] disk not present in database.[AccurateRip ID: 00123f15-00aa2ce9-97098f0c] found.Track [ CRC | V2 ] Status 01 [88b2ab0c|5fed117b] (12+02/16) Accurately ripped 02 [c9d40dc9|b9ef9a1b] (12+02/16) Accurately ripped 03 [5fbe7f64|281db06e] (12+02/16) Accurately ripped 04 [c38c22f3|ac3a48c9] (12+02/16) Accurately ripped 05 [145bb1fb|0d55e89e] (12+02/16) Accurately ripped 06 [ec4ac0da|0b1e1298] (12+02/16) Accurately ripped 07 [aad31b54|2e97f6c3] (12+02/16) Accurately ripped 08 [b4b8318b|8bb68aa6] (12+02/16) Accurately ripped 09 [a96078c9|45aba040] (12+02/16) Accurately ripped 10 [699a7c02|713ae4a7] (12+02/16) Accurately ripped 11 [4b3f75f2|44938c81] (12+02/16) Accurately ripped 12 [937dc8bc|f7ba2816] (12+02/16) Accurately rippedOffsetted by 839: 01 [73461585] (02/16) Accurately ripped 02 [9e1ed1d2] (02/16) Accurately ripped 03 [c9de279d] (02/16) Accurately ripped 04 [460b4e68] (02/16) Accurately ripped 05 [4c9a85f5] (02/16) Accurately ripped 06 [95d9b530] (02/16) Accurately ripped 07 [56b09e5a] (02/16) Accurately ripped 08 [e52d9cf2] (02/16) Accurately ripped 09 [e54cd73f] (02/16) Accurately ripped 10 [a4b551c1] (02/16) Accurately ripped 11 [513ace42] (02/16) Accurately ripped 12 [3ec05414] (02/16) Accurately ripped
Track Peak [ CRC32 ] [W/O NULL] [ LOG ] -- 100,0 [66FD3384] [02026063] CRC32 01 100,0 [FE5CE242] [AE7D2478] 02 92,1 [15FED806] [807F7E2F] 03 87,0 [704D5C92] [1C4FCB9B] 04 98,6 [02F51877] [3511D8DD] 05 87,4 [7ADC7084] [31AA8228] 06 92,4 [86C473AA] [8A6B89A7] 07 87,6 [62C9687D] [048D4F3E] 08 87,8 [5819CFBD] [01FA83AF] 09 60,4 [01F86B2C] [AF9F7BEC] 10 75,9 [2AA2378C] [FCE67A76] 11 95,9 [BEF9ECC2] [1723D881] 12 75,2 [E4C5A901] [AAF70DF1]

Compilations2005 Frei

Треклист:
Reinhard Mey - "Frei!" (2005)
Tracks: 14
Total time: 73:17
Year: 2005
Disc-ID: folk / e811350e
1. Der Marder 4:06
2. Tierpolizei 3:47
3. Füchschen 6:43
4. Es gibt Tage, da wünscht' ich, ich wär' mein Hund 3:40
5. Der kleine Wiesel 5:09
6. Hasengebet 3:50
7. Der Bär der ein Bär bleiben wollte 10:55
8. Hundgebet 4:42
9. Mein roter Bär 5:20
10. Die Würde des Schweins ist unantastbar 4:12
11. Es gibt keine Maikäfer mehr 4:14
12. An meinen schlafenden Hund 4:17
13. Frei! 4:57
14. Erbarme Dich 7:25

Лог создания рипа

Exact Audio Copy V1.0 beta 3 from 29. August 2011
EAC extraction logfile from 20. March 2013, 11:40
Reinhard Mey / Frei!
Used drive : PLEXTOR CD-R PX-W4012A Adapter: 2 ID: 1
Read mode : SecureUtilize accurate stream : YesDefeat audio cache : YesMake use of C2 pointers : No
Read offset correction : 98Overread into Lead-In and Lead-Out : NoFill up missing offset samples with silence : YesDelete leading and trailing silent blocks : NoNull samples used in CRC calculations : YesUsed interface : Native Win32 interface for Win NT & 2000
Used output format : Internal WAV RoutinesSample format : 44.100 Hz; 16 Bit; Stereo
TOC of the extracted CD
Track | Start | Length | Start sector | End sector --------------------------------------------------------- 1 | 0:00.00 | 4:06.22 | 0 | 18471 2 | 4:06.22 | 3:47.58 | 18472 | 35554 3 | 7:54.05 | 6:43.39 | 35555 | 65818 4 | 14:37.44 | 3:40.26 | 65819 | 82344 5 | 18:17.70 | 5:09.23 | 82345 | 105542 6 | 23:27.18 | 3:50.70 | 105543 | 122862 7 | 27:18.13 | 10:55.46 | 122863 | 172033 8 | 38:13.59 | 4:42.69 | 172034 | 193252 9 | 42:56.53 | 5:20.42 | 193253 | 217294 10 | 48:17.20 | 4:12.62 | 217295 | 236256 11 | 52:30.07 | 4:14.65 | 236257 | 255371 12 | 56:44.72 | 4:17.71 | 255372 | 274717 13 | 61:02.68 | 4:57.67 | 274718 | 297059 14 | 66:00.60 | 7:24.26 | 297060 | 330385
Range status and errors
Selected range
Filename D:\Reinhard Mey - Frei.wav
Peak level 100.0 % Extraction speed 13.3 X Range quality 100.0 % Test CRC 85B1C611 Copy CRC 85B1C611 Copy OK
No errors occurred
AccurateRip summary
Track 1 accurately ripped (confidence 3) [790B2E9E] (AR v1)Track 2 accurately ripped (confidence 4) [5676B9BC] (AR v1)Track 3 accurately ripped (confidence 4) [D9344EF9] (AR v1)Track 4 accurately ripped (confidence 4) [542BB3C2] (AR v1)Track 5 accurately ripped (confidence 4) [FF4CCAEB] (AR v1)Track 6 accurately ripped (confidence 4) [D7BA3F74] (AR v1)Track 7 accurately ripped (confidence 4) [3D2F18BD] (AR v1)Track 8 accurately ripped (confidence 4) [0BD621FA] (AR v1)Track 9 accurately ripped (confidence 4) [77262A75] (AR v1)Track 10 accurately ripped (confidence 4) [0E109CCA] (AR v1)Track 11 accurately ripped (confidence 4) [C657142F] (AR v1)Track 12 accurately ripped (confidence 4) [E73F648E] (AR v1)Track 13 accurately ripped (confidence 4) [99111B8A] (AR v1)Track 14 accurately ripped (confidence 4) [87FA8AC3] (AR v1)
All tracks accurately ripped
End of status report
==== Log checksum B150E79DA3402FC4A363B70952D0C374404816BF33B4079187DA82F9F01FB988 ====

Лог проверки качества

-----------------------
DON'T MODIFY THIS FILE
-----------------------
PERFORMER: auCDtect Task Manager, ver. 1.5.1RC6 build 1.5.1.7Copyright (c) 2008-2010 y-soft. All rights reservedhttp://y-soft.org
ANALYZER: auCDtect: CD records authenticity detector, version 0.8.2Copyright (c) 2004 Oleg Berngardt. All rights reserved.Copyright (c) 2004 Alexander Djourik. All rights reserved.
FILE: Reinhard Mey - Frei.flac Size: 461197554 Hash: F4B23A4733B31C20B978D9FD547F1104 Accuracy: -m0 Conclusion: CDDA 100% Signature: 0A5B50A4FF9255FE542360281E0F1043A9EBE794
[CUETools log; Date: 24.03.2013 16:04:51; Version: 2.1.4][CTDB TOCID: MIA.IqLk8ulBcr0SzqhycovopGk-] found.Track | CTDB Status 1 | (1/3) Accurately ripped, or (1/3) differs in 30 samples @00:22:42-00:22:43 2 | (1/3) Accurately ripped, or (1/3) differs in 154 samples @01:05:08-01:05:09 3 | (2/3) Accurately ripped 4 | (2/3) Accurately ripped 5 | (2/3) Accurately ripped 6 | (2/3) Accurately ripped 7 | (1/3) Accurately ripped, or (1/3) differs in 52 samples @07:17:29-07:17:30 8 | (2/3) Accurately ripped 9 | (2/3) Accurately ripped 10 | (2/3) Accurately ripped 11 | (2/3) Accurately ripped 12 | (2/3) Accurately ripped 13 | (1/3) Accurately ripped, or (1/3) differs in 27 samples @04:22:49-04:22:50 14 | (2/3) Accurately ripped[AccurateRip ID: 0024ba3c-018bf5e0-e811350e] found.Track [ CRC | V2 ] Status 01 [790b2e9e|e0b8cd5f] (3+0/3) Accurately ripped 02 [5676b9bc|9006a59f] (4+0/4) Accurately ripped 03 [d9344ef9|643707d5] (4+0/4) Accurately ripped 04 [542bb3c2|cbc8d4d8] (4+0/4) Accurately ripped 05 [ff4ccaeb|7d81fb00] (4+0/4) Accurately ripped 06 [d7ba3f74|7eb38910] (4+0/4) Accurately ripped 07 [3d2f18bd|19072fe8] (4+0/4) Accurately ripped 08 [0bd621fa|ada2d689] (4+0/4) Accurately ripped 09 [77262a75|c77398a7] (4+0/4) Accurately ripped 10 [0e109cca|dcba9e7a] (4+0/4) Accurately ripped 11 [c657142f|a99c0c3d] (4+0/4) Accurately ripped 12 [e73f648e|eb66f2e8] (4+0/4) Accurately ripped 13 [99111b8a|34e7a134] (4+0/4) Accurately ripped 14 [87fa8ac3|0542ffe7] (4+0/4) Accurately ripped
Track Peak [ CRC32 ] [W/O NULL] [ LOG ] -- 100,0 [85B1C611] [FA163675] CRC32 01 98,9 [C4903E5F] [AC017EB0] 02 100,0 [3036F7F8] [A0615559] 03 99,5 [D56565F6] [00876161] 04 98,0 [44AF23D6] [B6DFDBBD] 05 99,9 [27DEB182] [9101F4C2] 06 99,7 [997D17E8] [7AEEA181] 07 100,0 [3DDCFA37] [FC6B538B] 08 93,5 [E4C30597] [DDAC9779] 09 98,8 [B05F9235] [BEFA381E] 10 99,8 [9B24EBB3] [93B9EB23] 11 99,0 [9E898352] [D316BA63] 12 99,7 [FDAA6E7C] [12327AF1] 13 95,3 [67FB92C3] [B95DBE5F] 14 98,9 [D3F3EF39] [BD2531AD]

1997 Du bist ein Riese

Треклист:
Reinhard Mey - "Du bist ein Riese..." (1997)
Tracks: 18
Total time: 74:47
Year: 1997
Disc-ID: misc / 0e119012
1. Du bist ein Riese, Max! 3:48
2. Das Meer 3:54
3. Das Etikett 5:09
4. Die Würde des Schweins ist unantastbar 4:13
5. Kleines Mädchen 3:46
6. Der unendliche Tango der deutschen Rechtschreibung 3:10
7. Kaspar 5:52
8. Es gibt keine Maikäfer mehr 4:14
9. Diplomatenjagd 3:01
10. Maikäfer fliege 4:08
11. Die Kinder von Izieu 5:12
12. 51er Kapitän 5:55
13. Altes Kind 3:20
14. Kati und Sandy 5:43
15. Tierpolizei 3:49
16. Irgendein Depp bohrt irgendwo... 4:21
17. In Lucianos Restaurant 2:43
18. Die Kinderhosenballade 2:29

Лог создания рипа

Exact Audio Copy V1.0 beta 3 from 29. August 2011
EAC extraction logfile from 14. March 2013, 21:20
Reinhard Mey / Du bist ein Riese ...
Used drive : PLEXTOR DVDR PX-712A Adapter: 1 ID: 0
Read mode : SecureUtilize accurate stream : YesDefeat audio cache : YesMake use of C2 pointers : No
Read offset correction : 30Overread into Lead-In and Lead-Out : NoFill up missing offset samples with silence : YesDelete leading and trailing silent blocks : NoNull samples used in CRC calculations : YesUsed interface : Native Win32 interface for Win NT & 2000
Used output format : Internal WAV RoutinesSample format : 44.100 Hz; 16 Bit; Stereo
TOC of the extracted CD
Track | Start | Length | Start sector | End sector --------------------------------------------------------- 1 | 0:00.00 | 3:48.35 | 0 | 17134 2 | 3:48.35 | 3:54.67 | 17135 | 34751 3 | 7:43.27 | 5:09.60 | 34752 | 57986 4 | 12:53.12 | 4:13.68 | 57987 | 77029 5 | 17:07.05 | 3:46.35 | 77030 | 94014 6 | 20:53.40 | 3:10.70 | 94015 | 108334 7 | 24:04.35 | 5:52.60 | 108335 | 134794 8 | 29:57.20 | 4:14.47 | 134795 | 153891 9 | 34:11.67 | 3:01.10 | 153892 | 167476 10 | 37:13.02 | 4:08.25 | 167477 | 186101 11 | 41:21.27 | 5:12.38 | 186102 | 209539 12 | 46:33.65 | 5:55.10 | 209540 | 236174 13 | 52:29.00 | 3:20.42 | 236175 | 251216 14 | 55:49.42 | 5:43.28 | 251217 | 276969 15 | 61:32.70 | 3:49.62 | 276970 | 294206 16 | 65:22.57 | 4:21.00 | 294207 | 313781 17 | 69:43.57 | 2:43.63 | 313782 | 326069 18 | 72:27.45 | 2:29.05 | 326070 | 337249
Range status and errors
Selected range
Filename C:\Halle\Reinhard Mey - Du bist ein Riese ....wav
Peak level 100.0 % Extraction speed 8.5 X Range quality 100.0 % Test CRC 77A82142 Copy CRC 77A82142 Copy OK
No errors occurred
AccurateRip summary
Track 1 accurately ripped (confidence 16) [209F3591] (AR v1)Track 2 accurately ripped (confidence 16) [BA65C349] (AR v1)Track 3 accurately ripped (confidence 16) [81E539E7] (AR v1)Track 4 accurately ripped (confidence 16) [79987482] (AR v1)Track 5 accurately ripped (confidence 16) [61B7C3BB] (AR v1)Track 6 accurately ripped (confidence 16) [E63BC8CA] (AR v1)Track 7 accurately ripped (confidence 11) [28209370] (AR v1)Track 8 accurately ripped (confidence 16) [E825C3C1] (AR v1)Track 9 accurately ripped (confidence 16) [8DE86229] (AR v1)Track 10 accurately ripped (confidence 16) [94B3107F] (AR v1)Track 11 accurately ripped (confidence 16) [8E0BE8E9] (AR v1)Track 12 accurately ripped (confidence 16) [EA2E3330] (AR v1)Track 13 accurately ripped (confidence 16) [1DC5170F] (AR v1)Track 14 accurately ripped (confidence 16) [E425D4D1] (AR v1)Track 15 accurately ripped (confidence 16) [4A690983] (AR v1)Track 16 accurately ripped (confidence 16) [99A40BA2] (AR v1)Track 17 accurately ripped (confidence 16) [FE14F386] (AR v1)Track 18 accurately ripped (confidence 16) [BF53E998] (AR v1)
All tracks accurately ripped
End of status report
==== Log checksum 33F8E470CAE35953EB26ABAEE756D06C9C6D3A55FCFA143F1BDBC4EF9E6CC3C6 ====

Лог проверки качества

-----------------------
DON'T MODIFY THIS FILE
-----------------------
PERFORMER: auCDtect Task Manager, ver. 1.5.1RC6 build 1.5.1.7Copyright (c) 2008-2010 y-soft. All rights reservedhttp://y-soft.org
ANALYZER: auCDtect: CD records authenticity detector, version 0.8.2Copyright (c) 2004 Oleg Berngardt. All rights reserved.Copyright (c) 2004 Alexander Djourik. All rights reserved.
FILE: Reinhard Mey - Du bist ein Riese ....flac Size: 432603991 Hash: 7DC1A5CC140290DCCFB27D5A66990EEA Accuracy: -m0 Conclusion: CDDA 100% Signature: 1D7983006CE3F6FFE6CED0ECDCF69023641AE46D
[CUETools log; Date: 24.03.2013 15:32:32; Version: 2.1.4][CTDB TOCID: CTj7dc2_qZ7G.DHR3l4qXfT_SIg-] found.Track | CTDB Status 1 | (4/4) Accurately ripped 2 | (4/4) Accurately ripped 3 | (4/4) Accurately ripped 4 | (4/4) Accurately ripped 5 | (4/4) Accurately ripped 6 | (4/4) Accurately ripped 7 | (2/4) Accurately ripped, or (1/4) differs in 18 samples @00:42:41,00:42:55-00:42:56,00:43:10-00:43:11,00:43:40, or (1/4) differs in 2 samples @00:42:55-00:42:56 8 | (4/4) Accurately ripped 9 | (4/4) Accurately ripped 10 | (4/4) Accurately ripped 11 | (3/4) Accurately ripped, or (1/4) differs in 615 samples @03:00:59-03:00:60,03:01:02,03:01:38-03:01:39,03:01:56-03:01:57,03:01:74-03:02:00,03:02:17-03:02:18,03:02:35-03:02:36,03:02:53-03:02:54,03:02:72,03:03:15,03:03:33,03:03:51,03:03:69,03:09:34,03:10:50,03:10:68,03:11:11,03:11:47,03:11:65-03:11:66,03:12:08-03:12:09,03:12:44-03:12:45,03:13:42 12 | (4/4) Accurately ripped 13 | (4/4) Accurately ripped 14 | (4/4) Accurately ripped 15 | (4/4) Accurately ripped 16 | (3/4) Accurately ripped, or (1/4) differs in 14111 samples @01:09:37-01:09:49 17 | (4/4) Accurately ripped 18 | (4/4) Accurately ripped[AccurateRip ID: 0031ffbb-029ceb5b-0e119012] found.Track [ CRC | V2 ] Status 01 [209f3591|4cc100f2] (16+00/16) Accurately ripped 02 [ba65c349|e7a7d3ee] (16+00/16) Accurately ripped 03 [81e539e7|361e16a0] (16+00/16) Accurately ripped 04 [79987482|0cd8bf95] (16+00/16) Accurately ripped 05 [61b7c3bb|05386f66] (16+00/16) Accurately ripped 06 [e63bc8ca|5b7edb0d] (16+00/16) Accurately ripped 07 [28209370|d0c82e63] (11+00/11) Accurately ripped 08 [e825c3c1|afdad65f] (16+00/16) Accurately ripped 09 [8de86229|548f91bf] (16+00/16) Accurately ripped 10 [94b3107f|d8178f02] (16+00/16) Accurately ripped 11 [8e0be8e9|41c8352a] (16+00/16) Accurately ripped 12 [ea2e3330|5512641b] (16+00/16) Accurately ripped 13 [1dc5170f|98c074cb] (16+00/16) Accurately ripped 14 [e425d4d1|35d7e2bc] (16+00/16) Accurately ripped 15 [4a690983|2de33610] (16+00/16) Accurately ripped 16 [99a40ba2|3694d5bf] (16+00/16) Accurately ripped 17 [fe14f386|faaa8c4e] (16+00/16) Accurately ripped 18 [bf53e998|eceec7e8] (16+00/16) Accurately ripped
Track Peak [ CRC32 ] [W/O NULL] [ LOG ] -- 100,0 [77A82142] [A7416381] CRC32 01 89,1 [D3DBE863] [0428432E] 02 99,9 [E83A7547] [ACDDE5A6] 03 99,9 [3439382C] [E081D0E2] 04 100,0 [CBBA481F] [4743842B] 05 93,7 [2D69283D] [64A754B0] 06 54,1 [A2B7FA8A] [E3B77500] 07 84,7 [388AE999] [9C019714] 08 76,2 [35105A1D] [97BFE05C] 09 76,6 [FC8082C7] [2F69E543] 10 42,0 [EB92BC4B] [4DEC3D25] 11 62,8 [F1D89762] [9216A684] 12 56,1 [7376C417] [2AACAC0B] 13 83,1 [1394A7F0] [67D7B1E5] 14 76,6 [C0D148D9] [66FB8732] 15 77,3 [773FA72C] [8ABE2968] 16 70,7 [0640734F] [3B8088AD] 17 99,9 [9BDAF5A4] [0BC1E8E8] 18 92,7 [7CE35815] [D1978988]

1989 Mein Apfelbäumchen

Треклист:
Reinhard Mey - "Mein Apfelbäumchen" (1989)
Tracks: 16
Total time: 58:37
Year: 1989
Disc-ID: misc / dd0dc210
1. Mein Apfelbäumchen 3:53
2. Keine ruhige Minute 2:27
3. Menschenjunges 5:22
4. Beim Blättern in den Bildern meiner Kindheit 4:15
5. Zeugnistag 4:21
6. Vaters Nachtlied 2:53
7. Zu deinem dritten Geburtstag 2:55
8. Nein, meine Söhne geb' ich nicht 4:53
9. Aller guten Dinge sind drei 3:14
10. Die erste Stunde 3:07
11. Und nun fängt alles das noch mal von vorne an 3:40
12. Lulu 3:09
13. Alles ist gut 3:35
14. Ich frag' mich seit 'ner Weile schon 3:25
15. Abends an deinem Bett 3:24
16. Kleiner Kamerad 4:04

Лог создания рипа

Exact Audio Copy V1.0 beta 3 from 29. August 2011
EAC extraction logfile from 14. March 2013, 17:19
Reinhard Mey / Mein Apfelbäumchen
Used drive : PLEXTOR DVDR PX-712A Adapter: 1 ID: 0
Read mode : SecureUtilize accurate stream : YesDefeat audio cache : YesMake use of C2 pointers : No
Read offset correction : 30Overread into Lead-In and Lead-Out : NoFill up missing offset samples with silence : YesDelete leading and trailing silent blocks : NoNull samples used in CRC calculations : YesUsed interface : Native Win32 interface for Win NT & 2000
Used output format : Internal WAV RoutinesSample format : 44.100 Hz; 16 Bit; Stereo
TOC of the extracted CD
Track | Start | Length | Start sector | End sector --------------------------------------------------------- 1 | 0:00.00 | 3:53.02 | 0 | 17476 2 | 3:53.02 | 2:27.73 | 17477 | 28574 3 | 6:21.00 | 5:22.60 | 28575 | 52784 4 | 11:43.60 | 4:15.30 | 52785 | 71939 5 | 15:59.15 | 4:21.17 | 71940 | 91531 6 | 20:20.32 | 2:53.00 | 91532 | 104506 7 | 23:13.32 | 2:55.30 | 104507 | 117661 8 | 26:08.62 | 4:53.65 | 117662 | 139701 9 | 31:02.52 | 3:14.05 | 139702 | 154256 10 | 34:16.57 | 3:07.15 | 154257 | 168296 11 | 37:23.72 | 3:40.40 | 168297 | 184836 12 | 41:04.37 | 3:09.03 | 184837 | 199014 13 | 44:13.40 | 3:35.25 | 199015 | 215164 14 | 47:48.65 | 3:25.10 | 215165 | 230549 15 | 51:14.00 | 3:24.02 | 230550 | 245851 16 | 54:38.02 | 4:04.60 | 245852 | 264211
Range status and errors
Selected range
Filename C:\Halle\Reinhard Mey - Mein Apfelbaeumchen.wav
Peak level 100.0 % Extraction speed 7.5 X Range quality 99.9 % Test CRC D17C7118 Copy CRC D17C7118 Copy OK
No errors occurred
AccurateRip summary
Track 1 accurately ripped (confidence 9) [390879C3] (AR v1)Track 2 accurately ripped (confidence 8) [89668FC8] (AR v1)Track 3 accurately ripped (confidence 9) [97911EA5] (AR v1)Track 4 accurately ripped (confidence 9) [56FF4A63] (AR v1)Track 5 accurately ripped (confidence 9) [0B96B986] (AR v1)Track 6 accurately ripped (confidence 9) [457CE24D] (AR v1)Track 7 accurately ripped (confidence 9) [751BFAD0] (AR v1)Track 8 accurately ripped (confidence 9) [CBA71771] (AR v1)Track 9 accurately ripped (confidence 8) [A1DC9E18] (AR v1)Track 10 accurately ripped (confidence 9) [FD6DC66C] (AR v1)Track 11 accurately ripped (confidence 9) [B6582971] (AR v1)Track 12 accurately ripped (confidence 9) [2223D353] (AR v1)Track 13 accurately ripped (confidence 9) [1A4EA871] (AR v1)Track 14 accurately ripped (confidence 9) [33DE3387] (AR v1)Track 15 accurately ripped (confidence 9) [4DE409FE] (AR v1)Track 16 accurately ripped (confidence 9) [94C5BEB3] (AR v1)
All tracks accurately ripped
End of status report
==== Log checksum E1994D59CF12ACB78F65B1ABA6DDA46A1245230769FDE35DE65483280196E09E ====

Лог проверки качества

-----------------------
DON'T MODIFY THIS FILE
-----------------------
PERFORMER: auCDtect Task Manager, ver. 1.5.1RC6 build 1.5.1.7Copyright (c) 2008-2010 y-soft. All rights reservedhttp://y-soft.org
ANALYZER: auCDtect: CD records authenticity detector, version 0.8.2Copyright (c) 2004 Oleg Berngardt. All rights reserved.Copyright (c) 2004 Alexander Djourik. All rights reserved.
FILE: Reinhard Mey - Mein Apfelbaeumchen.flac Size: 334533199 Hash: A2F77CCA26A3299239D458A229120FEC Accuracy: -m0 Conclusion: CDDA 100% Signature: C2EC4CC16814220FE7173540655B4820A43F736D
[CUETools log; Date: 24.03.2013 12:54:09; Version: 2.1.4][CTDB TOCID: 4x_omuyrbenkJWo7PmtIJOdyFdM-] found.Track | CTDB Status 1 | (49/52) Accurately ripped 2 | (51/52) Accurately ripped 3 | (49/52) Accurately ripped 4 | (52/52) Accurately ripped 5 | (50/52) Accurately ripped 6 | (52/52) Accurately ripped 7 | (50/52) Accurately ripped 8 | (50/52) Accurately ripped 9 | (51/52) Accurately ripped 10 | (52/52) Accurately ripped 11 | (51/52) Accurately ripped 12 | (50/52) Accurately ripped 13 | (48/52) Accurately ripped 14 | (50/52) Accurately ripped 15 | (51/52) Accurately ripped 16 | (47/52) Accurately ripped[AccurateRip ID: 0022e31d-01a00ad3-dd0dc210] found.Track [ CRC | V2 ] Status 01 [390879c3|d4de56f5] (009+000/102) Accurately ripped 02 [89668fc8|cb8915a0] (008+000/102) Accurately ripped 03 [97911ea5|8f6954e7] (009+000/104) Accurately ripped 04 [56ff4a63|170bd329] (009+000/104) Accurately ripped 05 [0b96b986|faec6bb7] (009+000/103) Accurately ripped 06 [457ce24d|39cea57e] (009+000/104) Accurately ripped 07 [751bfad0|65a6fa50] (009+000/104) Accurately ripped 08 [cba71771|ddee71b3] (009+000/103) Accurately ripped 09 [a1dc9e18|26e1c64a] (008+000/102) Accurately ripped 10 [fd6dc66c|c24f4f79] (009+000/102) Accurately ripped 11 [b6582971|345840a8] (009+000/101) Accurately ripped 12 [2223d353|7c9eb89a] (009+000/102) Accurately ripped 13 [1a4ea871|b40097cc] (009+000/102) Accurately ripped 14 [33de3387|398138d3] (009+000/102) Accurately ripped 15 [4de409fe|b4d12593] (009+000/101) Accurately ripped 16 [94c5beb3|34f0e794] (009+000/104) Accurately rippedOffsetted by -664: 01 [61e50923] (015/102) Accurately ripped 02 [c79ee830] (015/102) Accurately ripped 03 [b513af0d] (015/104) Accurately ripped 04 [b98984a3] (015/104) Accurately ripped 05 [2cec00c6] (015/103) Accurately ripped 06 [fd0b1b15] (015/104) Accurately ripped 07 [f5dacd10] (015/104) Accurately ripped 08 [3da2d651] (015/103) Accurately ripped 09 [5d0cf988] (015/102) Accurately ripped 10 [172cb35c] (015/102) Accurately ripped 11 [59206bf9] (015/101) Accurately ripped 12 [eb6a4733] (015/102) Accurately ripped 13 [b91d4509] (014/102) Accurately ripped 14 [d1fe20e7] (015/102) Accurately ripped 15 [5a7e8636] (015/101) Accurately ripped 16 [a8529353] (015/104) Accurately rippedOffsetted by -475: 01 [d57e28cf] (020/102) Accurately ripped 02 [c67d224d] (021/102) Accurately ripped 03 [e8d2602a] (022/104) Accurately ripped 04 [c40b0a6b] (021/104) Accurately ripped 05 [a7acca2e] (021/103) Accurately ripped 06 [ce31a8fe] (021/104) Accurately ripped 07 [35d5d5d8] (021/104) Accurately ripped 08 [b6a346ed] (021/103) Accurately ripped 09 [5608d956] (021/102) Accurately ripped 10 [6885645a] (021/102) Accurately ripped 11 [59d4249a] (021/101) Accurately ripped 12 [05c9806f] (021/102) Accurately ripped 13 [7967db8c] (021/102) Accurately ripped 14 [005b9853] (021/102) Accurately ripped 15 [c33e80ed] (021/101) Accurately ripped 16 [1b0c0827] (021/104) Accurately rippedOffsetted by -349: 01 [228ee897] (005/102) Accurately ripped 02 [1b11490b] (006/102) Accurately ripped 03 [0b5180e8] (006/104) Accurately ripped 04 [2061639b] (006/104) Accurately ripped 05 [4ed7fb1e] (005/103) Accurately ripped 06 [59a0b244] (006/104) Accurately ripped 07 [607d3108] (006/104) Accurately ripped 08 [b1f8e755] (006/103) Accurately ripped 09 [515b6e8a] (006/102) Accurately ripped 10 [496b2fae] (006/102) Accurately ripped 11 [04f69fb0] (006/101) Accurately ripped 12 [6cb3a697] (006/102) Accurately ripped 13 [4eeeea8e] (006/102) Accurately ripped 14 [1f44929b] (006/102) Accurately ripped 15 [b3be7d67] (006/101) Accurately ripped 16 [6787ab5f] (005/104) Accurately rippedOffsetted by -115: 01 [43f7282f] (048/102) Accurately ripped 02 [0148feb5] (047/102) Accurately ripped 03 [6ff47492] (047/104) Accurately ripped 04 [a74ae4ab] (048/104) Accurately ripped 05 [3c28316e] (048/103) Accurately ripped 06 [ca4a55c6] (048/104) Accurately ripped 07 [d4464818] (048/104) Accurately ripped 08 [602a35cd] (047/103) Accurately ripped 09 [daf4ccc6] (047/102) Accurately ripped 10 [c683a94a] (046/102) Accurately ripped 11 [675b3b22] (045/101) Accurately ripped 12 [e2afa44f] (045/102) Accurately ripped 13 [92577424] (045/102) Accurately ripped 14 [c662f5b3] (045/102) Accurately ripped 15 [72630925] (044/101) Accurately ripped 16 [3eb66cc7] (048/104) Accurately rippedOffsetted by -914: 01 [636657cb] (000/102) No match (V2 was not tested) 02 [8974e476] (000/102) No match (V2 was not tested) 03 [faca3d53] (000/104) No match (V2 was not tested) 04 [949d2d13] (000/104) No match (V2 was not tested) 05 [05cf31f6] (000/103) No match (V2 was not tested) 06 [a34f4dc3] (000/104) No match (V2 was not tested) 07 [b99aef80] (000/104) No match (V2 was not tested) 08 [32935b19] (000/103) No match (V2 was not tested) 09 [e44cacec] (000/102) No match (V2 was not tested) 10 [5d033c60] (000/102) No match (V2 was not tested) 11 [e510d537] (000/101) No match (V2 was not tested) 12 [991fcabb] (000/102) No match (V2 was not tested) 13 [a7cc3783] (000/102) No match (V2 was not tested) 14 [fa40200f] (000/102) No match (V2 was not tested) 15 [7d4fd248] (000/101) No match (V2 was not tested) 16 [24e35bab] (000/104) No match (V2 was not tested)
Track Peak [ CRC32 ] [W/O NULL] [ LOG ] -- 100,0 [D17C7118] [A98EF332] CRC32 01 100,0 [C4DA5919] [FB6FEDAA] 02 85,3 [04C7889C] [DA0A70D1] 03 83,1 [0E22E85D] [6C5851E3] 04 85,8 [99B0C7EC] [DDFBA224] 05 95,4 [163F2603] [3E195279] 06 84,2 [05C20BBF] [EB62B2FE] 07 78,9 [D2B382A6] [5DCF666C] 08 100,0 [71A9B7A5] [F652CB47] 09 81,0 [79BAF553] [F07E06C9] 10 70,7 [53C19DBC] [21EBC51A] 11 89,7 [C00EC180] [ED04CD37] 12 86,4 [5E0B9A0A] [5DEBB64A] 13 90,9 [6CFBBBC7] [5B86A81C] 14 96,6 [8C538001] [BA57D4CE] 15 78,2 [7710AC13] [770C785C] 16 97,4 [07E1FAD2] [3BC91405]

1984 Die großen Erfolge

Треклист:
Reinhard Mey - "Die großen Erfolge" (1984)
Tracks: 16
Total time: 58:52
Year: 1984
Disc-ID: country / d90dd410
1. Ich wollte wie Orpheus singen (1968) 2:22
2. Ankomme, Freitag den 13.(1969) 4:53
3. Diplomatenjagd (1969) 3:02
4. Die Ballade vom Pfeifer (1971) 3:41
5. Der Mörder ist immer der Gärtner (1971) 4:52
6. Die heiße Schlacht am kalten Büffet (1972) 3:18
7. Annabelle, ach Annabelle (1972) 4:05
8. Ich bin Klempner von Beruf (1974) 3:27
9. Über den Wolken (1974) 3:53
10. Ein Antrag auf Erteilung eines Antragformulars (1977) 5:42
11. Es gibt Tage, da wünscht' ich, ich wär mein Hund (1975) 3:41
12. Keine ruhige Minute (1979) 2:28
13. Sommermorgen (1980) 3:24
14. Das Leben ist... (1981) 3:19
15. Was in der Zeitung steht (1983) 3:41
16. Hilf mir (1983) 3:04

Лог создания рипа

Exact Audio Copy V1.0 beta 3 from 29. August 2011
EAC extraction logfile from 28. May 2013, 8:29
Reinhard Mey / Die großen Erfolge
Used drive : PLEXTOR CD-R PX-W4012A Adapter: 1 ID: 0
Read mode : SecureUtilize accurate stream : YesDefeat audio cache : YesMake use of C2 pointers : No
Read offset correction : 98Overread into Lead-In and Lead-Out : NoFill up missing offset samples with silence : YesDelete leading and trailing silent blocks : NoNull samples used in CRC calculations : YesUsed interface : Native Win32 interface for Win NT & 2000
Used output format : Internal WAV RoutinesSample format : 44.100 Hz; 16 Bit; Stereo
TOC of the extracted CD
Track | Start | Length | Start sector | End sector --------------------------------------------------------- 1 | 0:00.33 | 2:22.62 | 33 | 10744 2 | 2:23.20 | 4:53.58 | 10745 | 32777 3 | 7:17.03 | 3:02.42 | 32778 | 46469 4 | 10:19.45 | 3:41.05 | 46470 | 63049 5 | 14:00.50 | 4:52.05 | 63050 | 84954 6 | 18:52.55 | 3:18.00 | 84955 | 99804 7 | 22:10.55 | 4:05.10 | 99805 | 118189 8 | 26:15.65 | 3:27.43 | 118190 | 133757 9 | 29:43.33 | 3:53.10 | 133758 | 151242 10 | 33:36.43 | 5:42.70 | 151243 | 176962 11 | 39:19.38 | 3:41.67 | 176963 | 193604 12 | 43:01.30 | 2:28.50 | 193605 | 204754 13 | 45:30.05 | 3:24.60 | 204755 | 220114 14 | 48:54.65 | 3:19.63 | 220115 | 235102 15 | 52:14.53 | 3:41.27 | 235103 | 251704 16 | 55:56.05 | 3:04.58 | 251705 | 265562
Range status and errors
Selected range
Filename H:\Razdachi\Reinhard Mey\Reinhard Mey - Die grossen Erfolge.wav
Peak level 96.0 % Extraction speed 12.0 X Range quality 99.9 % Test CRC 8A3F3865 Copy CRC 8A3F3865 Copy OK
No errors occurred
AccurateRip summary
Track 1 accurately ripped (confidence 4) [A652EA3D] (AR v2)Track 2 accurately ripped (confidence 4) [6634DE68] (AR v2)Track 3 accurately ripped (confidence 4) [C4EC4DE3] (AR v2)Track 4 accurately ripped (confidence 4) [8F0D9C53] (AR v2)Track 5 accurately ripped (confidence 4) [4F71A74C] (AR v2)Track 6 accurately ripped (confidence 4) [42C4118E] (AR v2)Track 7 accurately ripped (confidence 4) [4DE56964] (AR v2)Track 8 accurately ripped (confidence 4) [05F4BE32] (AR v2)Track 9 accurately ripped (confidence 4) [A9C79BDA] (AR v2)Track 10 accurately ripped (confidence 4) [696766E6] (AR v2)Track 11 accurately ripped (confidence 4) [15CB1BA5] (AR v2)Track 12 accurately ripped (confidence 4) [9C15BC46] (AR v2)Track 13 accurately ripped (confidence 4) [B3B1F168] (AR v2)Track 14 accurately ripped (confidence 4) [69D239CD] (AR v2)Track 15 accurately ripped (confidence 4) [B98EF518] (AR v2)Track 16 accurately ripped (confidence 4) [2DAA9885] (AR v2)
All tracks accurately ripped
End of status report
==== Log checksum 42E2A7C101B03AD5401DBE4FC829C7496D3E8F0A4AF86A2ACBFB9247EBFD6ACE ====

Лог проверки качества

-----------------------
DON'T MODIFY THIS FILE
-----------------------
PERFORMER: auCDtect Task Manager, ver. 1.5.1RC6 build 1.5.1.7Copyright (c) 2008-2010 y-soft. All rights reservedhttp://y-soft.org
ANALYZER: auCDtect: CD records authenticity detector, version 0.8.2Copyright (c) 2004 Oleg Berngardt. All rights reserved.Copyright (c) 2004 Alexander Djourik. All rights reserved.
FILE: Reinhard Mey - Die grossen Erfolge.flac Size: 340346553 Hash: ACCA86242009B8505E1D4D6C25339342 Accuracy: -m0 Conclusion: CDDA 100% Signature: F4B99FAF81F9A93A4F3DE1E17AA3633D72E4371A
[CUETools log; Date: 30.05.2013 13:46:03; Version: 2.1.4]Pregap length 00:00:33.[CTDB TOCID: .ETDQFl1SW2pRhCHQ05M4bIvWWg-] found.Track | CTDB Status 1 | (0/2) No match 2 | (0/2) No match 3 | (0/2) No match 4 | (0/2) No match 5 | (0/2) No match 6 | (0/2) No match 7 | (0/2) No match 8 | (0/2) No match 9 | (0/2) No match 10 | (0/2) No match 11 | (0/2) No match 12 | (0/2) No match 13 | (0/2) No match 14 | (0/2) No match 15 | (0/2) No match 16 | (0/2) No match[AccurateRip ID: 0022ecc4-01a4ba3e-d90dd410] found.Track [ CRC | V2 ] Status 01 [b45fe596|a652ea3d] (30+04/70) Accurately ripped 02 [70494413|6634de68] (31+04/72) Accurately ripped 03 [c82e012c|c4ec4de3] (31+04/71) Accurately ripped 04 [6a53ac06|8f0d9c53] (31+04/71) Accurately ripped 05 [3bbe5bd0|4f71a74c] (31+04/72) Accurately ripped 06 [de344ce6|42c4118e] (31+04/72) Accurately ripped 07 [9d1dc528|4de56964] (31+04/72) Accurately ripped 08 [ea7ca6c1|05f4be32] (31+04/72) Accurately ripped 09 [7bd1c55b|a9c79bda] (31+04/72) Accurately ripped 10 [73b43173|696766e6] (30+04/70) Accurately ripped 11 [41a92704|15cb1ba5] (30+04/69) Accurately ripped 12 [838848f2|9c15bc46] (30+04/70) Accurately ripped 13 [0efcc35e|b3b1f168] (31+04/70) Accurately ripped 14 [0f373619|69d239cd] (31+04/68) Accurately ripped 15 [3ea10b2e|b98ef518] (31+04/69) Accurately ripped 16 [3a53be28|2daa9885] (30+04/69) Accurately rippedOffsetted by 866: 01 [3ba55875] (06/70) Accurately ripped 02 [0b96687d] (06/72) Accurately ripped 03 [bbb7cc48] (06/71) Accurately ripped 04 [36a2355b] (06/71) Accurately ripped 05 [28b73f01] (06/72) Accurately ripped 06 [50c73b25] (06/72) Accurately ripped 07 [3312e49d] (06/72) Accurately ripped 08 [44015953] (06/72) Accurately ripped 09 [fd49b4b4] (06/72) Accurately ripped 10 [72e2e20f] (05/70) Accurately ripped 11 [f4f9090c] (06/69) Accurately ripped 12 [62b12277] (06/70) Accurately ripped 13 [6086b3b1] (06/70) Accurately ripped 14 [c69cfba9] (05/68) Accurately ripped 15 [c24eb87b] (06/69) Accurately ripped 16 [9796bc3e] (05/69) Accurately rippedOffsetted by 967: 01 [b4de1c52] (09/70) Accurately ripped 02 [90743244] (10/72) Accurately ripped 03 [7e213986] (10/71) Accurately ripped 04 [a10e7119] (10/71) Accurately ripped 05 [a0a6eac3] (10/72) Accurately ripped 06 [cb4a90c3] (10/72) Accurately ripped 07 [e11c5264] (10/72) Accurately ripped 08 [466b5ef4] (10/72) Accurately ripped 09 [dcae3d90] (10/72) Accurately ripped 10 [7fd0ae16] (10/70) Accurately ripped 11 [b6f0257f] (09/69) Accurately ripped 12 [7a02dbfe] (09/70) Accurately ripped 13 [d5a62374] (09/70) Accurately ripped 14 [aee179ec] (09/68) Accurately ripped 15 [bb4c096a] (09/69) Accurately ripped 16 [d6f5aa6a] (10/69) Accurately rippedOffsetted by 853: 01 [6a8ecf69] (02/70) Accurately ripped 02 [1ec45656] (02/72) Accurately ripped 03 [ee89267a] (02/71) Accurately ripped 04 [d361dd95] (02/71) Accurately ripped 05 [ad3f4dae] (02/72) Accurately ripped 06 [988b554f] (02/72) Accurately ripped 07 [b33e86cc] (02/72) Accurately ripped 08 [abcc73c5] (02/72) Accurately ripped 09 [d51e44a0] (02/72) Accurately ripped 10 [460ea27b] (02/70) Accurately ripped 11 [4cc92575] (02/69) Accurately ripped 12 [72af8a57] (02/70) Accurately ripped 13 [c8605c07] (02/70) Accurately ripped 14 [697748d2] (02/68) Accurately ripped 15 [330eb1fc] (00/69) No match (V2 was not tested) 16 [ce6c54c2] (02/69) Accurately rippedOffsetted by 2864: 01 [6baec72b] (13/70) Accurately ripped 02 [76b00059] (13/72) Accurately ripped 03 [21725e1f] (12/71) Accurately ripped 04 [731dce33] (12/71) Accurately ripped 05 [7e722dac] (13/72) Accurately ripped 06 [e0473d10] (13/72) Accurately ripped 07 [c01968ec] (00/72) No match (V2 was not tested) 08 [f9189679] (13/72) Accurately ripped 09 [fa654b2a] (13/72) Accurately ripped 10 [f50b216d] (13/70) Accurately ripped 11 [274b4d88] (12/69) Accurately ripped 12 [18f14550] (13/70) Accurately ripped 13 [a85d446a] (12/70) Accurately ripped 14 [a7d1939b] (12/68) Accurately ripped 15 [78bf9ac3] (13/69) Accurately ripped 16 [016e423f] (00/69) No match (V2 was not tested)
Track Peak [ CRC32 ] [W/O NULL] [ LOG ] -- 96,0 [8A3F3865] [9B97E06C] CRC32 01 80,4 [AA0673CE] [A28E4C0E] 02 60,8 [8098402C] [DB2ACC92] 03 54,2 [17498901] [BDC9E230] 04 82,0 [03410982] [B841A360] 05 67,0 [BFAEE976] [9925CDC6] 06 52,6 [BE37E89D] [9B04D1B3] 07 59,7 [150DDFB9] [EE613C59] 08 58,7 [234F4D10] [5BFD752B] 09 63,2 [193D167C] [C31CE55A] 10 67,8 [30B09655] [5A3DB435] 11 73,0 [72790318] [C6AC68BF] 12 72,6 [3F035C12] [F847F625] 13 73,4 [06F941A8] [0AE9B430] 14 96,0 [F2D1E106] [F59A619C] 15 92,0 [85AF88D8] [3BA05357] 16 86,3 [BB77C33F] [2C94D0A6]
Продолжение ниже

To download the file disable ad blocking, and reload the page.

disable adblock How to disable ad blocking?

Download by magnet link 6.66 GB Download Torrent

Login using:

Similar topics

(Pop, Chanson) Leonie - En Alabama / Wahala Manitou - 1971, MP3, 320 kbps
 14 MB   0 | 0   30-Apr-17 17:02   13
(Chanson) VA - Italia amore Mio - 2012, FLAC (image+.cue), lossless
 681 MB   0 | 0   30-Apr-17 21:28   13


   
Current time is: 15-Oct 23:10 :: All times are UTC ± 0