Best of France 1
Жанр: Pop
Страна-производитель диска: Made in the EC
Год издания: 1995
Издатель (лейбл): PVS Music
Номер по каталогу: pvs 17031
Страна: France
Аудиокодек: FLAC (*.flac)
Тип рипа: image+.cue
Битрейт аудио: lossless
Продолжительность: 73:13
Источник (релизер): Собственный рип
Наличие сканов в содержимом раздачи: да
Треклист:
01. Joe Dassin "Salut"
02. Adamo "Tombe La Neige "
03. Edith Piaf "Padam... Padam "
04. Patricia Kaas "Mademoiselle Chante Le Blues"
05. Dalida "Marjolaine"
06. Mireille Mathieu "La Paloma Adieu"
07. Yves Montand "La Bicyclette"
08. Mylenne Farmer "Ainsi Soit Je"
09. Charles Aznavour "La Boheme"
10. Daniel Gerard "Butterfly"
11. Desireless "Voyage Voyage"
12. Richard Anthony "Le Sirop Typhon"
13. Johny Hallyday "Pour Moi La Vie Va Commencer"
14. Patrick Juvet "La Musica"
15. Juliette Greco "Les Feuilles Mories"
16. Andre Claveau "Domino"
17. Serge Lama "D'aventure En Aventures"
18. Pierre Bachelet "Emmanuelle"
19. Gillbert Becaud "Mes Mains"
20. Adamo "Inch'allah"
21. Charles Aznavour "For Me... Formidable"

Лог создания рипа

Exact Audio Copy V1.0 beta 3 from 29. August 2011
Отчёт EAC об извлечении, выполненном 31. мая 2013, 0:28
Various / Best of France 1
Дисковод: PIONEER DVD-RW DVR-118L Adapter: 0 ID: 0
Режим чтения : ДостоверностьИспользование точного потока : ДаОтключение кэша аудио : ДаИспользование указателей C2 : Нет
Коррекция смещения при чтении : 6Способность читать области Lead-in и Lead-out : НетЗаполнение пропущенных сэмплов тишиной : ДаУдаление блоков с тишиной в начале и конце : НетПри вычислениях CRC использовались нулевые сэмплы : ДаИнтерфейс : Встроенный Win32-интерфейс для Win NT/2000
Выходной формат : Пользовательский кодировщикВыбранный битрейт : 768 kBit/sКачество : ВысокийДобавление ID3-тега : НетУтилита сжатия : C:\Program Files (x86)\Exact Audio Copy\FLAC\FLAC.EXEДополнительные параметры : -V -8 -T "Date=%year%" -T "Genre=%genre%" %source%
TOC извлечённого CD
Трек | Старт | Длительность | Начальный сектор | Конечный сектор --------------------------------------------------------------------- 1 | 0:00.30 | 3:22.07 | 30 | 15186 2 | 3:22.37 | 3:01.70 | 15187 | 28831 3 | 6:24.32 | 3:19.54 | 28832 | 43810 4 | 9:44.11 | 3:49.72 | 43811 | 61057 5 | 13:34.08 | 3:23.42 | 61058 | 76324 6 | 16:57.50 | 3:53.42 | 76325 | 93841 7 | 20:51.17 | 3:06.31 | 93842 | 107822 8 | 23:57.48 | 6:21.26 | 107823 | 136423 9 | 30:18.74 | 4:05.08 | 136424 | 154806 10 | 34:24.07 | 3:27.67 | 154807 | 170398 11 | 37:51.74 | 4:24.17 | 170399 | 190215 12 | 42:16.16 | 3:29.56 | 190216 | 205946 13 | 45:45.72 | 2:12.59 | 205947 | 215905 14 | 47:58.56 | 3:01.21 | 215906 | 229501 15 | 51:00.02 | 3:58.47 | 229502 | 247398 16 | 54:58.49 | 3:18.30 | 247399 | 262278 17 | 58:17.04 | 3:32.18 | 262279 | 278196 18 | 61:49.22 | 3:19.27 | 278197 | 293148 19 | 65:08.49 | 2:13.08 | 293149 | 303131 20 | 67:21.57 | 3:28.42 | 303132 | 318773 21 | 70:50.24 | 2:23.26 | 318774 | 329524
Характеристики диапазона извлечения и сообщения об ошибках
Выбранный диапазон
Имя файла I:\Раздачи\VA_Best of France 1_1995_by ikatsuro.EW8A_\Various - Best of France 1.wav
Пиковый уровень 98.0 % Скорость извлечения 2.1 X Качество диапазона 99.9 % CRC теста FD11F968 CRC копии FD11F968 Копирование... OK
Ошибок не произошло
AccurateRip: сводка
Трек 1 : извлечено точно (доверие 2) [12D674B3] (AR v1)Трек 2 : извлечено точно (доверие 2) [4FFA4198] (AR v1)Трек 3 : извлечено точно (доверие 1) [DD94C4F1] (AR v1)Трек 4 : извлечено точно (доверие 1) [18E996E9] (AR v1)Трек 5 : извлечено точно (доверие 1) [4D563539] (AR v1)Трек 6 : извлечено точно (доверие 1) [7C81A5AA] (AR v1)Трек 7 : извлечено точно (доверие 1) [58E3BE95] (AR v1)Трек 8 : извлечено точно (доверие 1) [D5F3D507] (AR v1)Трек 9 : извлечено точно (доверие 1) [1B9111BB] (AR v1)Трек 10 : извлечено точно (доверие 1) [C67FD143] (AR v1)Трек 11 : извлечено точно (доверие 1) [3736AAD3] (AR v1)Трек 12 : извлечено точно (доверие 1) [45F5250D] (AR v1)Трек 13 : извлечено точно (доверие 1) [E7652C39] (AR v1)Трек 14 : извлечено точно (доверие 1) [A359C566] (AR v1)Трек 15 : извлечено точно (доверие 1) [58110CB0] (AR v1)Трек 16 : извлечено точно (доверие 1) [7094C354] (AR v1)Трек 17 : извлечено точно (доверие 1) [F19C19F8] (AR v1)Трек 18 : извлечено точно (доверие 1) [C19A5BBC] (AR v1)Трек 19 : извлечено точно (доверие 1) [8961F66E] (AR v1)Трек 20 : извлечено точно (доверие 1) [F30AF49B] (AR v1)Трек 21 : извлечено точно (доверие 1) [51F7084B] (AR v1)
Все треки извлечены точно
Конец отчёта
==== Контрольная сумма отчёта 523986F0D580BCC6FF42A22214D1740B5E2CE4CF2517D4E1DF05B0274659E3A8 ====

Содержание индексной карты (.CUE)

REM GENRE PopREM DATE 1995REM DISCID 1D112915REM COMMENT "ExactAudioCopy v1.0b3"PERFORMER "Various"TITLE "Best of France 1"FILE "Various - Best of France 1.flac" WAVE TRACK 01 AUDIO TITLE "Salut" PERFORMER "Joe Dassin" INDEX 00 00:00:00 INDEX 01 00:00:30 TRACK 02 AUDIO TITLE "Tombe La Neige" PERFORMER "Adamo" INDEX 01 03:22:37 TRACK 03 AUDIO TITLE "Padam... Padam" PERFORMER "Edith Piaf" INDEX 01 06:24:32 TRACK 04 AUDIO TITLE "Mademoiselle Chante Le Blues" PERFORMER "Patricia Kaas" INDEX 01 09:44:11 TRACK 05 AUDIO TITLE "Marjolaine" PERFORMER "Dalida" INDEX 01 13:34:08 TRACK 06 AUDIO TITLE "La Paloma Adieu" PERFORMER "Mireille Mathieu" INDEX 01 16:57:50 TRACK 07 AUDIO TITLE "La Bicyclette" PERFORMER "Yves Montand" INDEX 01 20:51:17 TRACK 08 AUDIO TITLE "Ainsi Soit Je" PERFORMER "Mylenne Farmer" INDEX 01 23:57:48 TRACK 09 AUDIO TITLE "La Boheme" PERFORMER "Charles Aznavour" INDEX 01 30:18:74 TRACK 10 AUDIO TITLE "Butterfly" PERFORMER "Daniel Gerard" INDEX 01 34:24:07 TRACK 11 AUDIO TITLE "Voyage Voyage" PERFORMER "Desireless" INDEX 01 37:51:74 TRACK 12 AUDIO TITLE "Le Sirop Typhon" PERFORMER "Richard Anthony" INDEX 01 42:16:16 TRACK 13 AUDIO TITLE "Pour Moi La Vie Va Commencer" PERFORMER "Johny Hallyday" INDEX 01 45:45:72 TRACK 14 AUDIO TITLE "La Musica" PERFORMER "Patrick Juvet" INDEX 01 47:58:56 TRACK 15 AUDIO TITLE "Les Feuilles Mories" PERFORMER "Juliette Greco" INDEX 01 51:00:02 TRACK 16 AUDIO TITLE "Domino" PERFORMER "Andre Claveau" INDEX 01 54:58:49 TRACK 17 AUDIO TITLE "D'aventure En Aventures" PERFORMER "Serge Lama" INDEX 01 58:17:04 TRACK 18 AUDIO TITLE "Emmanuelle" PERFORMER "Pierre Bachelet" INDEX 01 61:49:22 TRACK 19 AUDIO TITLE "Mes Mains" PERFORMER "Gillbert Becaud" INDEX 01 65:08:49 TRACK 20 AUDIO TITLE "Inch'allah" PERFORMER "Adamo" INDEX 01 67:21:57 TRACK 21 AUDIO TITLE "For Me... Formidable" PERFORMER "Charles Aznavour" INDEX 01 70:50:24

Лог проверки качества

UDIOCHECKER v2.0 beta (build 457) - by Dester - opdester@freemail.hu~~~~~~~~~~~~~~~~~~~~~~~~~~~~~~~~~~
Начато: суббота, 01. 06. 2013. - 11:56.45Найдено файлов: 1
1 -===- I:\Раздачи\VA_Best of France 1_1995_by ikatsuro.EW8A_\Various - Best of France 1.flac Извлечение успешно выполнено Заключение: этот трек - CDDA с вероятностью 100% Временный файл удалён.
Завершено: суббота, 01. 06. 2013. - 12:01.27 (Время операции: 0:04.41)

To download the file disable ad blocking, and reload the page.

disable adblock How to disable ad blocking?

Download by magnet link 416 MB Download Torrent

Login using:

Загрузка...

Similar topics



   
Current time is: 15-Dec 17:05 :: All times are UTC + 3