FRANCIS CABREL / VISE le CIEL ou Bob Dylan revisité
Жанр: French Chanson, Soul, Blues
Страна-производитель диска: France
Год издания: 2012
Издатель (лейбл): Columbia
Номер по каталогу: 88725466522
Аудиокодек: FLAC (*.flac)
Тип рипа: tracks+.cue
Битрейт аудио: lossless
Продолжительность: 44:49
Источник (релизер): theRadDept
Наличие сканов в содержимом раздачи: нет
Треклист:
01 - Comme Une Femme (Just Like A Woman) [4:52]
02 - Quinn L'esquimau (Quinn The Eskimo) [2:30]
03 - D'en Haut De La Tour Du Guet (All Along The Watchtower) [3:29]
04 - Je Te Veux (I Want You) [3:58]
05 - On Ne Va Nulle Part (You Ain't Goin' Nowhere) [3:37]
06 - Un Simple Coup Du Sort (Simple Twist Of Fate) [4:14]
07 - La Dignité (Dignity) [4:21]
08 - Il Faudra Que Tu Serves Quelqu'un (Gotta Serve Somebody) [3:39]
09 - Tout Se Finit Là, Bébé Bleu (It's All Over Now Baby Blue) [5:04]
10 - L'histoire D'Hollis Brown (Ballad Of Hollis Brown) [4:01]
11 - Comme Blind Willie Mc Tell (Blind Willie Mc Tell) [5:05]

Лог создания рипа

Exact Audio Copy V1.0 beta 3 from 29. August 2011
EAC extraction logfile from 17. December 2012, 15:25
Francis Cabrel / Vise Le Ciel
Used drive : HL-DT-STDVDRAM GH20NS10 Adapter: 3 ID: 0
Read mode : SecureUtilize accurate stream : YesDefeat audio cache : YesMake use of C2 pointers : No
Read offset correction : 667Overread into Lead-In and Lead-Out : NoFill up missing offset samples with silence : YesDelete leading and trailing silent blocks : NoNull samples used in CRC calculations : YesUsed interface : Native Win32 interface for Win NT & 2000Gap handling : Appended to previous track
Used output format : User Defined EncoderSelected bitrate : 768 kBit/sQuality : HighAdd ID3 tag : NoCommand line compressor : C:\Program Files\Exact Audio Copy\Flac\flac.exeAdditional command line options : -V -8 -T "artist=%artist%" -T "title=%title%" -T "album=%albumtitle%" -T "date=%year%" -T "tracknumber=%tracknr%" %source%
TOC of the extracted CD
Track | Start | Length | Start sector | End sector --------------------------------------------------------- 1 | 0:00.00 | 4:51.47 | 0 | 21871 2 | 4:51.47 | 2:29.69 | 21872 | 33115 3 | 7:21.41 | 3:29.13 | 33116 | 48803 4 | 10:50.54 | 3:57.42 | 48804 | 66620 5 | 14:48.21 | 3:36.52 | 66621 | 82872 6 | 18:24.73 | 4:13.48 | 82873 | 101895 7 | 22:38.46 | 4:21.17 | 101896 | 121487 8 | 26:59.63 | 3:39.31 | 121488 | 137943 9 | 30:39.19 | 5:04.11 | 137944 | 160754 10 | 35:43.30 | 4:01.07 | 160755 | 178836 11 | 39:44.37 | 5:05.00 | 178837 | 201711
Track 1
Filename C:\Hi there Mitch Glazier, Quoi d'neuf\Francis Cabrel - Vise Le Ciel\01 - Comme Une Femme (Just Like A Woman).wav
Pre-gap length 0:00:02.00
Peak level 94.8 % Extraction speed 3.9 X Track quality 100.0 % Test CRC 68509B8D Copy CRC 68509B8D Accurately ripped (confidence 1) [6617A32C] (AR v2) Copy OK
Track 2
Filename C:\Hi there Mitch Glazier, Quoi d'neuf\Francis Cabrel - Vise Le Ciel\02 - Quinn L'esquimau (Quinn The Eskimo).wav
Peak level 93.0 % Extraction speed 3.8 X Track quality 100.0 % Test CRC 22D71CE5 Copy CRC 22D71CE5 Accurately ripped (confidence 1) [16853B77] (AR v2) Copy OK
Track 3
Filename C:\Hi there Mitch Glazier, Quoi d'neuf\Francis Cabrel - Vise Le Ciel\03 - D'en Haut De La Tour Du Guet (All Along The Watchtower).wav
Peak level 93.5 % Extraction speed 3.8 X Track quality 99.9 % Test CRC 3D57B095 Copy CRC 3D57B095 Accurately ripped (confidence 1) [41EB882D] (AR v2) Copy OK
Track 4
Filename C:\Hi there Mitch Glazier, Quoi d'neuf\Francis Cabrel - Vise Le Ciel\04 - Je Te Veux (I Want You).wav
Peak level 93.7 % Extraction speed 4.7 X Track quality 100.0 % Test CRC 95ACDDFB Copy CRC 95ACDDFB Accurately ripped (confidence 1) [8E49B913] (AR v2) Copy OK
Track 5
Filename C:\Hi there Mitch Glazier, Quoi d'neuf\Francis Cabrel - Vise Le Ciel\05 - On Ne Va Nulle Part (You Ain't Goin' Nowhere).wav
Peak level 96.1 % Extraction speed 4.9 X Track quality 100.0 % Test CRC F85800C1 Copy CRC F85800C1 Accurately ripped (confidence 1) [DC47285C] (AR v2) Copy OK
Track 6
Filename C:\Hi there Mitch Glazier, Quoi d'neuf\Francis Cabrel - Vise Le Ciel\06 - Un Simple Coup Du Sort (Simple Twist Of Fate).wav
Peak level 94.5 % Extraction speed 4.8 X Track quality 99.9 % Test CRC 50133783 Copy CRC 50133783 Accurately ripped (confidence 1) [790034C4] (AR v2) Copy OK
Track 7
Filename C:\Hi there Mitch Glazier, Quoi d'neuf\Francis Cabrel - Vise Le Ciel\07 - La Dignité (Dignity).wav
Peak level 95.1 % Extraction speed 5.7 X Track quality 100.0 % Test CRC 6720EC15 Copy CRC 6720EC15 Accurately ripped (confidence 1) [3FA7602F] (AR v2) Copy OK
Track 8
Filename C:\Hi there Mitch Glazier, Quoi d'neuf\Francis Cabrel - Vise Le Ciel\08 - Il Faudra Que Tu Serves Quelqu'un (Gotta Serve Somebody).wav
Peak level 92.5 % Extraction speed 5.8 X Track quality 100.0 % Test CRC A51AA778 Copy CRC A51AA778 Accurately ripped (confidence 1) [DC3FB885] (AR v2) Copy OK
Track 9
Filename C:\Hi there Mitch Glazier, Quoi d'neuf\Francis Cabrel - Vise Le Ciel\09 - Tout Se Finit Là, Bébé Bleu (It's All Over Now Baby Blue).wav
Peak level 91.6 % Extraction speed 6.4 X Track quality 100.0 % Test CRC A7B512CE Copy CRC A7B512CE Accurately ripped (confidence 1) [A148F6F4] (AR v2) Copy OK
Track 10
Filename C:\Hi there Mitch Glazier, Quoi d'neuf\Francis Cabrel - Vise Le Ciel\10 - L'histoire D'Hollis Brown (Ballad Of Hollis Brown).wav
Peak level 91.9 % Extraction speed 6.4 X Track quality 100.0 % Test CRC E7EA3C83 Copy CRC E7EA3C83 Accurately ripped (confidence 1) [272D21E1] (AR v2) Copy OK
Track 11
Filename C:\Hi there Mitch Glazier, Quoi d'neuf\Francis Cabrel - Vise Le Ciel\11 - Comme Blind Willie Mc Tell (Blind Willie Mc Tell).wav
Peak level 98.4 % Extraction speed 6.9 X Track quality 100.0 % Test CRC FDBCB2B5 Copy CRC FDBCB2B5 Accurately ripped (confidence 1) [F7E74A36] (AR v2) Copy OK
All tracks accurately ripped
No errors occurred
End of status report
---- CUETools DB Plugin V2.1.3
[CTDB TOCID: Tkhe5WzI_arWpDw9VQwnA6YVZJI-] found, Submit result: Tkhe5WzI_arWpDw9VQwnA6YVZJI- has been confirmed[b495a35e] (10/10) Accurately ripped
==== Log checksum 684B9051F132D495E7C9055611FDAB865B0A7EED5D72363DC83552EAB907A310 ====

Содержание индексной карты (.CUE)

REM DATE 2012REM DISCID 820A810BREM COMMENT "ExactAudioCopy v1.0b3"PERFORMER "Francis Cabrel"TITLE "Vise Le Ciel"FILE "01 - Comme Une Femme (Just Like A Woman).wav" WAVE TRACK 01 AUDIO TITLE "Comme Une Femme (Just Like A Woman)" PERFORMER "Francis Cabrel" INDEX 01 00:00:00FILE "02 - Quinn L'esquimau (Quinn The Eskimo).wav" WAVE TRACK 02 AUDIO TITLE "Quinn L'esquimau (Quinn The Eskimo)" PERFORMER "Francis Cabrel" INDEX 01 00:00:00FILE "03 - D'en Haut De La Tour Du Guet (All Along The Watchtower).wav" WAVE TRACK 03 AUDIO TITLE "D'en Haut De La Tour Du Guet (All Along The Watchtower)" PERFORMER "Francis Cabrel" INDEX 01 00:00:00FILE "04 - Je Te Veux (I Want You).wav" WAVE TRACK 04 AUDIO TITLE "Je Te Veux (I Want You)" PERFORMER "Francis Cabrel" INDEX 01 00:00:00FILE "05 - On Ne Va Nulle Part (You Ain't Goin' Nowhere).wav" WAVE TRACK 05 AUDIO TITLE "On Ne Va Nulle Part (You Ain't Goin' Nowhere)" PERFORMER "Francis Cabrel" INDEX 01 00:00:00FILE "06 - Un Simple Coup Du Sort (Simple Twist Of Fate).wav" WAVE TRACK 06 AUDIO TITLE "Un Simple Coup Du Sort (Simple Twist Of Fate)" PERFORMER "Francis Cabrel" INDEX 01 00:00:00FILE "07 - La Dignité (Dignity).wav" WAVE TRACK 07 AUDIO TITLE "La Dignité (Dignity)" PERFORMER "Francis Cabrel" INDEX 01 00:00:00FILE "08 - Il Faudra Que Tu Serves Quelqu'un (Gotta Serve Somebody).wav" WAVE TRACK 08 AUDIO TITLE "Il Faudra Que Tu Serves Quelqu'un (Gotta Serve Somebody)" PERFORMER "Francis Cabrel" INDEX 01 00:00:00FILE "09 - Tout Se Finit Là, Bébé Bleu (It's All Over Now Baby Blue).wav" WAVE TRACK 09 AUDIO TITLE "Tout Se Finit Là, Bébé Bleu (It's All Over Now Baby Blue)" PERFORMER "Francis Cabrel" INDEX 01 00:00:00FILE "10 - L'histoire D'Hollis Brown (Ballad Of Hollis Brown).wav" WAVE TRACK 10 AUDIO TITLE "L'histoire D'Hollis Brown (Ballad Of Hollis Brown)" PERFORMER "Francis Cabrel" INDEX 01 00:00:00FILE "11 - Comme Blind Willie Mc Tell (Blind Willie Mc Tell).wav" WAVE TRACK 11 AUDIO TITLE "Comme Blind Willie Mc Tell (Blind Willie Mc Tell)" PERFORMER "Francis Cabrel" INDEX 01 00:00:00

Состав

(Composer Bob Dylan / Adapter Francis Cabrel - Lyricist Bob Dylan) - Published By: Special Rider Music
Francis Cabrel - Drums:
Denis Benarrosh - Bass Guitar:
Bernard Paganotti - Acoustic Guitar:
Francis Cabrel - Electric Guitar, Vocal

To download the file disable ad blocking, and reload the page.

disable adblock How to disable ad blocking?

Download by magnet link 287 MB Download Torrent

Login using:

Загрузка...

Similar topics



   
Current time is: 15-Dec 17:44 :: All times are UTC + 3