Jenny Vanou (TZENH BANOY) / If I ever deny you my love (2013) 2CD
Жанр: Vocal pop/Chanson/Folk
Страна-производитель диска: Greece
Год издания: 2013 (1959-1982)
Издатель (лейбл): Minos-EMI
Страна: Греция
Аудиокодек: FLAC (*.flac)
Тип рипа: image+.cue
Битрейт аудио: lossless
Продолжительность: 1.00.47 + 1.02.31
Источник (релизер): awaxhome
Наличие сканов в содержимом раздачи: да

CD1: Recordings 1973-1982 (01:00:47)

01 Thaousand nights (Hilies vradies)
02 My sins (I amarties mou)
03 My boy (Agori mou)
04 It's not you (Den ise esi)
05 Drop by drop (Stagona stagona)
06 If love is a sin (An ine i agapi amartia)
07 A permanent sin (Mia amartia monimi)
08 I see you in my glass (Se vlepo sto potiri mou)
09 My unique love (Erota mou anepanalipte)
10 Come (Ela)
11 The old clock (To paliorologo)
12 Do love me (Na m' agapas)
13 And God cried with me (Ki' eklege mazi mou o Theos)
14 I lost you (Ehasa esena)
15 Listen to me (Akouse me)
16 My shadow and me (I skia mou ki' ego)
17 If I didn't love you (An de s' agapousa)
18 The moments that I want you (Tis ores pou se thelo)
19 The train of life (To treno tis zois)
20 I love you I love you (S' agapo s' agapo)

Лог создания рипа (CD1)

Exact Audio Copy V1.0 beta 3 from 29. August 2011
EAC extraction logfile from 21. April 2013, 1:52
Jenny Vanou / An s' arnitho agapi mou CD1
Used drive : HL-DT-STDVDRAM GH10N Adapter: 1 ID: 1
Read mode : SecureUtilize accurate stream : YesDefeat audio cache : YesMake use of C2 pointers : No
Read offset correction : 667Overread into Lead-In and Lead-Out : NoFill up missing offset samples with silence : YesDelete leading and trailing silent blocks : NoNull samples used in CRC calculations : YesUsed interface : Native Win32 interface for Win NT & 2000
Used output format : User Defined EncoderSelected bitrate : 1024 kBit/sQuality : HighAdd ID3 tag : YesCommand line compressor : C:\Program Files\Exact Audio Copy New\Flac\flac.exeAdditional command line options : -V -5 -T "artist=%artist%" -T "title=%title%" -T "album=%albumtitle%" -T "tracknumber=%tracknr2%" -T "genre=%genre%" -5 %source%
TOC of the extracted CD
Track | Start | Length | Start sector | End sector --------------------------------------------------------- 1 | 0:00.00 | 2:26.69 | 0 | 11018 2 | 2:26.69 | 3:22.11 | 11019 | 26179 3 | 5:49.05 | 3:07.40 | 26180 | 40244 4 | 8:56.45 | 3:12.17 | 40245 | 54661 5 | 12:08.62 | 2:49.74 | 54662 | 67410 6 | 14:58.61 | 3:01.50 | 67411 | 81035 7 | 18:00.36 | 2:59.51 | 81036 | 94511 8 | 21:00.12 | 2:29.63 | 94512 | 105749 9 | 23:30.00 | 2:54.02 | 105750 | 118801 10 | 26:24.02 | 3:28.67 | 118802 | 134468 11 | 29:52.69 | 2:21.24 | 134469 | 145067 12 | 32:14.18 | 3:52.12 | 145068 | 162479 13 | 36:06.30 | 2:12.62 | 162480 | 172441 14 | 38:19.17 | 3:19.11 | 172442 | 187377 15 | 41:38.28 | 2:51.36 | 187378 | 200238 16 | 44:29.64 | 4:21.13 | 200239 | 219826 17 | 48:51.02 | 2:30.23 | 219827 | 231099 18 | 51:21.25 | 3:51.53 | 231100 | 248477 19 | 55:13.03 | 2:51.71 | 248478 | 261373 20 | 58:04.74 | 2:42.38 | 261374 | 273561
Range status and errors
Selected range
Filename S:\MUSIC\Uploaded\GREEK\Tzenh Vanou - An s' arnitho agapi mou (2CD)\TzeVa1\Jenny Vanou - An s' arnitho agapi mou CD1.wav
Peak level 93.3 % Extraction speed 2.7 X Range quality 100.0 % Test CRC 161EFBA3 Copy CRC 161EFBA3 Copy OK
No errors occurred
AccurateRip summary
Track 1 not present in databaseTrack 2 not present in databaseTrack 3 not present in databaseTrack 4 not present in databaseTrack 5 not present in databaseTrack 6 not present in databaseTrack 7 not present in databaseTrack 8 not present in databaseTrack 9 not present in databaseTrack 10 not present in databaseTrack 11 not present in databaseTrack 12 not present in databaseTrack 13 not present in databaseTrack 14 not present in databaseTrack 15 not present in databaseTrack 16 not present in databaseTrack 17 not present in databaseTrack 18 not present in databaseTrack 19 not present in databaseTrack 20 not present in database
None of the tracks are present in the AccurateRip database
End of status report
---- CUETools DB Plugin V2.1.3
[CTDB TOCID: MvjsL9jouQAUyzvt9ASOwPQKumI-] found, Submit result: MvjsL9jouQAUyzvt9ASOwPQKumI- has been confirmed[73ceb05c] (1/1) Accurately ripped
==== Log checksum EE467AAB647615FDAFD7E7DBC58C1456F10AC616877C1ACCD7A4730CB956FD15 ====

CD2: From 45 r.p.m. records 1959-1964 (01:02:31)

01 If I ever deny you my love (An s' arnitho agapi mou)
02 The slave (I sklava)
03 Double sweet pain (Diplos glikos kaimos)
04 Woman from Istanbul (Politissa)
05 Maybe he remembers me (Isos na me thimate)
06 My blue sky (Ah ourane galazie)
07 Could it be you (Tha ise mipos esi)
08 Send me some kisses with the wind (Stile mou filia me ton aera)
09 The lemon tree (I lemonia)
10 The plane (To platani)
11 River my little river (Potami potamaki mou)
12 If you love me my love (An m' agapas agapi mou)
13 Don't ask me (Mi me rotas)
14 The little dove (To peristeraki)
15 See you again sweet blue eyes (Kali antamosi matakia galana)
16 Wake up my love (Xipna agapi mou)
17 Karagkiozis
18 The grey cat (To gkrizo gati)
19 Somewhere is my love (Kapou iparhi i agapi mou)
20.The one penny jasmine flowers (Tis mias drahmis ta giasemia)

Лог создания рипа (CD2)

Exact Audio Copy V1.0 beta 3 from 29. August 2011
EAC extraction logfile from 28. April 2013, 3:19
Jenny Vanou / An s' arnitho agapi mou CD2
Used drive : HL-DT-STDVDRAM GH10N Adapter: 1 ID: 1
Read mode : SecureUtilize accurate stream : YesDefeat audio cache : YesMake use of C2 pointers : No
Read offset correction : 667Overread into Lead-In and Lead-Out : NoFill up missing offset samples with silence : YesDelete leading and trailing silent blocks : NoNull samples used in CRC calculations : YesUsed interface : Native Win32 interface for Win NT & 2000
Used output format : User Defined EncoderSelected bitrate : 1024 kBit/sQuality : HighAdd ID3 tag : YesCommand line compressor : C:\Program Files\Exact Audio Copy New\Flac\flac.exeAdditional command line options : -V -5 -T "artist=%artist%" -T "title=%title%" -T "album=%albumtitle%" -T "tracknumber=%tracknr2%" -T "genre=%genre%" -5 %source%
TOC of the extracted CD
Track | Start | Length | Start sector | End sector --------------------------------------------------------- 1 | 0:00.00 | 1:55.65 | 0 | 8689 2 | 1:55.65 | 3:32.17 | 8690 | 24606 3 | 5:28.07 | 3:31.22 | 24607 | 40453 4 | 8:59.29 | 3:00.05 | 40454 | 53958 5 | 11:59.34 | 3:21.46 | 53959 | 69079 6 | 15:21.05 | 2:58.42 | 69080 | 82471 7 | 18:19.47 | 3:03.23 | 82472 | 96219 8 | 21:22.70 | 3:22.04 | 96220 | 111373 9 | 24:44.74 | 3:07.36 | 111374 | 125434 10 | 27:52.35 | 3:20.30 | 125435 | 140464 11 | 31:12.65 | 2:42.61 | 140465 | 152675 12 | 33:55.51 | 2:59.64 | 152676 | 166164 13 | 36:55.40 | 3:22.47 | 166165 | 181361 14 | 40:18.12 | 3:00.59 | 181362 | 194920 15 | 43:18.71 | 2:50.31 | 194921 | 207701 16 | 46:09.27 | 3:07.29 | 207702 | 221755 17 | 49:16.56 | 3:08.35 | 221756 | 235890 18 | 52:25.16 | 2:37.63 | 235891 | 247728 19 | 55:03.04 | 2:51.53 | 247729 | 260606 20 | 57:54.57 | 4:36.72 | 260607 | 281378
Range status and errors
Selected range
Filename S:\MUSIC\Uploaded\GREEK\Tzenh Vanou - An s' arnitho agapi mou (2CD)\TzeVa2\Jenny Vanou - An s' arnitho agapi mou CD2.wav
Peak level 96.5 % Extraction speed 4.7 X Range quality 99.9 % Test CRC ED1339EE Copy CRC ED1339EE Copy OK
No errors occurred
AccurateRip summary
Track 1 not present in databaseTrack 2 not present in databaseTrack 3 not present in databaseTrack 4 not present in databaseTrack 5 not present in databaseTrack 6 not present in databaseTrack 7 not present in databaseTrack 8 not present in databaseTrack 9 not present in databaseTrack 10 not present in databaseTrack 11 not present in databaseTrack 12 not present in databaseTrack 13 not present in databaseTrack 14 not present in databaseTrack 15 not present in databaseTrack 16 not present in databaseTrack 17 not present in databaseTrack 18 not present in databaseTrack 19 not present in databaseTrack 20 not present in database
None of the tracks are present in the AccurateRip database
End of status report
---- CUETools DB Plugin V2.1.3
[CTDB TOCID: VINOK6AubvMV4f7rnL.uhX3fJqU-] disk not present in database, Submit result: VINOK6AubvMV4f7rnL.uhX3fJqU- has been uploaded
==== Log checksum 00821958CA767982A43C9CFAAF9B0DAFE6C6E56908418DDF2988A0EA35FE03DC ====

Об исполнителе (группе)

Греческая певица "шестидесятица", легенда греческого музыкального пантеона. У неё мощный и выразительный голос, и она была очень популярной в 60-е и 70-е годы. Джени исполняла в основном вид народной баллады, который известен как «легкие песни» (по-гречески elafra). Дженни считается одной из лучших греческих женских голосов. В этом двойном альбоме вы найдете 40 очень красивых песен

To download the file disable ad blocking, and reload the page.

disable adblock How to disable ad blocking?

Download by magnet link 647 MB Download Torrent

Login using:

Similar topics



   
Current time is: 18-Oct 04:46 :: All times are UTC ± 0