Herman van Veen / Liederbuch
Жанр: Liedermacher
Страна-производитель диска: W.Germany
Год издания: 1978
Издатель (лейбл): Polydor
Номер по каталогу: 835 385-2
Страна: Holland
Аудиокодек: FLAC (*.flac)
Тип рипа: image+.cue
Битрейт аудио: lossless
Продолжительность: 00:49:33
Источник (релизер): avax
Наличие сканов в содержимом раздачи: нет
Треклист:
01 - Kleiner Fratz (Girl On A Bicycle) 2:48
02 - Alles was ich hab' 2:12
03 - Kind 5:29
04 - Weißt du wie es war 3:03
05 - Blüten 0:30
06 - Ich hab' ein zärtliches Gefühl 3:08
07 - Eine Geschichte von Gott 2:58
08 - Sinn für Unsinn 3:06
09 - Ohne dich 5:25
10 - Klitschnasse Clowns 2:32
11 - Sie sagt nicht viel 3:31
12 - Das Liebeslied 2:05
13 - An eine ferne Prinzessin 2:26
14 - Der Mann, der so gerne nicht mehr leben wollte 4:55
15 - Etwas Wärme suchen 2:54
16 - Bis jemand mich hört 2:31

Лог создания рипа

Exact Audio Copy V1.0 beta 3 from 29. August 2011
EAC extraction logfile from 6. November 2012, 21:29
Herman van Veen / Liederbuch
Used drive : PIONEER BD-RW BDR-206 Adapter: 0 ID: 2
Read mode : SecureUtilize accurate stream : YesDefeat audio cache : YesMake use of C2 pointers : No
Read offset correction : 667Overread into Lead-In and Lead-Out : NoFill up missing offset samples with silence : YesDelete leading and trailing silent blocks : NoNull samples used in CRC calculations : YesUsed interface : Native Win32 interface for Win NT & 2000
Used output format : User Defined EncoderSelected bitrate : 1024 kBit/sQuality : HighAdd ID3 tag : YesCommand line compressor : C:\Program Files\FLAC\flac.exeAdditional command line options : -5 -T "Artist=%artist%" -T "Title=%title%" -T "Album=%albumtitle%" -T "Date=%year%" -T "Tracknumber=%tracknr%" -T "Genre=%genre%" %source% -o %dest%
TOC of the extracted CD
Track | Start | Length | Start sector | End sector --------------------------------------------------------- 1 | 0:00.33 | 2:48.25 | 33 | 12657 2 | 2:48.58 | 2:12.37 | 12658 | 22594 3 | 5:01.20 | 5:28.50 | 22595 | 47244 4 | 10:29.70 | 3:03.13 | 47245 | 60982 5 | 13:33.08 | 0:30.00 | 60983 | 63232 6 | 14:03.08 | 3:08.25 | 63233 | 77357 7 | 17:11.33 | 2:58.25 | 77358 | 90732 8 | 20:09.58 | 3:05.62 | 90733 | 104669 9 | 23:15.45 | 5:24.50 | 104670 | 129019 10 | 28:40.20 | 2:31.38 | 129020 | 140382 11 | 31:11.58 | 3:30.50 | 140383 | 156182 12 | 34:42.33 | 2:04.50 | 156183 | 165532 13 | 36:47.08 | 2:26.25 | 165533 | 176507 14 | 39:13.33 | 4:55.00 | 176508 | 198632 15 | 44:08.33 | 2:53.62 | 198633 | 211669 16 | 47:02.20 | 2:31.00 | 211670 | 222994
Range status and errors
Selected range
Filename F:\=== VINYL RIPS ===\=== EAC===\X FRESH RIP\Herman van Veen - Liederbuch.wav
Peak level 89.8 % Extraction speed 6.9 X Range quality 100.0 % Test CRC 1D3321FB Copy CRC 1D3321FB Copy OK
No errors occurred
AccurateRip summary
Track 1 accurately ripped (confidence 15) [72DA3005] (AR v1)Track 2 accurately ripped (confidence 15) [B50D86E3] (AR v1)Track 3 accurately ripped (confidence 15) [76AA1B02] (AR v1)Track 4 accurately ripped (confidence 14) [A36D6E20] (AR v1)Track 5 accurately ripped (confidence 15) [744DCAA8] (AR v1)Track 6 accurately ripped (confidence 15) [D517D888] (AR v1)Track 7 accurately ripped (confidence 15) [1CB2E361] (AR v1)Track 8 accurately ripped (confidence 15) [644C4FB0] (AR v1)Track 9 accurately ripped (confidence 14) [74AD8B9D] (AR v1)Track 10 accurately ripped (confidence 15) [F748D268] (AR v1)Track 11 accurately ripped (confidence 15) [963C2188] (AR v1)Track 12 accurately ripped (confidence 14) [FDE1632E] (AR v1)Track 13 accurately ripped (confidence 15) [D5437652] (AR v1)Track 14 accurately ripped (confidence 15) [CDD2D6A9] (AR v1)Track 15 accurately ripped (confidence 15) [75FC5EFA] (AR v1)Track 16 accurately ripped (confidence 15) [E8CC4032] (AR v1)
All tracks accurately ripped
End of status report
---- CUETools DB Plugin V2.1.3
[CTDB TOCID: 6x2iaaH6Ed1M2ww4zhALKVx4BTc-] disk not present in database, Submit result: discs with pregaps not supported in this protocol version
==== Log checksum 3F229FFCB9244E1559A5B0D6C5533F0F277C7EE39D4B537133AEDFB8F000174B ====

Лог проверки качества

AUDIOCHECKER v2.0 beta (build 457) - by Dester - opdester@freemail.hu~~~~~~~~~~~~~~~~~~~~~~~~~~~~~~~~~~-=== DO NOT EDIT THIS FILE! ===-
Path: ...\Herman van Veen - Liederbuch {1978}
1 -=- Herman van Veen - Liederbuch.flac -=- CDDA (100%)
61652948

О сборнике

CD-версия альбома немецкоязычных песен голландского автора-исполнителя. Издана ориентировочно в конце 1980-х (на изделии год выпуска не указан).

Для скачивания файла отключите блокировку рекламы и перезагрузите страницу.

disable adblock Как отключить блокировку рекламы?

Скачать по магнет ссылке 201 MB 

Войти с помощью:



   
Текущее время: 14-Авг 19:40 :: Часовой пояс: UTC ± 0