Pierre Bachelet / Tu Es la Au Rendez-Vous
Жанр: French Chanson
Страна-производитель диска: France
Год издания: 1988
Издатель (лейбл): a.v.r.e.p.
Номер по каталогу: 4743
Страна: France
Аудиокодек: FLAC (*.flac)
Тип рипа: image+.cue
Битрейт аудио: lossless
Источник (релизер): Личная коллекция
Наличие сканов в содержимом раздачи: да
Треклист:
1.Tu Es Lа
2.Mais Moi J'ai Rien Dit
3.Reviens Chez Nous
4.C'est Pour Elle
5.Je Suis Craquant
6.Les Corons
7.Embrasse-Lа
8.Des Nouvelles De Vous
9.Quand L'enfant Viendra
10.En L'an 2001
11.Marionnettiste
12.Dernier Bal
13.20 Ans
14.Tu Es La

Лог создания рипа

Exact Audio Copy V1.0 beta 3 from 29. August 2011
EAC extraction logfile from 20. April 2013, 0:02
Pierre Bachelet / Tu es la au rendez-vous
Used drive : TSSTcorpCDDVDW SH-222AL Adapter: 1 ID: 0
Read mode : SecureUtilize accurate stream : YesDefeat audio cache : YesMake use of C2 pointers : No
Read offset correction : 6Overread into Lead-In and Lead-Out : NoFill up missing offset samples with silence : YesDelete leading and trailing silent blocks : NoNull samples used in CRC calculations : YesUsed interface : Installed external ASPI interface
Used output format : Internal WAV RoutinesSample format : 44.100 Hz; 16 Bit; Stereo
TOC of the extracted CD
Track | Start | Length | Start sector | End sector --------------------------------------------------------- 1 | 0:00.32 | 3:32.70 | 32 | 16001 2 | 3:33.27 | 3:57.10 | 16002 | 33786 3 | 7:30.37 | 3:17.38 | 33787 | 48599 4 | 10:48.00 | 4:54.52 | 48600 | 70701 5 | 15:42.52 | 2:18.55 | 70702 | 81106 6 | 18:01.32 | 3:44.60 | 81107 | 97966 7 | 21:46.17 | 3:24.68 | 97967 | 113334 8 | 25:11.10 | 2:55.37 | 113335 | 126496 9 | 28:06.47 | 3:33.33 | 126497 | 142504 10 | 31:40.05 | 4:46.20 | 142505 | 163974 11 | 36:26.25 | 4:46.70 | 163975 | 185494 12 | 41:13.20 | 6:52.65 | 185495 | 216459 13 | 48:06.10 | 5:20.17 | 216460 | 240476 14 | 53:26.27 | 1:08.35 | 240477 | 245611
Range status and errors
Selected range
Filename D:\torrent-razdacha\Pierre Bachelet - Tu es la au rendez-vous 1988\Pierre Bachelet - Tu es la au rendez-vous.wav
Peak level 100.0 % Extraction speed 2.9 X Range quality 99.9 % Test CRC A9697E7A Copy CRC A9697E7A Copy OK
No errors occurred
AccurateRip summary
Track 1 cannot be verified as accurate (confidence 1) [5A65F193], AccurateRip returned [2F950FD2] (AR v2)Track 2 cannot be verified as accurate (confidence 1) [8416179E], AccurateRip returned [A63048BD] (AR v2)Track 3 cannot be verified as accurate (confidence 1) [255DDBAA], AccurateRip returned [B5A4F07D] (AR v2)Track 4 cannot be verified as accurate (confidence 1) [D69D8A7E], AccurateRip returned [80BB7438] (AR v2)Track 5 cannot be verified as accurate (confidence 1) [9B6D61D7], AccurateRip returned [5ECC7F7B] (AR v2)Track 6 cannot be verified as accurate (confidence 1) [E2883C4F], AccurateRip returned [057FC181] (AR v2)Track 7 cannot be verified as accurate (confidence 1) [22819C0B], AccurateRip returned [37FA6F03] (AR v2)Track 8 cannot be verified as accurate (confidence 1) [94B01312], AccurateRip returned [511DF5D4] (AR v2)Track 9 cannot be verified as accurate (confidence 1) [B917A119], AccurateRip returned [2575EE42] (AR v2)Track 10 cannot be verified as accurate (confidence 1) [6E89FD94], AccurateRip returned [B83C2787] (AR v2)Track 11 cannot be verified as accurate (confidence 1) [86EAF79E], AccurateRip returned [2C65CADC] (AR v2)Track 12 cannot be verified as accurate (confidence 1) [D6F391C2], AccurateRip returned [6E64A763] (AR v2)Track 13 cannot be verified as accurate (confidence 1) [A3379CF5], AccurateRip returned [E2C54E12] (AR v2)Track 14 cannot be verified as accurate (confidence 1) [69A00BF0], AccurateRip returned [F5CFAB70] (AR v2)
No tracks could be verified as accurateYou may have a different pressing from the one(s) in the database
End of status report
==== Log checksum 816DCC906A7C0B6C770788758F4628F5A451018C53DB675E244C401FAD6978E8 ====

Содержание индексной карты (.CUE)

REM GENRE ChansonREM DATE 1988REM DISCID C20CCA0EREM COMMENT "ExactAudioCopy v1.0b3"PERFORMER "Pierre Bachelet"TITLE "Tu es la au rendez-vous"FILE "Pierre Bachelet - Tu es la au rendez-vous.flac" WAVE TRACK 01 AUDIO TITLE "Tu es la" PERFORMER "Pierre Bachelet" ISRC FR04F8800090 INDEX 00 00:00:00 INDEX 01 00:00:32 TRACK 02 AUDIO TITLE "Mais moi j'ai rien dit" PERFORMER "Pierre Bachelet" ISRC FR04F8800090 INDEX 01 03:33:27 TRACK 03 AUDIO TITLE "Reviens chez nous" PERFORMER "Pierre Bachelet" ISRC FR04F8800070 INDEX 01 07:30:37 TRACK 04 AUDIO TITLE "C'est pour elle" PERFORMER "Pierre Bachelet" ISRC FR04F8800600 INDEX 00 10:47:74 INDEX 01 10:48:00 TRACK 05 AUDIO TITLE "Je suis craquant" PERFORMER "Pierre Bachelet" ISRC FR04F8800050 INDEX 01 15:42:52 TRACK 06 AUDIO TITLE "Les corons" PERFORMER "Pierre Bachelet" ISRC FR04F8800110 INDEX 01 18:01:32 TRACK 07 AUDIO TITLE "Embrasse-la" PERFORMER "Pierre Bachelet" ISRC FR04F8800040 INDEX 01 21:46:17 TRACK 08 AUDIO TITLE "Des nouvelles de vous" PERFORMER "Pierre Bachelet" INDEX 00 25:11:09 INDEX 01 25:11:10 TRACK 09 AUDIO TITLE "Quand l'enfant viendra" PERFORMER "Pierre Bachelet" INDEX 01 28:06:47 TRACK 10 AUDIO TITLE "En l'an 2001" PERFORMER "Pierre Bachelet" ISRC FR04F8800030 INDEX 00 31:40:04 INDEX 01 31:40:05 TRACK 11 AUDIO TITLE "Marionnettiste" PERFORMER "Pierre Bachelet" ISRC FR04F8800020 INDEX 00 36:26:24 INDEX 01 36:26:25 TRACK 12 AUDIO TITLE "Dernier bal" PERFORMER "Pierre Bachelet" ISRC FR04F8800020 INDEX 00 41:13:19 INDEX 01 41:13:20 TRACK 13 AUDIO TITLE "20 ans" PERFORMER "Pierre Bachelet" ISRC FR04F8800100 INDEX 00 48:06:09 INDEX 01 48:06:10 TRACK 14 AUDIO TITLE "Tu es la" PERFORMER "Pierre Bachelet" ISRC FR04F8800010 INDEX 01 53:26:27

To download the file disable ad blocking, and reload the page.

disable adblock How to disable ad blocking?

Download by magnet link 351 MB Download Torrent

Login using:

Загрузка...

Similar topics



   
Current time is: 16-Dec 17:56 :: All times are UTC + 3