Next Brel. Tribute To Jacques Brel
Жанр: Rock, Vocal, Chanson
Страна-производитель диска: USA
Год издания: 2005
Издатель (лейбл): DRG
Номер по каталогу: 8484
Аудиокодек: FLAC (*.flac)
Тип рипа: image+.cue
Битрейт аудио: lossless
Продолжительность: 00:41:32
Источник (релизер): Личная коллекция
Наличие сканов в содержимом раздачи: да
Треклист:
1.Mathilde - Scott Walker 2:36
2.If You Go Away - Dusty Springfield 3:53
3.Amsterdam - David Bowie 3:23
4.Next - The Sensational Alex Harvey Band 3:10
5.Jackie - The Divine Comedy 3:49
6.Why Should It Be That a Man Gets Bored - Paul Armfield 3:52
7.The Lovers - Jimmie F. Rodgers 4:46
8.Les Flamandes - Barbara 2:17
9.The Girls and the Dogs - Scott Walker 3:08
10.Ne Me Quitte Pas - Nina Simone 3:36
11.Litany for a Return - Marc Almond 2:02
12.My Death - Scott Walker 4:55

Лог создания рипа

Exact Audio Copy V1.0 beta 3 from 29. August 2011
EAC extraction logfile from 8. April 2013, 22:36
Various Artists / Next Brel
Used drive : TSSTcorpCDDVDW SH-222AL Adapter: 1 ID: 0
Read mode : SecureUtilize accurate stream : YesDefeat audio cache : YesMake use of C2 pointers : No
Read offset correction : 6Overread into Lead-In and Lead-Out : NoFill up missing offset samples with silence : YesDelete leading and trailing silent blocks : NoNull samples used in CRC calculations : YesUsed interface : Installed external ASPI interface
Used output format : Internal WAV RoutinesSample format : 44.100 Hz; 16 Bit; Stereo
TOC of the extracted CD
Track | Start | Length | Start sector | End sector --------------------------------------------------------- 1 | 0:00.00 | 2:36.54 | 0 | 11753 2 | 2:36.54 | 3:53.56 | 11754 | 29284 3 | 6:30.35 | 3:23.38 | 29285 | 44547 4 | 9:53.73 | 3:10.15 | 44548 | 58812 5 | 13:04.13 | 3:49.03 | 58813 | 75990 6 | 16:53.16 | 3:52.61 | 75991 | 93451 7 | 20:46.02 | 4:46.67 | 93452 | 114968 8 | 25:32.69 | 2:17.14 | 114969 | 125257 9 | 27:50.08 | 3:08.39 | 125258 | 139396 10 | 30:58.47 | 3:36.40 | 139397 | 155636 11 | 34:35.12 | 2:02.42 | 155637 | 164828 12 | 36:37.54 | 4:55.00 | 164829 | 186953
Range status and errors
Selected range
Filename D:\torrent-razdacha\Various Artists - Next Brel 2005\Various Artists - Next Brel.wav
Peak level 100.0 % Extraction speed 6.7 X Range quality 100.0 % Test CRC ED2B05F7 Copy CRC ED2B05F7 Copy OK
No errors occurred
AccurateRip summary
Track 1 not present in databaseTrack 2 not present in databaseTrack 3 not present in databaseTrack 4 not present in databaseTrack 5 not present in databaseTrack 6 not present in databaseTrack 7 not present in databaseTrack 8 not present in databaseTrack 9 not present in databaseTrack 10 not present in databaseTrack 11 not present in databaseTrack 12 not present in database
None of the tracks are present in the AccurateRip database
End of status report
==== Log checksum 56250623E0C22765E3583D483BE960CDEF8E436DEF9B9E234520971D79E3A6B6 ====

Содержание индексной карты (.CUE)

REM GENRE VocalREM DATE 2005REM DISCID AD09BC0CREM COMMENT "ExactAudioCopy v1.0b3"PERFORMER "Various Artists"TITLE "Next Brel"FILE "Various Artists - Next Brel.flac" WAVE TRACK 01 AUDIO TITLE "Mathilde" PERFORMER "Scott Walker" ISRC GBF086700021 FLAGS DCP INDEX 01 00:00:00 TRACK 02 AUDIO TITLE "If You Go Away" PERFORMER "Dusty Springfield" FLAGS DCP INDEX 00 02:35:36 INDEX 01 02:36:54 TRACK 03 AUDIO TITLE "Amsterdam" PERFORMER "David Bowie" FLAGS DCP INDEX 00 06:27:52 INDEX 01 06:30:35 TRACK 04 AUDIO TITLE "Next" PERFORMER "The Sensational Alex Harvey Band " ISRC GBF087300189 FLAGS DCP INDEX 00 09:53:08 INDEX 01 09:53:73 TRACK 05 AUDIO TITLE "Jackie" PERFORMER "Divine Comedy" ISRC GBGJB0300009 FLAGS DCP INDEX 00 13:02:51 INDEX 01 13:04:13 TRACK 06 AUDIO TITLE "Why Should It Be That A Man Gets Bored" PERFORMER "Paul Armfield" FLAGS DCP INDEX 00 16:50:36 INDEX 01 16:53:16 TRACK 07 AUDIO TITLE "The Lovers" PERFORMER "Jimmie Rodgers" FLAGS DCP INDEX 00 20:42:35 INDEX 01 20:46:02 TRACK 08 AUDIO TITLE "Les Flamandes" PERFORMER "Barbara" FLAGS DCP INDEX 00 25:31:12 INDEX 01 25:32:69 TRACK 09 AUDIO TITLE "The Girls And The Dogs" PERFORMER "Scott Walker" ISRC GBF086800069 FLAGS DCP INDEX 00 27:48:67 INDEX 01 27:50:08 TRACK 10 AUDIO TITLE "Ne Me Quitte Pas" PERFORMER "Nina Simone" ISRC USPR36500081 FLAGS DCP INDEX 00 30:56:20 INDEX 01 30:58:47 TRACK 11 AUDIO TITLE "Litany For A Return" PERFORMER "Marc Almond" FLAGS DCP INDEX 00 34:33:56 INDEX 01 34:35:12 TRACK 12 AUDIO TITLE "My Death" PERFORMER "Scott Walker" ISRC GBF086700026 FLAGS DCP INDEX 00 36:36:22 INDEX 01 36:37:54

Для скачивания файла отключите блокировку рекламы и перезагрузите страницу.

disable adblock Как отключить блокировку рекламы?

Скачать по магнет ссылке 297 MB 

Войти с помощью:

Загрузка...
Загрузка...


   
Текущее время: 21-Июн 10:37 :: Часовой пояс: UTC ± 0