Salvatore Adamo / Un soir au Zanzibar - En Concert
Жанр: French Chanson
Страна-производитель диска: EU
Год издания: 2004
Издатель (лейбл): Polydor
Номер по каталогу: 982 581-2
Страна: France
Аудиокодек: FLAC (*.flac)
Тип рипа: image+.cue
Битрейт аудио: lossless
Продолжительность: 01:24:03
Источник (релизер): Личная коллекция
Наличие сканов в содержимом раздачи: да
Треклист:

CD1

1 C'est ma vie 3:472 Une mèche de cheveux 2:163 J'avais oublié que les roses sont roses 3:464 Zanzibar 5:005 Ô monde 4:236 Amour perdu 2:167 Mon douloureux orient 4:498 Tombe la neige 3:349 Mes mains sur tes hanches 3:1710 Ne t'en va pas 4:1211 Mon voisin sur la lune 4:3812 Mourir dans tes bras 5:57

CD2

1 20 ans 4:402 La Nuit 3:163 Ma tête 3:004 Un air en fa mineur 4:435 Inch Allah 4:596 Vous permettez Monsieur 3:557 Les Filles du bord de mer 5:548 J'te lache plus 5:32

Лог создания рипа CD1

Exact Audio Copy V1.0 beta 3 from 29. August 2011
EAC extraction logfile from 30. March 2013, 13:32
Salvatore Adamo / Un soir au Zanzibar [ cd 1]
Used drive : TSSTcorpCDDVDW SH-222AL Adapter: 1 ID: 0
Read mode : SecureUtilize accurate stream : YesDefeat audio cache : YesMake use of C2 pointers : No
Read offset correction : 6Overread into Lead-In and Lead-Out : NoFill up missing offset samples with silence : YesDelete leading and trailing silent blocks : NoNull samples used in CRC calculations : YesUsed interface : Installed external ASPI interface
Used output format : Internal WAV RoutinesSample format : 44.100 Hz; 16 Bit; Stereo
TOC of the extracted CD
Track | Start | Length | Start sector | End sector --------------------------------------------------------- 1 | 0:00.00 | 3:47.69 | 0 | 17093 2 | 3:47.69 | 2:16.21 | 17094 | 27314 3 | 6:04.15 | 3:46.10 | 27315 | 44274 4 | 9:50.25 | 5:00.51 | 44275 | 66825 5 | 14:51.01 | 4:23.64 | 66826 | 86614 6 | 19:14.65 | 2:18.22 | 86615 | 96986 7 | 21:33.12 | 4:49.16 | 96987 | 118677 8 | 26:22.28 | 3:34.19 | 118678 | 134746 9 | 29:56.47 | 3:17.16 | 134747 | 149537 10 | 33:13.63 | 4:12.21 | 149538 | 168458 11 | 37:26.09 | 4:38.48 | 168459 | 189356 12 | 42:04.57 | 5:57.09 | 189357 | 216140
Range status and errors
Selected range
Filename D:\torrent-razdacha\Salvatore Adamo - Un soir au Zanzibar [2CD]\Salvatore Adamo - Un soir au Zanzibar [ cd 1].wav
Peak level 99.8 % Extraction speed 2.8 X Range quality 100.0 % Test CRC F3F62E2A Copy CRC F3F62E2A Copy OK
No errors occurred
AccurateRip summary
Track 1 not present in databaseTrack 2 not present in databaseTrack 3 not present in databaseTrack 4 not present in databaseTrack 5 not present in databaseTrack 6 accurately ripped (confidence 1) [38999E3D] (AR v1)Track 7 not present in databaseTrack 8 accurately ripped (confidence 1) [7F2DCBED] (AR v1)Track 9 accurately ripped (confidence 1) [C5123EEB] (AR v1)Track 10 accurately ripped (confidence 1) [387886A4] (AR v1)Track 11 not present in databaseTrack 12 accurately ripped (confidence 1) [8F22A271] (AR v1)
5 трек(и) скопированы точно 7 трек(и) не содержатся в базе AccurateRip
Some tracks could not be verified as accurate
End of status report
==== Log checksum FC3D82AE0FBE1149E5D551FEA64EDD8E66568BCF2229AA0F221B2161264E7BA5 ====

Лог создания рипа CD2

Exact Audio Copy V1.0 beta 3 from 29. August 2011
EAC extraction logfile from 30. March 2013, 18:25
Salvatore Adamo / Un soir au Zanzibar [ cd 2]
Used drive : TSSTcorpCDDVDW SH-222AL Adapter: 1 ID: 0
Read mode : SecureUtilize accurate stream : YesDefeat audio cache : YesMake use of C2 pointers : No
Read offset correction : 6Overread into Lead-In and Lead-Out : NoFill up missing offset samples with silence : YesDelete leading and trailing silent blocks : NoNull samples used in CRC calculations : YesUsed interface : Installed external ASPI interface
Used output format : Internal WAV RoutinesSample format : 44.100 Hz; 16 Bit; Stereo
TOC of the extracted CD
Track | Start | Length | Start sector | End sector --------------------------------------------------------- 1 | 0:00.00 | 4:40.30 | 0 | 21029 2 | 4:40.30 | 3:16.15 | 21030 | 35744 3 | 7:56.45 | 3:00.60 | 35745 | 49304 4 | 10:57.30 | 4:43.57 | 49305 | 70586 5 | 15:41.12 | 4:58.72 | 70587 | 93008 6 | 20:40.09 | 3:55.36 | 93009 | 110669 7 | 24:35.45 | 5:54.31 | 110670 | 137250 8 | 30:30.01 | 5:32.03 | 137251 | 162153
Range status and errors
Selected range
Filename D:\torrent-razdacha\Salvatore Adamo - Un soir au Zanzibar [2CD]\Salvatore Adamo - Un soir au Zanzibar [ cd 2].wav
Peak level 99.8 % Extraction speed 2.5 X Range quality 100.0 % Test CRC BFDE8A5E Copy CRC BFDE8A5E Copy OK
No errors occurred
AccurateRip summary
Track 1 not present in databaseTrack 2 accurately ripped (confidence 1) [E040EA77] (AR v1)Track 3 not present in databaseTrack 4 not present in databaseTrack 5 accurately ripped (confidence 1) [6E4C0A1F] (AR v1)Track 6 accurately ripped (confidence 1) [2D90B67F] (AR v1)Track 7 accurately ripped (confidence 1) [6F32A30B] (AR v1)Track 8 not present in database
4 трек(и) скопированы точно 4 трек(и) не содержатся в базе AccurateRip
Some tracks could not be verified as accurate
End of status report
==== Log checksum F348AEA45AD07B512DDF376821D009A8E2E40B240159866A81EC0F373D2FB4DA ====

Содержание индексной карты (.CUE) CD1

REM GENRE ChansonREM DATE 2004REM DISCID C20B410CREM COMMENT "ExactAudioCopy v1.0b3"CATALOG 0602498258132PERFORMER "Salvatore Adamo"TITLE "Un soir au Zanzibar [ cd 1]"FILE "Salvatore Adamo - Un soir au Zanzibar [ cd 1].flac" WAVE TRACK 01 AUDIO TITLE "C'est ma vie" PERFORMER "Salvatore Adamo" ISRC FRZ020401440 INDEX 01 00:00:00 TRACK 02 AUDIO TITLE "Une meche de cheveux" PERFORMER "Salvatore Adamo" ISRC FRZ020401450 INDEX 01 03:47:69 TRACK 03 AUDIO TITLE "J'avais oublie que les roses sont roses" PERFORMER "Salvatore Adamo" ISRC FRZ020401470 INDEX 01 06:04:15 TRACK 04 AUDIO TITLE "Zanzibar" PERFORMER "Salvatore Adamo" ISRC FRZ020401490 INDEX 01 09:50:25 TRACK 05 AUDIO TITLE "O Monde !" PERFORMER "Salvatore Adamo" ISRC FRZ020401500 INDEX 01 14:51:01 TRACK 06 AUDIO TITLE "Amour perdu" PERFORMER "Salvatore Adamo" ISRC FRZ020401750 INDEX 01 19:14:65 TRACK 07 AUDIO TITLE "Mon douloureux Orient" PERFORMER "Salvatore Adamo" ISRC FRZ020401520 INDEX 01 21:33:12 TRACK 08 AUDIO TITLE "Tombe la neige" PERFORMER "Salvatore Adamo" ISRC FRZ020401530 INDEX 01 26:22:28 TRACK 09 AUDIO TITLE "Mes mains sur tes hanches" PERFORMER "Salvatore Adamo" ISRC FRZ020401540 INDEX 01 29:56:47 TRACK 10 AUDIO TITLE "Ne t'en va pas" PERFORMER "Salvatore Adamo" ISRC FRZ020401550 INDEX 01 33:13:63 TRACK 11 AUDIO TITLE "Mon voisin sur la Lune" PERFORMER "Salvatore Adamo" ISRC FRZ020401560 INDEX 01 37:26:09 TRACK 12 AUDIO TITLE "Mourir dans tes bras" PERFORMER "Salvatore Adamo" ISRC FRZ020401570 INDEX 01 42:04:57

Содержание индексной карты (.CUE) CD1

REM GENRE ChansonREM DATE 2004REM DISCID 6F087208REM COMMENT "ExactAudioCopy v1.0b3"CATALOG 0602498258149PERFORMER "Salvatore Adamo"TITLE "Un soir au Zanzibar [ cd 2]"FILE "Salvatore Adamo - Un soir au Zanzibar [ cd 2].flac" WAVE TRACK 01 AUDIO TITLE "20 Ans" PERFORMER "Salvatore Adamo" ISRC FRZ020401590 INDEX 01 00:00:00 TRACK 02 AUDIO TITLE "La Nuit" PERFORMER "Salvatore Adamo" ISRC FRZ020401610 INDEX 01 04:40:30 TRACK 03 AUDIO TITLE "Ma Tete" PERFORMER "Salvatore Adamo" ISRC FRZ020401610 INDEX 01 07:56:45 TRACK 04 AUDIO TITLE "Un Air en fa Mineur" PERFORMER "Salvatore Adamo" ISRC FRZ020401650 INDEX 01 10:57:30 TRACK 05 AUDIO TITLE "Inch'Allah" PERFORMER "Salvatore Adamo" ISRC FRZ020401660 INDEX 01 15:41:12 TRACK 06 AUDIO TITLE "Vouz Permettez Monsieur" PERFORMER "Salvatore Adamo" ISRC FRZ020401680 INDEX 01 20:40:09 TRACK 07 AUDIO TITLE "Les Filles du Bord de Mer" PERFORMER "Salvatore Adamo" ISRC FRZ020401700 INDEX 01 24:35:45 TRACK 08 AUDIO TITLE "J'te Lache Plus" PERFORMER "Salvatore Adamo" ISRC FRZ020401710 INDEX 01 30:30:01

Для скачивания файла отключите блокировку рекламы и перезагрузите страницу.

disable adblock Как отключить блокировку рекламы?

Скачать по магнет ссылке 578 MB 

Войти с помощью:

Загрузка...
Загрузка...


   
Текущее время: 21-Июн 10:37 :: Часовой пояс: UTC ± 0